#TITLE:Overwhelming;
#SUBTITLE:;
#ARTIST:good-cool;
#TITLETRANSLIT:;
#SUBTITLETRANSLIT:;
#ARTISTTRANSLIT:;
#GENRE:;
#CREDIT:;
#BANNER:;
#BACKGROUND:Overwhelming-bg.jpg;
#LYRICSPATH:;
#CDTITLE:;
#MUSIC:Overwhelming.ogg;
#OFFSET:-0.460000;
#SAMPLESTART:8.325992;
#SAMPLELENGTH:12.000000;
#SELECTABLE:YES;
#BPMS:0.000000=121.959999
;
#STOPS:
;
#BGCHANGES:;
#KEYSOUNDS:;
#ATTACKS:;

//---------------dance-single - ----------------
#NOTES:
     dance-single:
     :
     Hard:
     10:
     0.408541,0.459458,0.252334,0.000000,0.084111,272.000000,248.000000,24.000000,0.000000,0.000000,0.000000,0.408541,0.459458,0.252334,0.000000,0.084111,272.000000,248.000000,24.000000,0.000000,0.000000,0.000000:
// measure 0
0000
0000
0000
0000
,  // measure 1
0000
0000
0000
0000
,  // measure 2
0000
0000
0000
0000
,  // measure 3
0000
0000
0000
0000
,  // measure 4
1000
0001
0100
0000
0001
1000
0100
0000
,  // measure 5
0001
1000
0100
0000
1000
0001
0100
0001
,  // measure 6
0010
0000
0001
0000
1000
0000
0000
0000
1000
0000
0000
1000
0000
0000
1000
0000
,  // measure 7
0001
0000
0100
0000
0001
0000
0000
0000
0001
0000
0000
0001
0000
0000
0001
0000
,  // measure 8
1000
0000
1001
0000
1000
0100
0010
0001
,  // measure 9
0100
0000
1001
0000
1000
0100
0010
0001
,  // measure 10
1000
0000
1000
0000
0000
1000
0000
0000
0001
0000
0000
0001
0000
0000
0100
0000
,  // measure 11
0100
0000
0000
0000
1001
0000
0000
0000
1000
0001
1000
0001
1000
0001
1000
0001
,  // measure 12
1000
0100
1000
0000
0001
0100
0001
0000
,  // measure 13
1000
0100
1000
0000
0001
0100
0001
0000
,  // measure 14
1000
0000
1000
0000
0100
0000
0000
0000
1000
0000
0000
1000
0000
0000
1000
0000
,  // measure 15
0001
0000
0001
0000
0100
0000
0000
0000
0001
0000
0000
0001
0000
0000
0001
0000
,  // measure 16
0100
0000
1001
0000
0010
1000
0100
0010
,  // measure 17
0001
0000
1001
0000
0001
0100
0010
1000
,  // measure 18
0001
0000
0001
0000
0000
0001
0000
0000
0001
0000
0000
0001
0000
0000
0001
0000
,  // measure 19
1000
0000
0010
0000
0100
0000
0001
0000
0100
0010
0100
0010
0100
0010
0100
0010
,  // measure 20
0100
0000
0100
0000
1001
0000
1000
0100
,  // measure 21
0010
0000
1001
0000
0010
0000
0001
0010
,  // measure 22
0100
1000
0001
0000
0010
0001
0100
0000
,  // measure 23
0100
0010
1000
0001
1000
0100
0000
0010
,  // measure 24
0000
0001
0001
0000
0010
0000
1001
0000
,  // measure 25
1000
0100
0010
0000
0010
0000
1001
0000
,  // measure 26
0010
1000
0100
0010
0100
0010
0001
1000
,  // measure 27
0000
1000
0100
1000
0001
0010
0000
0010
,  // measure 28
0000
0001
0001
0000
1000
0000
1001
0000
,  // measure 29
1000
0100
0010
0000
0010
0000
0001
1000
,  // measure 30
0001
0000
0101
0000
0001
0100
0001
0000
,  // measure 31
1000
0000
1100
0000
1000
0100
1000
0000
,  // measure 32
1000
0001
1000
0001
0100
0010
0100
0010
,  // measure 33
1000
1001
0100
1001
,  // measure 34
0100
0000
0001
0000
0100
0010
0100
0000
,  // measure 35
0001
0000
1000
0000
0100
1000
0010
0000
,  // measure 36
0100
0001
0100
0000
0001
0100
0001
0000
,  // measure 37
1000
0100
1000
0001
0100
0001
1000
0001
,  // measure 38
0100
0000
0100
0010
0000
0100
0010
0000
,  // measure 39
1001
0000
0010
0100
0000
0010
0100
0000
,  // measure 40
1001
0000
1000
0100
0000
0010
0001
0000
,  // measure 41
1001
0000
0001
0010
0000
0100
1000
0000
,  // measure 42
1001
0000
1000
0010
0000
0100
0001
0000
,  // measure 43
1001
0000
0001
0100
0000
0010
1000
0000
,  // measure 44
1001
0000
1000
0001
0000
0001
1000
0000
,  // measure 45
1001
0000
0000
1010
0000
0000
0101
0000
,  // measure 46
1001
0000
0000
0000
;

//---------------dance-single - ----------------
#NOTES:
     dance-single:
     :
     Medium:
     7:
     0.301900,0.314366,0.252334,0.031542,0.042056,201.000000,177.000000,24.000000,3.000000,0.000000,0.000000,0.301900,0.314366,0.252334,0.031542,0.042056,201.000000,177.000000,24.000000,3.000000,0.000000,0.000000:
0000
0000
0000
0000
,
0000
0000
0000
0000
,
0000
0000
0000
0000
,
0000
0000
0000
0000
,
0010
0000
0100
0000
0010
0000
0100
0010
,
0001
0000
0100
0000
0100
0000
1000
0001
,
0100
0000
0000
0000
0010
0000
0000
0000
0010
0000
0000
1000
0000
0000
0100
0000
,
0000
0000
0001
0000
0100
0000
0000
0000
0010
0000
0000
0100
0000
0000
1000
0000
,
0010
0000
1000
0000
1000
0000
0010
0001
,
0100
0001
1000
0010
,
0000
0000
0100
0000
0000
1000
0000
0000
0001
0000
0000
0010
0000
0000
0001
0000
,
0100
0010
1000
0100
,
1001
1000
0010
0001
,
0001
0010
1000
0100
,
0010
0000
1000
0000
0100
0000
0000
0000
0010
0000
0000
0001
0000
0000
1001
0000
,
0000
0000
0010
0000
1000
0000
0000
0000
0100
0000
0000
0010
0000
0000
0001
0000
,
0100
0000
0010
0000
1000
0000
0001
0100
,
0001
0010
0001
0010
,
0001
0000
0010
0000
0000
0100
0000
0000
1000
0000
0000
0001
0000
0000
0010
0000
,
0001
0100
0010
1000
,
1002
0103
0020
1030
,
0020
0130
0010
1000
,
0100
0001
0010
0100
,
0100
1000
1000
1001
,
0001
0001
0010
1001
,
1000
0100
0010
0000
0010
0000
1001
0000
,
0010
0100
0100
1000
,
1001
0100
0001
1001
,
1001
0001
0010
1001
,
1000
0100
0010
0000
0010
0000
0001
1000
,
0001
0101
0001
0001
,
1000
1100
1000
1000
,
1000
0001
0100
0010
,
1000
1100
0001
0101
,
1001
0001
0100
0100
,
0001
1000
0100
0010
,
0100
0100
0001
0001
,
1000
0000
1000
0000
0100
0001
1000
0000
,
1001
0000
0000
0010
0000
0000
0010
0000
,
1001
0000
0000
0100
0000
0000
0100
0000
,
1001
0000
0000
0100
0000
0000
0001
0000
,
1001
0000
0000
0010
0000
0000
1000
0000
,
1001
0000
0000
0010
0000
0000
0001
0000
,
1001
0000
0000
0100
0000
0000
1000
0000
,
1001
0000
0000
0001
0000
0000
1000
0000
,
1001
0000
0000
0100
0000
0000
0010
0000
,
1001
0000
0000
0000
;

//---------------dance-single - ----------------
#NOTES:
     dance-single:
     :
     Easy:
     5:
     0.268856,0.314366,0.252334,0.178737,0.000000,179.000000,155.000000,24.000000,17.000000,0.000000,0.000000,0.268856,0.314366,0.252334,0.178737,0.000000,179.000000,155.000000,24.000000,17.000000,0.000000,0.000000:
0000
0000
0000
0000
,
0000
0000
0000
0000
,
0000
0000
0000
0000
,
0000
0000
0000
0000
,
0010
0100
0010
0100
,
0001
0100
0100
1000
,
0100
0010
0020
0000
,
0130
0100
0002
0000
,
0013
1000
1000
0010
,
0100
0001
1000
0010
,
2000
0000
3002
0000
,
0103
0010
1000
0100
,
1001
1000
0010
0001
,
0001
0010
1000
0100
,
0010
0100
0010
1001
,
0010
1000
0100
0001
,
0100
0010
1000
0001
,
0001
0010
0001
0010
,
0002
0000
2003
0000
,
3001
0100
0010
1000
,
1002
0103
0020
1030
,
0020
0130
0010
1000
,
0100
0001
0010
0100
,
0100
1000
1000
1001
,
0001
0001
0010
1001
,
1000
0010
0010
1001
,
0010
0100
0100
1000
,
1001
0100
0001
1001
,
1001
0001
0010
1001
,
1000
0010
0010
0001
,
0001
0101
0001
0001
,
1000
1100
1000
1000
,
1000
0001
0100
0010
,
1000
1100
0001
0101
,
1001
0001
0100
0100
,
0001
1000
0100
0010
,
0100
0100
0001
0001
,
1000
1000
0100
1000
,
1002
0000
0100
0103
,
2001
0000
0100
3100
,
1002
0000
0100
0103
,
2001
0000
0100
3100
,
1002
0000
0010
0013
,
2001
0000
0010
3010
,
1002
0000
0010
1003
,
2001
0000
0010
3001
,
1001
0000
0000
0000
;

//---------------dance-single - ----------------
#NOTES:
     dance-single:
     :
     Beginner:
     2:
     0.132175,0.169274,0.052570,0.000000,0.000000,88.000000,83.000000,5.000000,0.000000,0.000000,0.000000,0.132175,0.169274,0.052570,0.000000,0.000000,88.000000,83.000000,5.000000,0.000000,0.000000,0.000000:
0000
0000
0000
0000
,
0000
0000
0000
0000
,
0000
0000
0000
0000
,
0000
0000
0000
0000
,
0010
0000
0010
0000
,
0001
0000
0100
0000
,
0100
0000
0000
0000
,
0100
0000
0000
0000
,
0010
0000
1000
0000
,
0100
0000
1000
0000
,
1000
0000
0001
0000
,
0100
0000
1000
0000
,
1001
0000
0010
0000
,
0001
0000
1000
0000
,
0010
0000
0010
0000
,
0010
0000
0100
0000
,
0100
0000
1000
0000
,
0001
0000
0001
0000
,
0001
0000
1000
0000
,
0001
0000
0010
0000
,
1000
0000
0010
0000
,
0010
0000
0010
0000
,
0100
0000
0010
0000
,
0100
0000
1000
0000
,
0001
0000
0010
0000
,
1000
0000
0010
0000
,
0010
0000
0100
0000
,
1001
0000
0001
0000
,
1001
0000
0010
0000
,
1000
0000
0010
0000
,
0001
0000
0001
0000
,
1000
0000
1000
0000
,
1000
0000
0100
0000
,
1000
0000
0001
0000
,
1001
0000
0100
0000
,
0001
0000
0100
0000
,
0100
0000
0001
0000
,
1000
0000
0100
0000
,
1000
0000
0100
0000
,
0001
0000
0100
0000
,
1000
0000
0100
0000
,
0001
0000
0100
0000
,
1000
0000
0010
0000
,
0001
0000
0010
0000
,
1000
0000
0010
0000
,
0001
0000
0010
0000
,
1001
0000
0000
0000
;
