#VERSION:0.83;
#TITLE:OVERDOSER;
#SUBTITLE:(Temperature Mix);
#ARTIST:MIRAK;
#TITLETRANSLIT:;
#SUBTITLETRANSLIT:;
#ARTISTTRANSLIT:;
#GENRE:;
#ORIGIN:;
#CREDIT:;
#BANNER:OVERDOSER (Temperture Mix).png;
#BACKGROUND:OVERDOSER (Temperture Mix)-bg.png;
#PREVIEWVID:;
#JACKET:OVERDOSER (Temperture Mix)-jacket.png;
#CDIMAGE:;
#DISCIMAGE:;
#LYRICSPATH:;
#CDTITLE:;
#MUSIC:OVERDOSER (Temperture Mix).ogg;
#OFFSET:-0.652000;
#SAMPLESTART:44.286549;
#SAMPLELENGTH:12.000000;
#SELECTABLE:YES;
#BPMS:0.000=132.000;
#STOPS:;
#DELAYS:;
#WARPS:;
#TIMESIGNATURES:0.000=4=4;
#TICKCOUNTS:0.000=4;
#COMBOS:0.000=1;
#SPEEDS:0.000=1.000=0.000=0;
#SCROLLS:0.000=1.000;
#FAKES:;
#LABELS:0.000=Song Start;
#BGCHANGES:;
#KEYSOUNDS:;
#ATTACKS:
;

//---------------dance-single - ----------------
#NOTEDATA:;
#CHARTNAME:;
#STEPSTYPE:dance-single;
#DESCRIPTION:;
#CHARTSTYLE:;
#DIFFICULTY:Challenge;
#METER:13;
#RADARVALUES:0.531325,0.601599,0.405977,0.026192,0.366689,284.000000,253.000000,31.000000,2.000000,0.000000,0.000000,0.000000,0.000000,0.000000,0.531325,0.601599,0.405977,0.026192,0.366689,284.000000,253.000000,31.000000,2.000000,0.000000,0.000000,0.000000,0.000000,0.000000;
#CREDIT:;
#NOTES:
// measure 0
0000
0000
0000
0000
,  // measure 1
0000
0000
0000
0000
,  // measure 2
1000
0000
0000
1000
0000
0000
1000
0000
0000
0000
1000
0000
1000
0001
0000
0000
,  // measure 3
0001
0000
0000
0001
0000
0000
0001
0000
0000
0000
0001
0000
0001
1000
0001
1000
,  // measure 4
0001
0000
0000
0010
0000
0000
0001
0000
0000
0000
1000
0000
0100
0000
0010
0000
,  // measure 5
0001
0000
0000
0010
0000
0000
0001
0000
0000
0000
1000
0000
0100
0000
0010
0000
,  // measure 6
0001
0000
0000
0010
0000
0000
0001
0000
0000
0000
1000
0000
0100
0000
0010
0000
,  // measure 7
0001
0000
0000
0010
0000
0000
0001
0000
0000
0000
1000
0000
0100
0000
0010
0000
,  // measure 8
1001
0000
0000
0000
0110
0000
0000
0100
0010
0000
0010
0000
0110
0000
0000
0000
,  // measure 9
1001
0000
0000
0000
0110
0000
0000
0100
0010
0000
0010
0000
0110
0000
0110
0000
,  // measure 10
1001
0000
0000
0000
0110
0000
0000
0100
0010
0000
0010
0000
0110
0000
0000
0000
,  // measure 11
1001
0000
0000
0000
0011
0000
0000
0000
1100
0000
0100
0000
1000
0100
1000
0100
,  // measure 12
1000
0000
0000
0000
1000
0000
0000
0010
1000
0000
1000
0000
1100
0000
0000
0000
,  // measure 13
1000
0000
0000
0000
0100
0000
0000
0100
1000
0000
0100
0000
0010
0000
0001
0000
,  // measure 14
0010
0000
0000
0000
0100
0000
0000
1000
0100
0000
0100
0000
1100
0000
0000
0000
,  // measure 15
1000
0001
0100
0001
0100
0001
0100
0001
0100
0001
0100
0001
1000
0000
0000
0000
,  // measure 16
1001
0000
0000
0000
1000
0000
0000
0010
1000
0000
1001
0000
0000
0000
0001
0000
,  // measure 17
1000
0100
0010
0000
0000
1001
0000
0110
,  // measure 18
0020
1000
0000
0100
1030
0000
1001
0000
,  // measure 19
0110
0000
0000
0000
1000
0000
0000
0100
1000
0000
1000
0000
0100
0000
0000
0000
,  // measure 20
1000
0000
0000
0000
0100
0000
0000
0000
1000
0000
0100
0000
0001
0100
0000
0000
,  // measure 21
1001
0000
0000
0000
0110
0000
0000
0000
0100
0000
0010
0000
1000
0001
0000
0000
,  // measure 22
0110
0000
0000
0000
1001
0000
0000
0000
1000
0000
0001
0000
0010
0100
0000
0000
,  // measure 23
0110
0000
0000
0000
1001
0000
0000
0000
0001
0000
1000
0000
0100
0010
0000
0010
,  // measure 24
0000
0000
0000
0000
1001
0000
0000
1000
0100
0000
0100
0000
1000
0000
0001
0000
,  // measure 25
0010
0000
0000
0000
0001
0000
0000
0001
1000
0000
1000
0000
0100
0000
0010
0000
,  // measure 26
0001
1100
1001
1010
,  // measure 27
1000
0100
1000
0100
1000
0100
1000
0100
1000
0100
1000
0100
1000
0000
0000
0000
,  // measure 28
1000
0000
0001
0000
0010
0000
0010
0100
0000
0100
1000
0000
1000
0000
0010
0000
,  // measure 29
1000
0000
0001
0000
1000
0000
0001
1000
0000
1000
0001
0000
1000
0000
0100
0000
,  // measure 30
0001
0000
0100
0000
1000
0000
0100
1000
0000
1000
0100
0000
1000
0000
0100
0000
,  // measure 31
0010
0000
0001
0000
0100
0000
0100
0001
0000
0001
0100
0000
0001
0000
0100
0000
,  // measure 32
0010
0000
1000
0000
0100
0000
1000
0000
0100
1000
0100
1000
0100
0000
1000
0000
,  // measure 33
0001
1000
0010
1000
0010
0100
0001
1000
,  // measure 34
0010
0000
1000
0000
0100
0000
1000
0100
1000
0000
1000
0100
1000
0000
1000
0100
,  // measure 35
1000
0000
0100
0000
1000
0000
0100
1000
0100
1000
0100
1000
0100
1000
0100
1000
,  // measure 36
0200
0000
0000
0300
;
