#VERSION:0.83;
#TITLE:OVERDOSER;
#SUBTITLE:(Driving Dub Mix);
#ARTIST:MIRAK;
#TITLETRANSLIT:;
#SUBTITLETRANSLIT:;
#ARTISTTRANSLIT:;
#GENRE:;
#ORIGIN:;
#CREDIT:;
#BANNER:OVERDOSER DRIVING DUB MIX-bn.png;
#BACKGROUND:OVERDOSER DRIVING DUB MIX-bg.png;
#PREVIEWVID:;
#JACKET:OVERDOSER DRIVING DUB MIX-jacket.png;
#CDIMAGE:;
#DISCIMAGE:;
#LYRICSPATH:;
#CDTITLE:;
#MUSIC:Overdoser Driving Dub Mix.ogg;
#OFFSET:-0.705000;
#SAMPLESTART:21.489006;
#SAMPLELENGTH:13.986000;
#SELECTABLE:YES;
#BPMS:0.000=138.000;
#STOPS:;
#DELAYS:;
#WARPS:;
#TIMESIGNATURES:0.000=4=4;
#TICKCOUNTS:0.000=4;
#COMBOS:0.000=1;
#SPEEDS:0.000=1.000=0.000=0;
#SCROLLS:0.000=1.000;
#FAKES:;
#LABELS:0.000=Song Start;
#BGCHANGES:;
#KEYSOUNDS:;
#ATTACKS:
;

//---------------dance-single - ----------------
#NOTEDATA:;
#CHARTNAME:;
#STEPSTYPE:dance-single;
#DESCRIPTION:;
#CHARTSTYLE:;
#DIFFICULTY:Hard;
#METER:11;
#RADARVALUES:0.557088,0.621139,0.514801,0.000000,0.051480,303.000000,263.000000,40.000000,0.000000,0.000000,0.000000,0.000000,0.000000,0.000000,0.557088,0.621139,0.514801,0.000000,0.051480,303.000000,263.000000,40.000000,0.000000,0.000000,0.000000,0.000000,0.000000,0.000000;
#CREDIT:;
#NOTES:
0000
0000
0000
0000
,
0000
0000
0000
0000
,
0000
0000
0000
0000
,
0000
0000
0000
0000
,
1000
1100
1000
1100
,
1000
1100
1000
1100
,
1000
1100
1000
1100
,
1000
1100
1000
1100
,
1000
1100
1000
1100
,
1000
1100
1000
1100
,
1000
1100
1000
1100
,
0000
0000
0000
0000
,
1001
1000
0100
1000
1001
1000
0100
1000
,
1001
1000
0100
1000
1001
1000
0100
1000
,
1001
1000
0100
1000
1001
1000
0100
1000
,
1001
1000
0100
1000
1001
1000
0100
1000
,
1001
1000
0100
1000
1001
1000
0100
1000
,
1001
1000
0100
1000
1001
1000
0100
1000
,
1001
1000
0100
1000
1001
0100
1000
0010
,
1000
0001
1000
0010
1000
0100
1000
0100
,
1001
1000
0100
1000
1001
1000
0100
1000
,
1001
1000
0100
1000
1001
1000
0100
1000
,
1001
1000
0100
1000
1001
1000
0100
0010
,
0001
1000
0100
0010
0001
1000
0100
0010
,
0001
0000
1000
0000
0000
0000
1000
0001
0000
0000
1001
0000
0000
0000
1000
0001
,
0000
1000
0100
0010
1000
0100
0001
1000
,
0100
0000
1000
0000
0000
0000
1000
0001
0000
0000
1001
0000
0000
0000
1000
0001
,
0000
0010
0100
0010
0001
0010
0100
0010
,
0000
0000
1000
0000
0000
0000
1000
0001
0000
0000
0000
0000
1000
0000
1000
0001
,
0000
0000
0000
0000
,
0000
0000
1000
0000
0000
0000
1000
0001
0000
0000
1000
0000
0000
0000
1000
0001
,
0000
0000
0000
0000
0000
1000
0100
1000
,
0100
1000
0010
1001
0100
1000
0001
0011
,
0100
1000
0010
0100
0001
1010
0001
0110
,
0001
1000
0010
1000
0010
0100
0010
0100
,
0001
1000
0001
0100
0010
0100
0001
0010
,
0100
1000
0100
1000
0001
0010
0001
1000
,
0100
0010
0100
0010
0001
0100
0010
0100
,
0001
1000
0010
0100
0010
1000
0010
1000
,
0001
0100
0010
1000
0001
0100
0001
0010
,
0100
1000
0010
1000
0100
1000
0001
0100
,
0001
0100
0010
0100
0001
1000
0001
0100
,
0010
1000
0100
1000
0010
1000
0100
0010
,
0001
0100
0010
1000
0001
0010
0001
0100
;

//---------------dance-single - ----------------
#NOTEDATA:;
#CHARTNAME:;
#STEPSTYPE:dance-single;
#DESCRIPTION:;
#CHARTSTYLE:;
#DIFFICULTY:Medium;
#METER:7;
#RADARVALUES:0.419195,0.451737,0.205920,0.000000,0.064350,228.000000,212.000000,16.000000,0.000000,0.000000,0.000000,0.000000,0.000000,0.000000,0.419195,0.451737,0.205920,0.000000,0.064350,228.000000,212.000000,16.000000,0.000000,0.000000,0.000000,0.000000,0.000000,0.000000;
#CREDIT:;
#NOTES:
0000
0000
0000
0000
,
0000
0000
0000
0000
,
0000
0000
0000
0000
,
0000
0000
0000
0000
,
1000
1001
0001
1001
,
1000
1001
0001
1001
,
1000
1001
0001
1001
,
1000
1001
0001
1001
,
1000
0000
0000
1000
0000
0000
1000
0000
0000
1000
0000
0000
1000
0000
0000
1000
,
0000
0000
1000
0000
0000
1000
0000
0000
1000
0000
0000
1000
0000
0000
1000
0000
,
0001
0000
0000
0001
0000
0000
0001
0000
0000
0001
0000
0000
0001
0000
0000
0001
,
0000
0000
0001
0000
0000
0001
0000
0000
0001
0000
0000
0001
0000
0000
0001
0000
,
0100
0100
0100
0000
0010
0010
0010
0000
,
0100
0100
0100
0000
0010
0010
0010
0000
,
1000
1000
1000
0000
0001
0001
0001
0000
,
1000
1000
1000
0000
0001
0001
0001
0000
,
1000
1000
1000
0000
0001
0001
0001
0000
,
1000
0001
1000
0000
0001
1000
0001
0000
,
1000
0001
1000
0000
0001
1000
0001
0000
,
0100
0010
0100
0000
0010
0100
0010
0000
,
0100
0010
0100
0000
0010
0100
0010
0000
,
1000
0100
1000
0000
0001
0010
0001
0000
,
1000
0100
1000
0000
0001
0010
0001
0000
,
1000
0100
1000
0000
0001
0010
0001
0000
,
1000
1000
1000
1000
,
1000
0000
1000
0000
1000
0000
1000
0001
,
1000
0001
1000
0000
1000
0000
1000
0001
,
1000
0000
1000
0001
1000
0001
1000
0000
,
0000
1001
0000
1001
0000
0000
1001
0000
,
0000
0000
0000
0000
,
0000
0110
0000
0110
0000
0110
0000
0110
,
0000
0000
0000
0000
,
1000
0001
1000
0001
1000
0001
1000
0000
,
0001
1000
0001
1000
0001
1000
0001
0000
,
0100
0010
0100
0010
0100
0010
0100
0000
,
0010
0100
0010
0100
0010
0100
0010
0000
,
1001
0000
1000
0001
1000
0000
1000
0001
,
1000
0001
0100
0000
0010
0100
0010
0100
,
0001
0000
1000
0001
1000
0000
0001
1000
,
0001
1000
0010
1000
0100
1000
0010
1000
,
0001
0000
0001
1000
0001
0000
0001
1000
,
0001
1000
0001
0000
0000
1000
0000
0010
,
1000
0000
0000
0100
0000
0000
0000
1000
,
0000
0100
1000
1000
0000
0001
0000
0001
;

//---------------dance-single - ----------------
#NOTEDATA:;
#CHARTNAME:;
#STEPSTYPE:dance-single;
#DESCRIPTION:;
#CHARTSTYLE:;
#DIFFICULTY:Easy;
#METER:5;
#RADARVALUES:0.330943,0.389640,0.205920,0.000000,0.064350,180.000000,164.000000,16.000000,0.000000,0.000000,0.000000,0.000000,0.000000,0.000000,0.330943,0.389640,0.205920,0.000000,0.064350,180.000000,164.000000,16.000000,0.000000,0.000000,0.000000,0.000000,0.000000,0.000000;
#CREDIT:;
#NOTES:
0000
0000
0000
0000
,
0000
0000
0000
0000
,
0000
0000
0000
0000
,
0000
0000
0000
0000
,
0001
1001
1000
1001
,
0001
1001
1000
1001
,
0001
1001
1000
1001
,
0001
1001
1000
1001
,
1000
0000
0000
1000
0000
0000
1000
0000
0000
1000
0000
0000
1000
0000
0000
1000
,
0000
0000
1000
0000
0000
1000
0000
0000
1000
0000
0000
1000
0000
0000
1000
0000
,
0001
0000
0000
0001
0000
0000
0001
0000
0000
0001
0000
0000
0001
0000
0000
0001
,
0000
0000
0001
0000
0000
0001
0000
0000
0001
0000
0000
0001
0000
0000
0001
0000
,
0100
0100
0010
0010
,
0100
0100
0010
0010
,
1000
1000
0001
0001
,
1000
1000
0001
0001
,
1000
0001
1000
0001
,
1000
0001
1000
0001
,
0100
0010
0100
0010
,
0100
0010
0100
0010
,
1000
0100
0010
0001
,
1000
0100
0010
0001
,
1000
0010
0001
0100
,
1000
0010
0001
0100
,
1000
1000
1000
1000
,
1000
0000
1000
0000
1000
0000
1000
0001
,
0000
0001
1000
0000
1000
0000
1000
0001
,
1000
0000
1000
0001
0000
0001
1000
0000
,
0000
1001
0000
1001
0000
0000
1001
0000
,
0000
0000
0000
0000
,
0000
0110
0000
0110
0000
0110
0000
0110
,
0000
0000
0000
0000
,
1000
0000
1000
0001
1000
0000
1000
0000
,
0001
1000
0001
0000
0001
0000
0001
0000
,
0100
0000
0100
0010
0100
0000
0100
0000
,
0010
0100
0010
0000
0010
0000
0010
0000
,
1001
0000
1000
0001
1000
0000
1000
0001
,
0000
0001
0100
0000
0010
0100
0000
0100
,
0001
0000
1000
0001
1000
0000
0001
1000
,
0000
1000
0010
1000
0000
1000
0000
1000
,
0000
0000
0000
1000
0000
0000
0000
1000
,
0000
1000
0001
0000
0000
1000
0000
0010
,
0000
0000
0000
0100
0000
0000
0000
1000
,
0000
1000
0001
0000
0000
0000
0000
0000
;

//---------------dance-single - ----------------
#NOTEDATA:;
#CHARTNAME:;
#STEPSTYPE:dance-single;
#DESCRIPTION:;
#CHARTSTYLE:;
#DIFFICULTY:Beginner;
#METER:1;
#RADARVALUES:0.137893,0.193694,0.000000,0.025740,0.000000,75.000000,75.000000,0.000000,2.000000,0.000000,0.000000,0.000000,0.000000,0.000000,0.137893,0.193694,0.000000,0.025740,0.000000,75.000000,75.000000,0.000000,2.000000,0.000000,0.000000,0.000000,0.000000,0.000000;
#CREDIT:;
#NOTES:
// measure 0
0000
0000
0000
0000
,  // measure 1
0000
0000
0000
0000
,  // measure 2
0000
0000
0000
0000
,  // measure 3
0000
0000
0000
0000
,  // measure 4
0001
0000
1000
0000
,  // measure 5
0001
0000
1000
0000
,  // measure 6
0001
0000
1000
0000
,  // measure 7
0001
0000
1000
0000
,  // measure 8
2000
0000
0000
0000
,  // measure 9
3000
0000
0000
0000
,  // measure 10
0002
0000
0000
0000
,  // measure 11
0003
0000
0000
0000
,  // measure 12
0100
0100
0000
0000
,  // measure 13
0010
0010
0000
0000
,  // measure 14
1000
1000
0000
0000
,  // measure 15
0001
0001
0000
0000
,  // measure 16
1000
0000
1000
0000
,  // measure 17
0001
0000
0001
0000
,  // measure 18
0100
0000
0100
0000
,  // measure 19
0010
0000
0010
0000
,  // measure 20
1000
0000
0010
0000
,  // measure 21
1000
0000
0010
0000
,  // measure 22
0001
0000
0100
0000
,  // measure 23
0001
0000
0100
0000
,  // measure 24
1000
1000
0000
0000
,  // measure 25
1000
1000
0000
0000
,  // measure 26
0000
1000
1000
1000
,  // measure 27
0000
1000
0000
0001
,  // measure 28
0001
0001
0001
0001
,  // measure 29
0000
0000
0000
0000
,  // measure 30
0100
0100
0100
0000
,  // measure 31
0000
0000
0010
0010
,  // measure 32
0010
0000
1000
0000
,  // measure 33
0001
0000
0001
0000
,  // measure 34
0100
0000
0100
0000
,  // measure 35
0010
0000
0010
0000
,  // measure 36
1000
0000
1000
0000
,  // measure 37
0010
0000
0010
0000
,  // measure 38
0001
0000
1000
0000
,  // measure 39
0001
0000
0010
0000
,  // measure 40
1000
0000
1000
0000
,  // measure 41
0001
0000
0001
0000
,  // measure 42
0100
0000
0010
0000
,  // measure 43
1000
0000
0000
0000
;
