#TITLE:ON MY OWN;
#SUBTITLE:;
#ARTIST:Anamanaguchi feat. HANA;
#TITLETRANSLIT:;
#SUBTITLETRANSLIT:;
#ARTISTTRANSLIT:;
#GENRE:;
#CREDIT:;
#BANNER:;
#BACKGROUND:DDR CD-bg.JPG;
#LYRICSPATH:;
#CDTITLE:;
#MUSIC:On My Own - Anamanaguchi feat HANA.ogg;
#OFFSET:-0.120000;
#SAMPLESTART:34.959969;
#SAMPLELENGTH:14.500001;
#SELECTABLE:YES;
#BPMS:0.000000=190.040527
;
#STOPS:
;
#BGCHANGES:;
#KEYSOUNDS:;
#ATTACKS:;

//---------------dance-single - ----------------
#NOTES:
     dance-single:
     :
     Hard:
     12:
     0.534593,0.669086,0.040238,0.271608,0.000000,372.000000,368.000000,4.000000,27.000000,0.000000,0.000000,0.534593,0.669086,0.040238,0.271608,0.000000,372.000000,368.000000,4.000000,27.000000,0.000000,0.000000:
// measure 0
0000
0000
0000
0000
,  // measure 1
0000
0000
0000
0000
,  // measure 2
0000
0000
0000
0000
,  // measure 3
0000
0000
0000
0000
,  // measure 4
1000
0001
0100
0001
0100
0010
1000
0000
,  // measure 5
1000
0010
0100
0001
1000
0001
0100
0000
,  // measure 6
1000
0010
0100
0001
1000
0001
0100
0000
,  // measure 7
0100
0001
0010
0001
1000
0100
0010
0000
,  // measure 8
0001
1000
0010
0100
0010
1000
0001
0000
,  // measure 9
0100
0010
0100
0001
0100
0010
0100
0000
,  // measure 10
0001
1000
0001
1000
0100
1000
0010
0000
,  // measure 11
0100
0001
0100
0010
0100
0010
1000
0000
,  // measure 12
0001
1000
0001
0100
0010
1000
0100
0000
,  // measure 13
1000
0010
0100
0001
0100
0010
1000
0000
,  // measure 14
1000
0100
0010
0001
0100
0010
0100
0000
,  // measure 15
0001
0010
0100
1000
0010
0100
0001
0000
,  // measure 16
0100
0001
0100
0010
0100
0001
0100
0000
,  // measure 17
0010
1000
0010
0100
0010
1000
0010
0000
,  // measure 18
1000
0010
0100
0001
0100
0010
0100
0001
,  // measure 19
1000
0100
1000
0010
0100
0001
0100
0000
,  // measure 20
2001
0000
0000
0000
0000
0000
0100
0100
,  // measure 21
0100
0000
0000
0000
0000
0001
0001
0000
,  // measure 22
0010
0000
0000
0010
0000
0000
0000
0100
,  // measure 23
0200
0000
3300
0000
,  // measure 24
1002
0000
0000
0000
0000
0000
0100
0100
,  // measure 25
0100
0000
0000
0000
0000
1000
1000
0000
,  // measure 26
0010
0000
0000
0010
0000
0000
0000
0010
,  // measure 27
0020
0000
0030
0000
0013
0001
0100
0010
,  // measure 28
1000
0100
1000
0000
0010
1000
0010
0000
,  // measure 29
0100
0001
0100
0000
0001
0010
0001
0000
,  // measure 30
0100
0010
0100
0000
0001
0100
0001
0000
,  // measure 31
1000
0010
1000
0000
0100
1000
0100
0000
,  // measure 32
1000
0010
1000
0000
0001
0100
0001
0000
,  // measure 33
0100
0010
0100
0000
0010
1000
0010
0000
,  // measure 34
1000
0100
1000
0000
0001
0100
0001
0000
,  // measure 35
0100
0010
0100
0000
0010
0100
0010
0000
,  // measure 36
1000
0001
0100
0000
0001
0100
0010
0000
,  // measure 37
1000
0010
0100
0000
0001
0100
0010
0000
,  // measure 38
1000
0100
1000
0000
0010
0100
0001
0000
,  // measure 39
0100
0010
0100
0000
0001
0010
0001
0000
,  // measure 40
0100
0001
0010
0000
0001
0100
0010
0000
,  // measure 41
1000
0100
1000
0000
0010
0100
0001
0000
,  // measure 42
0100
0010
1000
0000
0010
0100
0001
0000
,  // measure 43
0100
0001
0100
0001
0100
0001
0100
0000
,  // measure 44
1001
0000
0100
1000
0000
1000
0010
0100
,  // measure 45
0001
0100
0010
0000
0100
0001
0100
0000
,  // measure 46
0010
1000
0010
0000
1000
0100
1000
0000
,  // measure 47
0010
0100
0001
0000
0100
0010
0100
0000
,  // measure 48
0010
1000
0100
0000
1000
0001
0100
0000
,  // measure 49
0001
0100
0010
0000
0100
0001
0100
0000
,  // measure 50
0010
1000
0100
0000
1000
0010
1000
0000
,  // measure 51
0010
0100
0010
0000
1000
0010
0100
0000
,  // measure 52
0001
1000
0100
0000
1000
0001
0100
0000
,  // measure 53
0001
0100
0001
0000
1000
0100
1000
0000
,  // measure 54
0001
0100
0010
0000
1000
0100
1000
0000
,  // measure 55
0010
0100
0001
0100
0000
0010
0000
0100
,  // measure 56
0001
0100
0010
1000
0000
0100
0000
1000
,  // measure 57
0000
0001
1000
0010
1000
0001
1000
0100
,  // measure 58
0000
1000
0010
1000
0000
0010
0100
0001
,  // measure 59
0000
0100
0010
0100
0001
0100
0010
0100
,  // measure 60
0002
0000
0000
0000
0000
0000
0100
0100
,  // measure 61
0203
0000
0000
0000
0000
0010
0320
0000
,  // measure 62
2030
0000
0000
0001
0000
0000
0000
0001
,  // measure 63
3020
0000
0000
0230
,  // measure 64
0320
0000
0000
0000
0000
0000
1000
1000
,  // measure 65
2030
0000
0000
0000
0000
0100
3200
0000
,  // measure 66
2300
0000
0000
3020
0000
0000
0000
0130
,  // measure 67
0002
0000
0000
0103
0001
0100
0010
1000
,  // measure 68
0200
0000
0000
0000
,  // measure 69
2300
0000
0000
0000
,  // measure 70
3020
0000
0000
0000
,  // measure 71
0230
0000
0000
0000
,  // measure 72
0302
0000
0000
0000
,  // measure 73
0023
0000
0000
0000
,  // measure 74
0032
0000
0000
0000
,  // measure 75
0203
0000
0000
0000
,  // measure 76
0320
0000
0000
0000
,  // measure 77
0030
2002
0000
0000
,  // measure 78
0000
3003
0000
0000
;

//---------------dance-single - ----------------
#NOTES:
     dance-single:
     :
     Medium:
     8:
     0.383700,0.551012,0.171012,0.281667,0.000000,267.000000,250.000000,17.000000,28.000000,0.000000,0.000000,0.383700,0.551012,0.171012,0.281667,0.000000,267.000000,250.000000,17.000000,28.000000,0.000000,0.000000:
// measure 0
0000
0000
0000
0000
,  // measure 1
0000
0000
0000
0000
,  // measure 2
0000
0000
0000
0000
,  // measure 3
0000
0000
0000
0000
,  // measure 4
1000
1000
0001
0001
,  // measure 5
0100
0010
0100
0001
,  // measure 6
0100
0010
1000
1000
,  // measure 7
0100
1000
0010
0100
,  // measure 8
0001
0001
0100
0010
,  // measure 9
0100
0001
1000
0100
,  // measure 10
1000
1000
0010
0100
,  // measure 11
0100
0001
0001
0010
,  // measure 12
0001
0100
0010
0100
,  // measure 13
0001
0001
1000
0010
,  // measure 14
1000
0100
1000
0010
,  // measure 15
0100
0001
0010
0001
,  // measure 16
0100
0010
1000
1000
,  // measure 17
0001
0100
0010
0010
,  // measure 18
0100
0001
0001
0010
,  // measure 19
0001
0001
0100
0010
,  // measure 20
2001
0000
0000
0000
0000
0000
0100
0100
,  // measure 21
0100
0000
0000
0000
0000
0001
0001
0000
,  // measure 22
0010
0000
0000
0010
0000
0000
0000
0100
,  // measure 23
0200
0000
3300
0000
,  // measure 24
1002
0000
0000
0000
0000
0000
0100
0100
,  // measure 25
0100
0000
0000
0000
0000
1000
1000
0000
,  // measure 26
0010
0000
0000
0010
0000
0000
0000
0010
,  // measure 27
0020
0000
0030
0000
1003
0001
1000
0001
,  // measure 28
0100
0010
0100
0001
,  // measure 29
0100
0010
1000
0100
,  // measure 30
1000
0010
0100
0001
,  // measure 31
0100
0001
1000
0100
,  // measure 32
1000
0010
0100
0001
,  // measure 33
0100
0010
0010
1000
,  // measure 34
0100
1000
1000
0001
,  // measure 35
0100
0001
1000
0100
,  // measure 36
1001
1000
0001
0100
,  // measure 37
0010
1000
0010
0100
,  // measure 38
1001
0001
0100
0010
,  // measure 39
1000
0100
1000
0010
,  // measure 40
1001
0100
0001
0010
,  // measure 41
0001
0100
0010
1000
,  // measure 42
1001
1000
0010
0100
,  // measure 43
0001
0100
0010
1000
,  // measure 44
1001
0000
0100
0001
0100
0000
0010
0000
,  // measure 45
0100
0001
0100
0010
,  // measure 46
1001
0000
1000
0100
1000
0000
0010
0000
,  // measure 47
0100
0001
0100
0010
,  // measure 48
1001
0000
0100
1000
0100
0000
1000
0000
,  // measure 49
0010
0100
0001
0010
,  // measure 50
1001
0000
0100
1000
0010
0000
0100
0000
,  // measure 51
0001
0100
0010
1000
,  // measure 52
1001
0000
1000
0000
1000
0100
1000
0000
,  // measure 53
1001
0000
0001
0000
0001
0100
0001
0000
,  // measure 54
1001
0000
1000
0000
0010
0100
0010
0000
,  // measure 55
1001
0000
0001
0000
0100
0010
0100
0000
,  // measure 56
1001
0000
0100
1000
0000
0100
0000
0010
,  // measure 57
0000
0001
0000
0100
0000
0010
0000
1002
,  // measure 58
0000
0103
0010
0100
,  // measure 59
0001
1000
0001
1000
0100
1000
0010
1000
,  // measure 60
0002
0000
0000
0000
,  // measure 61
0203
0000
0000
0320
,  // measure 62
2030
0000
0000
0000
,  // measure 63
3020
0000
0000
0230
,  // measure 64
0320
0000
0000
0000
,  // measure 65
2030
0000
0000
3200
,  // measure 66
2300
0000
0000
3020
0000
0000
0000
0030
,  // measure 67
0200
0000
0000
0300
0000
0000
0000
0000
,  // measure 68
0002
0000
0000
0000
,  // measure 69
2003
0000
0000
0000
,  // measure 70
3020
0000
0000
0000
,  // measure 71
0230
0000
0000
0000
,  // measure 72
0302
0000
0000
0000
,  // measure 73
0023
0000
0000
0000
,  // measure 74
0032
0000
0000
0000
,  // measure 75
0203
0000
0000
0000
,  // measure 76
0320
0000
0000
0000
,  // measure 77
0030
2002
0000
0000
,  // measure 78
0000
3003
0000
0000
;

//---------------dance-single - ----------------
#NOTES:
     dance-single:
     :
     Easy:
     4:
     0.290290,0.350827,0.010060,0.342025,0.000000,202.000000,201.000000,1.000000,34.000000,0.000000,0.000000,0.290290,0.350827,0.010060,0.342025,0.000000,202.000000,201.000000,1.000000,34.000000,0.000000,0.000000:
// measure 0
0000
0000
0000
0000
,  // measure 1
0000
0000
0000
0000
,  // measure 2
0000
0000
0000
0000
,  // measure 3
0000
0000
0000
0000
,  // measure 4
1000
1000
1000
0000
,  // measure 5
0001
0001
0001
0000
,  // measure 6
0100
0100
0100
0000
,  // measure 7
0010
0010
0010
0000
,  // measure 8
1000
0010
1000
0010
,  // measure 9
0100
0001
0100
0001
,  // measure 10
1000
0001
1000
0100
,  // measure 11
1000
0010
0100
0001
,  // measure 12
0010
0010
0010
0000
,  // measure 13
0001
0001
0001
0000
,  // measure 14
0100
0100
0100
0000
,  // measure 15
1000
1000
1000
0000
,  // measure 16
0010
1000
0010
0100
,  // measure 17
0001
0100
0010
1000
,  // measure 18
0100
1000
0001
0100
,  // measure 19
0010
1000
0010
0010
,  // measure 20
0020
0000
0000
0030
,  // measure 21
0010
0000
0010
0000
,  // measure 22
0200
0000
0000
0300
,  // measure 23
0100
0000
0100
0000
,  // measure 24
0002
0000
0000
0003
,  // measure 25
0001
0000
0001
0000
,  // measure 26
2000
0000
0000
3000
,  // measure 27
1000
0000
1000
0000
,  // measure 28
0010
1000
0010
1000
,  // measure 29
0001
0100
0001
0100
,  // measure 30
0010
1000
0100
0010
,  // measure 31
0001
0100
0010
1000
,  // measure 32
0100
1000
0001
0100
,  // measure 33
0001
1000
0100
1000
,  // measure 34
0020
0000
0000
0000
,  // measure 35
0230
0000
0000
0001
,  // measure 36
0301
0001
0100
0010
,  // measure 37
1000
0100
1000
0100
,  // measure 38
1000
0010
0100
0010
,  // measure 39
0100
0001
0100
0001
,  // measure 40
0100
0001
0100
0001
,  // measure 41
0010
0001
0010
0100
,  // measure 42
0010
0001
0010
0001
,  // measure 43
1000
0001
1000
0010
,  // measure 44
1000
0010
0100
0010
,  // measure 45
1000
0010
0100
0010
,  // measure 46
1000
0100
1000
0001
,  // measure 47
1000
0100
1000
0001
,  // measure 48
0200
0000
0320
0000
,  // measure 49
0230
0000
0302
0000
,  // measure 50
2003
0000
3020
0000
,  // measure 51
0130
0001
1000
0010
,  // measure 52
1000
1000
0001
0001
,  // measure 53
0100
0001
0100
0010
,  // measure 54
1000
1000
0010
0010
,  // measure 55
0100
0010
1000
0010
,  // measure 56
1000
0100
1000
0100
,  // measure 57
1000
0001
0100
0100
,  // measure 58
0002
0000
0000
0000
,  // measure 59
1000
0000
1003
0000
,  // measure 60
1002
0000
0000
0000
,  // measure 61
0203
0000
0320
0000
,  // measure 62
2030
0000
0000
0000
,  // measure 63
0000
3020
0230
0000
,  // measure 64
0302
0000
0000
0000
,  // measure 65
2003
0000
0000
0000
,  // measure 66
3200
0000
0000
0320
0000
0000
0000
0000
,  // measure 67
0032
0000
0203
0000
,  // measure 68
0302
0000
0000
0000
,  // measure 69
2003
0000
0000
0000
,  // measure 70
3020
0000
0000
0000
,  // measure 71
0230
0000
0000
0000
,  // measure 72
0302
0000
0000
0000
,  // measure 73
0023
0000
0000
0000
,  // measure 74
0032
0000
0000
0000
,  // measure 75
0203
0000
0000
0000
,  // measure 76
0320
0000
0000
0000
,  // measure 77
0000
0000
0030
0000
;

//---------------dance-single - ----------------
#NOTES:
     dance-single:
     :
     Beginner:
     3:
     0.178198,0.232376,0.050298,0.140834,0.000000,124.000000,119.000000,5.000000,14.000000,0.000000,0.000000,0.178198,0.232376,0.050298,0.140834,0.000000,124.000000,119.000000,5.000000,14.000000,0.000000,0.000000:
// measure 0
0000
0000
0000
0000
,  // measure 1
0000
0000
0000
0000
,  // measure 2
0000
0000
0000
0000
,  // measure 3
0000
0000
0000
0000
,  // measure 4
1000
0000
1000
0000
,  // measure 5
0001
0000
0001
0000
,  // measure 6
0100
0000
0100
0000
,  // measure 7
0010
0000
0010
0000
,  // measure 8
1000
0000
1000
0000
,  // measure 9
0100
0000
0100
0000
,  // measure 10
0001
0000
0001
0000
,  // measure 11
0010
0000
0010
0000
,  // measure 12
0010
0000
0010
0000
,  // measure 13
0001
0000
0001
0000
,  // measure 14
0100
0000
0100
0000
,  // measure 15
1000
0000
1000
0000
,  // measure 16
0010
0000
0010
0000
,  // measure 17
0001
0000
0010
0000
,  // measure 18
0100
0000
0001
0000
,  // measure 19
1000
0000
0010
0000
,  // measure 20
0020
0000
0000
0030
,  // measure 21
0010
0000
0010
0000
,  // measure 22
0200
0000
0000
0300
,  // measure 23
0100
0000
0100
0000
,  // measure 24
0002
0000
0000
0003
,  // measure 25
0001
0000
0001
0000
,  // measure 26
2000
0000
0000
3000
,  // measure 27
1000
0000
1000
0000
,  // measure 28
0010
0000
0010
0000
,  // measure 29
0001
0000
0001
0000
,  // measure 30
0010
0000
0100
0000
,  // measure 31
0001
0000
0010
0000
,  // measure 32
0100
0000
0001
0000
,  // measure 33
0001
0000
0100
0000
,  // measure 34
0010
0000
0000
0000
,  // measure 35
0100
0000
0000
0000
,  // measure 36
0001
0000
0001
0000
,  // measure 37
1000
0000
1000
0000
,  // measure 38
1000
0000
0100
0000
,  // measure 39
0100
0000
0100
0000
,  // measure 40
0100
0000
0100
0000
,  // measure 41
0010
0000
0010
0000
,  // measure 42
0010
0000
0001
0000
,  // measure 43
1000
0000
0001
0000
,  // measure 44
1000
0000
0100
0000
,  // measure 45
1000
0000
0100
0000
,  // measure 46
1000
0000
0001
0000
,  // measure 47
0001
0000
0001
0000
,  // measure 48
0100
0000
0010
0000
,  // measure 49
0100
0000
0001
0000
,  // measure 50
1000
0000
0010
0000
,  // measure 51
0100
0000
1000
0000
,  // measure 52
1000
0000
0001
0000
,  // measure 53
0100
0000
0100
0000
,  // measure 54
1000
0000
0010
0000
,  // measure 55
0100
0000
1000
0000
,  // measure 56
1000
0000
1000
0000
,  // measure 57
1000
0000
0001
0000
,  // measure 58
0001
0000
0001
0000
,  // measure 59
1000
0000
1000
0000
,  // measure 60
1001
0000
0000
0000
,  // measure 61
0200
0000
0300
0000
,  // measure 62
1001
0000
0000
0000
,  // measure 63
0020
0000
0030
0000
,  // measure 64
1001
0000
0000
0000
,  // measure 65
0200
0000
0300
0000
,  // measure 66
1001
0000
0000
0000
,  // measure 67
0020
0000
0030
0000
,  // measure 68
0002
0000
0000
0000
,  // measure 69
0003
0000
0000
0000
,  // measure 70
2000
0000
0000
0000
,  // measure 71
3000
0000
0000
0000
,  // measure 72
0020
0000
0000
0000
,  // measure 73
0030
0000
0000
0000
,  // measure 74
0200
0000
0000
0000
,  // measure 75
0300
0000
0000
0000
,  // measure 76
2002
0000
0000
0000
,  // measure 77
3003
0000
0000
0000
;
