#TITLE:Nishishinjuku Seisou Kyoku;
#SUBTITLE:;
#ARTIST:Simonman;
#TITLETRANSLIT:;
#SUBTITLETRANSLIT:;
#ARTISTTRANSLIT:;
#GENRE:;
#CREDIT:;
#BANNER:;
#BACKGROUND:Nishishinjuku Seisou Kyoku-bg.jpg;
#LYRICSPATH:;
#CDTITLE:;
#MUSIC:Nishishinjuku Seisou Kyoku.wav;
#OFFSET:-0.728000;
#SAMPLESTART:23.005150;
#SAMPLELENGTH:12.000000;
#SELECTABLE:YES;
#BPMS:0.000000=140.000000
,145.000000=280.000000
,213.000000=140.000000
;
#STOPS:
;
#BGCHANGES:;
#KEYSOUNDS:;
#ATTACKS:;

//---------------dance-single - Nifara----------------
#NOTES:
     dance-single:
     Nifara:
     Hard:
     15:
     0.677442,0.755559,0.446087,0.000000,0.290926,489.000000,443.000000,46.000000,0.000000,0.000000,0.000000,0.677442,0.755559,0.446087,0.000000,0.290926,489.000000,443.000000,46.000000,0.000000,0.000000,0.000000:
0000
0000
0000
0000
,
1000
0000
0000
0010
0000
0000
0100
0000
0001
0000
0000
0000
1001
0000
0000
0000
,
1000
0000
0000
0001
0000
0000
0010
0000
0100
0000
0101
0000
0101
0000
0000
0000
,
0100
0000
0000
0010
0000
0000
1000
0000
0100
0000
0010
0000
1001
0000
0000
0000
,
0100
0000
0000
1000
0000
0000
0010
0000
0100
0000
0001
0000
1000
0000
0010
0000
,
0100
0000
0000
0001
0000
0000
1000
0000
0010
0000
0100
0000
0001
0000
0000
0000
,
1000
0000
0000
0001
0000
0000
0010
0000
0100
0000
0010
0000
0001
0000
0000
0000
,
1000
0001
1000
0010
0100
0010
0100
0001
,
0010
0000
0000
0000
,
0000
0000
0000
0000
,
0000
0000
0000
0000
,
0000
0000
0000
0000
,
1001
0000
1100
0000
1010
0000
0000
0000
1001
0000
0000
1000
0001
0000
0010
0000
,
0100
0000
1000
0100
1000
0000
1000
0001
1000
0000
0001
0000
1000
0000
0000
0000
,
0010
0000
0100
0001
0100
0000
0010
1000
0010
0000
1000
0000
0001
0000
0000
0000
,
1000
0000
0100
1000
0010
0000
0100
0001
0010
0000
0100
0000
1000
0000
0000
0000
,
0010
0000
0100
0010
1000
0000
1000
0010
0100
0000
0001
0000
1000
0000
0010
0000
,
1000
0000
0001
0010
0100
0000
1000
0010
0100
0000
0001
0000
1000
0000
0000
0000
,
0010
0000
0100
0010
1000
0000
0100
1000
0010
0000
0000
0100
0001
0000
0000
0000
,
0011
0011
0011
0000
0110
0110
0110
0000
,
1100
0011
1100
0011
,
0100
0000
1000
0100
1000
0000
1000
0001
1000
0000
0001
0000
1000
0000
0000
0000
,
0010
0000
0100
0001
0100
0000
0010
1000
0010
0000
1000
0000
0001
0000
0000
0000
,
1000
0000
0100
1000
0010
0000
0100
0001
0010
0000
0100
0000
1000
0000
0000
0000
,
0010
0000
0100
0010
1000
0000
1000
0010
0100
0000
0001
0000
1000
0000
0010
0000
,
1000
0000
0001
0010
0100
0000
1000
0010
0100
0000
0001
0000
1000
0000
0000
0000
,
0010
0000
0100
0010
1000
0000
0100
1000
0010
0000
0100
0000
0010
0000
0000
0000
,
1010
0011
1010
0011
,
1010
0011
1010
0011
,
1000
0000
0001
1000
0001
0000
0000
0000
1000
0000
0000
0000
0001
0000
0000
0000
,
0100
0000
0010
1000
0010
0000
0000
0000
0100
0000
0000
0000
0001
0000
0000
0000
,
1000
0000
0001
1000
0001
0000
0000
0000
1000
0000
0000
0000
0100
0000
0000
0000
,
1000
0000
0100
1000
0100
0000
0000
0000
1000
0000
0000
0000
0001
0000
0000
0000
,
0100
0000
0010
1000
0010
0000
0000
0000
0100
0000
0000
0000
0001
0000
0000
0000
,
1000
0100
0001
1000
,
0001
0000
1000
0000
0001
0000
1000
0010
,
1000
0010
1000
0010
1000
0010
1000
0010
,
1000
0010
1000
0010
1000
0010
1000
0010
,
1000
0010
1000
0010
1000
0010
1000
0010
,
1000
0010
1000
0010
1000
0010
1000
0010
,
1000
0010
1000
0010
1000
0010
1000
0010
,
1000
0010
1000
0010
1000
0010
1000
0010
,
1000
0010
1000
0010
1000
0010
1000
0010
,
1000
0010
1000
0010
1000
0010
1000
0010
,
1000
0010
1000
0010
1000
0010
1000
0010
,
1000
0010
1000
0010
1000
0010
1000
0010
,
1000
0010
1000
0010
1000
0010
1000
0010
,
1000
0010
1000
0010
1000
0010
1000
0010
,
1000
0010
1000
0010
1000
0010
1000
0010
,
1000
0010
1000
0010
1000
0010
1000
0000
,
0000
0000
0000
0000
,
0000
0000
0000
0000
,
0000
0000
0000
1001
,
0000
0000
0000
0000
0110
0000
0000
0000
1001
0000
0000
0000
0100
0000
1000
0100
,
1000
0000
1000
0001
1000
0000
0001
0000
1000
0000
0000
0000
0010
0000
0100
0001
,
0100
0000
0010
1000
0010
0000
1000
0000
0001
0000
1000
0100
1000
0000
0100
0010
,
0100
0000
0010
0000
0001
0000
1000
0000
0010
0000
0100
0001
0010
0000
0100
0000
,
1000
0100
1000
0100
1000
0000
0010
0100
0001
0000
1000
0100
0010
0000
0100
0000
,
1000
0000
0000
0000
0001
0000
0100
0010
1000
0000
0100
0000
1000
0000
0010
0000
,
1010
1010
1010
0000
0011
0011
0011
0000
,
1010
0000
0000
0000
0110
0000
0000
0000
1100
0000
0000
0000
0100
0000
1000
0100
,
1000
0000
0100
0010
0100
0000
0010
0000
0001
0000
0000
0000
1000
0000
0000
0010
,
0000
0000
0100
0000
0001
0100
0001
0100
0001
0000
0000
1000
0000
0000
0010
0000
,
0100
0000
0001
0000
1000
0000
0001
0000
0100
0000
0000
0010
0000
0000
1000
0000
,
0100
0010
0001
0010
0100
0000
0000
1000
0000
0000
0001
0000
0100
0000
0010
0000
,
1000
0000
0000
0000
0100
0000
0000
0010
0000
0000
0100
0000
1000
0000
0001
0000
,
0110
1001
0110
1001
,
0110
1001
0110
1001
;

//---------------dance-single - Nifara----------------
#NOTES:
     dance-single:
     :
     Medium:
     12:
     0.425306,0.558457,0.329716,0.019395,0.063034,307.000000,273.000000,34.000000,2.000000,0.000000,0.000000,0.425306,0.558457,0.329716,0.019395,0.063034,307.000000,273.000000,34.000000,2.000000,0.000000,0.000000:
0000
0000
0000
0000
,
1000
0000
0000
1000
0000
0000
1000
0000
0001
0000
0000
0000
1001
0000
0000
0000
,
0001
0000
0000
0001
0000
0000
0001
0000
0100
0000
0000
0000
0101
0000
0000
0000
,
0100
0000
0000
0100
0000
0000
0100
0000
0100
0000
0000
0000
1001
0000
0000
0000
,
0010
0000
0000
0010
0000
0000
0010
0000
0100
0000
0000
0000
1001
0000
0000
0000
,
0100
0000
0000
0100
0000
0000
0100
0000
0010
0000
0000
0000
1001
0000
0000
0000
,
1000
0000
0000
1000
0000
0000
1000
0000
0100
0000
0000
0000
1001
0000
0000
0000
,
0001
0000
0000
0001
0000
0000
0001
0000
0100
0000
0000
0000
1001
0000
0000
0000
,
0010
0000
0000
0000
,
0000
0000
0000
0000
,
0000
0000
0000
0000
,
0000
0000
0000
0000
,
1000
1000
1000
0000
1001
0000
0001
0100
,
0001
1000
1000
1000
1000
0001
1000
0000
,
0010
0100
0100
0010
0010
1000
0001
0000
,
1000
0100
0010
0100
0010
0100
1000
0000
,
0010
0100
1000
1000
0100
0001
1000
0010
,
1000
0001
0100
1000
0100
0001
1000
0000
,
0010
0100
1000
0100
0010
0000
0001
0000
,
0001
0010
0001
0000
1000
0010
1000
0000
,
1100
0011
1100
0011
,
0100
1000
1000
1000
1000
0001
1000
0000
,
0010
0100
0100
0010
0010
1000
0001
0000
,
1000
0100
0010
0100
0010
0100
1000
0000
,
0010
0100
1000
1000
0100
0001
1000
0010
,
1000
0001
0100
1000
0100
0001
1000
0000
,
0010
0100
1000
0100
0010
0100
0010
0000
,
1010
0011
1010
0011
,
1010
0011
1010
0011
,
1000
0001
0001
0000
1000
0000
0001
0000
,
0100
0010
0010
0000
0100
0000
0001
0000
,
1000
0001
0001
0000
1000
0000
0100
0000
,
1000
0100
0100
0000
1000
0000
0001
0000
,
0100
0010
0010
0000
0100
0000
0001
0000
,
1000
0100
0001
1000
,
0001
0000
1000
0000
0001
0000
1000
0020
,
2000
0000
0000
0000
,
0000
0000
0000
0000
,
0000
0000
0000
0000
,
0000
0000
0000
0000
,
0000
0000
0000
0000
,
0000
0000
0000
0000
,
0000
0000
0000
0000
,
0000
0000
0000
0000
,
0000
0000
0000
0000
,
0000
0000
0000
0000
,
0000
0000
0000
0000
,
0000
0000
0000
0000
,
0000
0000
0000
0000
,
0000
0000
0000
0000
,
3030
0000
0000
0000
,
0000
0000
0000
0000
,
0000
0000
0000
1001
,
0000
0000
0110
0000
1001
0000
0100
1000
,
1000
1000
1000
0001
1000
0000
0010
0100
,
0100
0010
0010
1000
0001
1000
1000
0100
,
0100
0010
0001
0000
1000
0100
0010
0100
,
1000
1000
1000
0010
1000
0001
0010
0100
,
1000
0000
0001
0100
1000
0100
0001
0010
,
0001
0010
0001
1000
0001
0010
0001
1000
,
0010
0000
0100
0000
0010
0000
0100
0000
0001
0000
0100
0000
0001
0000
0000
0100
,
0000
0000
0100
0000
0100
0000
0000
0000
1001
0000
0000
0000
1000
0000
0000
0010
,
0000
0000
0100
0000
0001
0000
0001
0000
0001
0000
0000
1000
0000
0000
0010
0000
,
0100
0000
0000
0000
1001
0000
0000
0000
0100
0000
0000
0010
0000
0000
1000
0000
,
0100
0000
0001
0000
0100
0000
0000
1000
0000
0000
0001
0000
0100
0000
0000
0000
,
1001
0000
0000
0000
0100
0000
0000
0010
0000
0000
0100
0000
1000
0000
0000
0000
,
0110
1001
0110
1001
,
0110
1001
0110
1001
;

//---------------dance-single - Nifara----------------
#NOTES:
     dance-single:
     :
     Easy:
     7:
     0.278458,0.558457,0.271531,0.164858,0.000000,201.000000,173.000000,28.000000,17.000000,0.000000,0.000000,0.278458,0.558457,0.271531,0.164858,0.000000,201.000000,173.000000,28.000000,17.000000,0.000000,0.000000:
0000
0000
0000
0000
,
2000
0000
3001
1001
,
0002
0000
0103
0101
,
0200
0000
0310
1001
,
0020
0000
0130
1001
,
0200
0000
0310
1001
,
2000
0000
3100
1001
,
0002
0000
0103
1001
,
0010
0000
0000
0000
,
0000
0000
0000
0000
,
0000
0000
0000
0000
,
0000
0000
0000
0000
,
1000
1000
1000
0000
1001
0000
0001
0001
,
0001
1000
1000
1000
,
0010
0100
0010
0001
,
1000
0010
0010
1000
,
0010
1000
0100
1000
,
1000
0100
0100
1000
,
0010
1000
0010
0001
,
0001
0001
1000
1000
,
1100
0011
1100
0011
,
0100
1000
1000
1000
,
0010
0100
0010
0001
,
1000
0010
0010
1000
,
0010
1000
0100
1000
,
1000
0100
0100
1000
,
0010
1000
0010
0010
,
1010
0011
1010
0011
,
1010
0011
1010
0011
,
1000
0001
1000
0001
,
0100
0010
0100
0001
,
1000
0001
1000
0100
,
1000
0100
1000
0001
,
0100
0010
0100
0001
,
1000
0100
0001
1000
,
0001
0000
1000
0000
0001
0000
1000
0020
,
2000
0000
0000
0000
,
0000
0000
0000
0000
,
0000
0000
0000
0000
,
0000
0000
0000
0000
,
0000
0000
0000
0000
,
0000
0000
0000
0000
,
0000
0000
0000
0000
,
0000
0000
0000
0000
,
0000
0000
0000
0000
,
0000
0000
0000
0000
,
0000
0000
0000
0000
,
0000
0000
0000
0000
,
0000
0000
0000
0000
,
0000
0000
0000
0000
,
3030
0000
0000
0000
,
0000
0000
0000
0000
,
0000
0000
0000
2002
,
0000
0000
3003
0000
,
1000
1000
1000
0010
,
0100
0010
0001
1000
,
0100
0001
1000
0010
,
1000
1000
1000
0010
,
1000
0001
1000
0001
,
0001
0001
0001
0001
,
0010
0010
0001
0002
,
0000
0103
1001
2000
,
0000
3001
0002
0000
,
0103
1001
0200
0000
,
0301
2000
0000
3100
,
1001
0200
0000
0310
,
0100
1001
0100
1001
,
0010
1001
0010
1001
;

//---------------dance-single - Nifara----------------
#NOTES:
     dance-single:
     :
     Beginner:
     3:
     0.120526,0.229953,0.009698,0.155161,0.000000,87.000000,86.000000,1.000000,16.000000,0.000000,0.000000,0.120526,0.229953,0.009698,0.155161,0.000000,87.000000,86.000000,1.000000,16.000000,0.000000,0.000000:
// measure 0
0000
0000
0000
0000
,  // measure 1
2000
0000
3000
0000
,  // measure 2
0002
0000
0003
0000
,  // measure 3
0200
0000
0300
0000
,  // measure 4
0020
0000
0030
0000
,  // measure 5
0200
0000
0300
0000
,  // measure 6
2000
0000
3000
0000
,  // measure 7
0002
0000
0003
0000
,  // measure 8
0010
0000
0000
0000
,  // measure 9
0000
0000
0000
0000
,  // measure 10
0000
0000
0000
0000
,  // measure 11
0000
0000
0000
0000
,  // measure 12
1000
1000
1000
1000
,  // measure 13
1000
0000
1000
0000
,  // measure 14
0010
0000
0010
0000
,  // measure 15
1000
0000
0010
0000
,  // measure 16
0010
0000
0100
0000
,  // measure 17
1000
0000
0100
0000
,  // measure 18
0010
0000
0010
0000
,  // measure 19
0001
0000
1000
0000
,  // measure 20
1000
0000
0001
0000
,  // measure 21
0100
0000
1000
0000
,  // measure 22
0010
0000
0010
0000
,  // measure 23
0001
0000
0001
0000
,  // measure 24
0010
0000
0100
0000
,  // measure 25
1000
0000
0100
0000
,  // measure 26
0010
0000
0010
0000
,  // measure 27
0001
0000
0001
0000
,  // measure 28
0001
0000
0001
0000
,  // measure 29
1000
0000
1000
0000
,  // measure 30
0100
0000
0100
0000
,  // measure 31
1000
0000
0001
0000
,  // measure 32
1000
0000
0001
0000
,  // measure 33
0100
0000
0100
0000
,  // measure 34
1000
0000
0001
0000
,  // measure 35
0001
0000
0001
0000
,  // measure 36
2000
0000
0000
0000
,  // measure 37
0000
0000
0000
0000
,  // measure 38
0000
0000
0000
0000
,  // measure 39
0000
0000
0000
0000
,  // measure 40
0000
0000
0000
0000
,  // measure 41
0000
0000
0000
0000
,  // measure 42
0000
0000
0000
0000
,  // measure 43
0000
0000
0000
0000
,  // measure 44
0000
0000
0000
0000
,  // measure 45
0000
0000
0000
0000
,  // measure 46
0000
0000
0000
0000
,  // measure 47
0000
0000
0000
0000
,  // measure 48
0000
0000
0000
0000
,  // measure 49
0000
0000
0000
0000
,  // measure 50
3000
0000
0000
0000
,  // measure 51
0000
0000
0000
0000
,  // measure 52
0000
0000
0000
2002
,  // measure 53
0000
0000
3003
0000
,  // measure 54
0000
1000
0000
0010
,  // measure 55
0000
0010
0000
1000
,  // measure 56
0000
0001
0000
0010
,  // measure 57
0000
1000
0000
0010
,  // measure 58
0000
0001
0000
0001
,  // measure 59
0000
0001
0000
0001
,  // measure 60
0000
0010
0000
0002
,  // measure 61
0000
0003
0000
2000
,  // measure 62
0000
3000
0002
0000
,  // measure 63
0003
0000
0200
0000
,  // measure 64
0300
2000
0000
3000
,  // measure 65
0000
0200
0000
0300
,  // measure 66
0000
0100
0100
0100
,  // measure 67
0100
0100
0100
0100
;
