#VERSION:0.83;
#TITLE:Near The Ocean;
#SUBTITLE:;
#ARTIST:ArtJumper;
#TITLETRANSLIT:;
#SUBTITLETRANSLIT:;
#ARTISTTRANSLIT:;
#GENRE:;
#ORIGIN:;
#CREDIT:;
#BANNER:;
#BACKGROUND:Near the Ocean-bg.png;
#PREVIEWVID:;
#JACKET:Near The Ocean-jacket.png;
#CDIMAGE:;
#DISCIMAGE:;
#LYRICSPATH:;
#CDTITLE:;
#MUSIC:Near the Ocean.ogg;
#OFFSET:1.200000;
#SAMPLESTART:4.800000;
#SAMPLELENGTH:15.000000;
#SELECTABLE:YES;
#BPMS:0.000=200.000,
20.000=400.018,
81.000=400.019,
98.000=400.018,
148.000=200.000,
180.000=400.018,
308.000=200.018,
340.000=400.015;
#STOPS:;
#DELAYS:;
#WARPS:;
#TIMESIGNATURES:0.000=4=4;
#TICKCOUNTS:0.000=4;
#COMBOS:0.000=1;
#SPEEDS:0.000=1.000=0.000=0;
#SCROLLS:0.000=1.000;
#FAKES:;
#LABELS:0.000=Song Start;
#BGCHANGES:;
#KEYSOUNDS:;
#ATTACKS:
;

//---------------dance-single - ----------------
#NOTEDATA:;
#CHARTNAME:;
#STEPSTYPE:dance-single;
#DESCRIPTION:;
#CHARTSTYLE:;
#DIFFICULTY:Hard;
#METER:17;
#RADARVALUES:1.042060,1.226964,0.692874,0.144349,0.014435,758.000000,686.000000,72.000000,15.000000,0.000000,0.000000,0.000000,0.000000,0.000000,1.042060,1.226964,0.692874,0.144349,0.014435,758.000000,686.000000,72.000000,15.000000,0.000000,0.000000,0.000000,0.000000,0.000000;
#CREDIT:;
#NOTES:
// measure 0
0000
0000
0000
0000
,  // measure 1
0000
0000
0000
0000
,  // measure 2
0000
0000
0000
0000
,  // measure 3
0000
0000
0000
0000
,  // measure 4
0000
0000
0000
0000
,  // measure 5
1000
0100
1100
0000
,  // measure 6
1000
0001
0101
0001
,  // measure 7
0100
0010
0110
0000
,  // measure 8
0010
1000
1100
1000
,  // measure 9
0001
0100
0101
0000
,  // measure 10
0001
1000
1100
1000
,  // measure 11
0010
0100
0110
0000
,  // measure 12
0010
1000
1100
1000
,  // measure 13
0001
0100
0101
0000
,  // measure 14
0001
0100
0110
0010
,  // measure 15
1000
1000
1100
0000
,  // measure 16
1000
0001
0101
0001
,  // measure 17
0100
0010
1010
0000
,  // measure 18
0010
1000
1100
1000
,  // measure 19
0001
0100
0101
0000
,  // measure 20
1000
0100
0010
0001
,  // measure 21
1000
0000
0100
0000
1100
0000
1000
0100
,  // measure 22
1000
0100
0010
0000
0001
0000
0001
0000
,  // measure 23
0001
0000
0100
0000
0110
0000
0010
1000
,  // measure 24
0010
1000
0100
0000
1000
0000
1000
0000
,  // measure 25
1000
0000
0100
0000
1100
0000
0010
0001
,  // measure 26
0100
0001
0010
0000
0100
0000
0100
0000
,  // measure 27
1000
0000
0010
0000
0101
0000
0010
1000
,  // measure 28
0100
1000
0010
0000
0100
0000
0100
0000
,  // measure 29
0001
0000
1000
0000
1010
0000
1000
0001
,  // measure 30
0100
0010
1000
0000
0001
0000
0100
0000
,  // measure 31
0010
0000
1000
0000
0001
0000
0010
0001
,  // measure 32
0010
0100
1000
0000
0010
0000
0100
0000
,  // measure 33
0001
0000
0100
0000
0110
0000
0010
1000
,  // measure 34
0100
0010
0001
0000
0010
0000
0001
0000
,  // measure 35
0010
0000
0100
0000
1001
0000
0100
0010
,  // measure 36
0100
0010
0100
0000
1002
0000
0100
0000
,  // measure 37
0100
0000
0000
0000
1000
0000
1000
0200
,  // measure 38
0000
0000
0000
0300
0000
0000
0000
0000
,  // measure 39
1000
0000
0000
0000
1000
0000
0100
0020
,  // measure 40
0000
0000
0000
0030
0000
0000
0000
0000
,  // measure 41
2003
0000
0000
0000
0001
0000
0010
0200
,  // measure 42
0000
0000
0000
0300
0000
0000
0000
0000
,  // measure 43
0100
0000
0000
0000
0001
0000
0010
0200
,  // measure 44
0000
0000
0000
0000
0000
0000
0300
0000
0000
0000
0000
0000
3001
0100
0010
1000
,  // measure 45
0100
1000
1100
1000
,  // measure 46
0100
0010
0011
0001
,  // measure 47
0100
0010
1010
1000
,  // measure 48
0100
1000
1100
0001
,  // measure 49
0100
0010
0101
0010
,  // measure 50
1000
0100
1001
0100
,  // measure 51
0010
0100
0101
0001
,  // measure 52
0010
0001
0101
0010
,  // measure 53
1000
0100
1001
1000
,  // measure 54
0100
0010
0011
0001
,  // measure 55
0100
0010
1010
0100
,  // measure 56
1000
0001
0110
0010
,  // measure 57
1000
0100
1100
0001
,  // measure 58
0100
0010
0101
1000
,  // measure 59
0010
1000
1100
1000
,  // measure 60
0100
0000
0010
0000
1001
0000
0100
0001
,  // measure 61
0100
0000
0010
0000
1010
0000
1000
0100
,  // measure 62
0010
0001
0100
0000
0101
0000
0001
1000
,  // measure 63
0010
0000
1000
0000
0110
0000
1000
0010
,  // measure 64
0100
0010
0001
0000
0110
0000
0101
0000
,  // measure 65
0001
0000
0010
0000
0011
0000
0001
0100
,  // measure 66
0001
0100
0010
0000
1010
0000
1000
0100
,  // measure 67
1000
0000
0001
0100
0001
0100
0001
0100
,  // measure 68
0001
0000
1000
0100
1000
0010
0100
0000
,  // measure 69
0001
0101
0101
0010
,  // measure 70
1000
1100
1000
0001
,  // measure 71
0100
0000
0101
0000
0001
0100
0010
0100
,  // measure 72
0001
1001
0101
1001
,  // measure 73
0100
0010
0100
0010
1000
0001
1000
0001
,  // measure 74
0010
0001
0010
0001
0010
0100
0010
0100
,  // measure 75
0010
0001
0010
0001
1000
0001
1000
0001
,  // measure 76
0100
0001
0100
0010
1000
0010
0100
0020
,  // measure 77
1000
0000
0000
0000
0100
0000
0100
0200
,  // measure 78
0000
0000
0000
0300
0000
0000
0000
0000
,  // measure 79
0001
0000
0000
0000
0001
0000
0100
2000
,  // measure 80
0000
0000
0000
3000
0000
0000
0000
0000
,  // measure 81
0230
0000
0000
0000
0010
0000
0001
0020
,  // measure 82
0000
0000
0000
0030
0000
0000
0000
0000
,  // measure 83
1000
0000
0000
0000
0010
0000
0001
0020
,  // measure 84
0000
0000
0000
0000
0000
0000
0030
0000
0000
0000
0000
0000
0310
0000
1000
0100
,  // measure 85
1000
0000
0001
0000
0101
0000
0001
0010
,  // measure 86
0100
1000
0100
0000
1000
0100
1000
0100
,  // measure 87
1000
0000
0010
0000
0110
0000
0010
0100
,  // measure 88
0001
0100
0010
0000
0100
0001
0010
0001
,  // measure 89
0100
0000
0001
0000
1001
0000
1000
0010
,  // measure 90
1000
0001
1000
0000
0100
1000
0010
1000
,  // measure 91
0100
0000
0010
0000
0011
0000
1000
0001
,  // measure 92
0100
0010
1000
0000
0001
0100
0010
1000
,  // measure 93
0001
0000
0100
0000
0101
0000
0001
0100
,  // measure 94
0001
0100
0010
0000
0110
0000
0010
1000
,  // measure 95
0100
1000
0100
0000
1100
0000
1000
0010
,  // measure 96
0100
0010
1000
0000
0010
0100
0001
0010
,  // measure 97
0001
0010
0001
0010
0100
1000
0010
1000
,  // measure 98
0010
1000
0010
1000
0010
0100
0001
0100
,  // measure 99
0001
0100
0001
0100
0010
0100
0010
1000
,  // measure 100
0010
1000
0010
0100
0010
0100
0001
0010
,  // measure 101
0001
0010
0011
0001
,  // measure 102
1000
0010
0110
0010
,  // measure 103
1000
0100
1100
1000
,  // measure 104
0001
0100
1001
0100
,  // measure 105
0001
0100
1001
0100
,  // measure 106
1000
0100
1001
0100
,  // measure 107
0001
0100
0110
0010
,  // measure 108
1000
0100
1100
0100
,  // measure 109
1000
0100
1000
0100
1000
0100
1000
0100
,  // measure 110
0010
0001
0010
0001
0010
0001
0010
0001
,  // measure 111
1000
0100
1000
0100
0010
0001
0010
0001
,  // measure 112
1000
0100
1000
0100
0010
0001
0010
0001
,  // measure 113
1000
0100
0010
0001
0010
0100
1000
0100
,  // measure 114
0010
0001
0010
0100
1000
0100
0010
0001
,  // measure 115
0010
0100
1000
0100
0010
0001
0010
0100
,  // measure 116
1000
0100
0010
0001
0010
0100
1000
0200
,  // measure 117
0000
0000
0000
0300
1001
0000
0000
0000
,  // measure 118
0100
0001
0101
0001
,  // measure 119
0100
0010
0110
0010
,  // measure 120
1000
0100
1100
1000
,  // measure 121
0001
0100
0010
1000
,  // measure 122
0100
1000
0001
0100
,  // measure 123
0010
0100
0001
0100
,  // measure 124
0010
1000
0100
1000
,  // measure 125
0001
0100
0001
0000
1000
0100
1000
0000
,  // measure 126
0001
0100
0001
0000
1000
0100
1000
0000
,  // measure 127
0001
0100
0001
0000
1000
0100
1000
0000
,  // measure 128
0001
0100
0001
0000
1000
0100
1000
0000
,  // measure 129
0010
0100
0010
0100
0010
1000
0010
1000
,  // measure 130
0010
0100
0010
0100
0010
0001
0010
0001
,  // measure 131
0010
0100
0010
0100
0010
1000
0010
1000
,  // measure 132
0010
0100
0010
0100
0010
0001
0010
0001
,  // measure 133
0010
1000
0100
0010
,  // measure 134
0001
0010
0001
0100
,  // measure 135
0010
1000
0100
1000
,  // measure 136
0010
0100
0001
0100
,  // measure 137
0010
1000
0100
1000
,  // measure 138
0001
0100
0010
0100
,  // measure 139
0001
0010
0100
1000
,  // measure 140
0100
0010
0001
0010
,  // measure 141
0100
1000
0100
1000
,  // measure 142
0100
0010
0001
0100
,  // measure 143
0001
0100
0010
0100
,  // measure 144
0010
1000
0100
1000
,  // measure 145
0010
0100
0001
0100
,  // measure 146
0010
1000
0100
0010
,  // measure 147
0001
0100
0010
1000
,  // measure 148
0100
0000
1000
0000
0010
0000
0100
0020
,  // measure 149
0200
0000
0000
0000
,  // measure 150
0330
0000
0000
0000
;

//---------------dance-single - ----------------
#NOTEDATA:;
#CHARTNAME:;
#STEPSTYPE:dance-single;
#DESCRIPTION:;
#CHARTSTYLE:;
#DIFFICULTY:Medium;
#METER:14;
#RADARVALUES:0.746489,1.226964,0.038493,0.288697,0.004812,543.000000,539.000000,4.000000,30.000000,0.000000,0.000000,0.000000,0.000000,0.000000,0.746489,1.226964,0.038493,0.288697,0.004812,543.000000,539.000000,4.000000,30.000000,0.000000,0.000000,0.000000,0.000000,0.000000;
#CREDIT:;
#NOTES:
// measure 0
0000
0000
0000
0000
,  // measure 1
0000
0000
0000
0000
,  // measure 2
0000
0000
0000
0000
,  // measure 3
0000
0000
0000
0000
,  // measure 4
0000
0000
0000
0000
,  // measure 5
1000
0000
1000
0001
,  // measure 6
0100
0010
1000
0100
,  // measure 7
1000
0000
0001
0100
,  // measure 8
0010
0100
0001
0100
,  // measure 9
0010
0000
1000
0100
,  // measure 10
1000
0010
0100
0001
,  // measure 11
0010
0000
0001
0100
,  // measure 12
0010
0100
0001
1000
,  // measure 13
0100
0000
1000
0001
,  // measure 14
0100
0001
0010
0001
,  // measure 15
0100
0000
0010
1000
,  // measure 16
0100
1000
0010
1000
,  // measure 17
0100
0000
1000
0001
,  // measure 18
0100
0010
0100
0001
,  // measure 19
0100
0000
0010
1000
,  // measure 20
0100
1000
0001
0100
,  // measure 21
0020
0000
1030
1000
,  // measure 22
0001
0100
0010
1000
,  // measure 23
0200
0000
1300
0010
,  // measure 24
0100
0001
1000
0010
,  // measure 25
2000
0000
3001
0001
,  // measure 26
0100
0010
1000
0001
,  // measure 27
0002
0000
0103
0010
,  // measure 28
1000
0100
1000
0010
,  // measure 29
0200
0000
0310
1000
,  // measure 30
0100
1000
0001
0100
,  // measure 31
0002
0000
0013
0001
,  // measure 32
0010
0001
0100
0010
,  // measure 33
2000
0000
3010
0100
,  // measure 34
0001
1000
0100
1000
,  // measure 35
0002
0000
0203
0000
,  // measure 36
0320
0000
2030
0000
,  // measure 37
3100
1000
0100
0000
1000
0100
1000
0010
,  // measure 38
0100
0001
0100
0000
0010
1000
0001
0100
,  // measure 39
0010
1000
0001
0000
0100
0001
0100
0001
,  // measure 40
0010
0001
0010
0000
0001
1000
0100
1000
,  // measure 41
0010
1000
0010
0000
0100
0001
0100
0010
,  // measure 42
0100
0001
1000
0000
0010
0100
1000
0100
,  // measure 43
0010
0100
1000
0000
1002
0000
0100
0000
,  // measure 44
0100
0000
0000
0000
0010
0000
0000
0000
0013
0000
0000
0000
1000
0000
0000
0100
,  // measure 45
1000
0001
0100
0000
,  // measure 46
0010
0100
0001
0100
,  // measure 47
0010
1000
0100
0000
,  // measure 48
1000
0001
1000
0001
,  // measure 49
0100
0001
0100
0000
,  // measure 50
0001
1000
0001
1000
,  // measure 51
0010
1000
0100
0000
,  // measure 52
1000
0010
0100
0001
,  // measure 53
0100
0010
1000
0000
,  // measure 54
0100
1000
0010
1000
,  // measure 55
0010
0100
0001
0000
,  // measure 56
0100
0001
0010
0001
,  // measure 57
0100
0001
0100
0000
,  // measure 58
0010
1000
0100
1000
,  // measure 59
0001
0100
0001
0000
,  // measure 60
0010
0001
0100
0010
,  // measure 61
1000
0100
1000
0000
,  // measure 62
0001
0100
0001
1000
,  // measure 63
0100
1000
0001
0000
,  // measure 64
0100
0010
0100
0001
,  // measure 65
0100
0010
1000
0000
,  // measure 66
1000
0100
1000
0010
,  // measure 67
0100
0001
0100
0000
,  // measure 68
0100
0010
1000
0010
,  // measure 69
1000
0100
1000
0100
,  // measure 70
1000
0010
0100
0001
,  // measure 71
1000
0100
0010
0001
,  // measure 72
0100
0010
1000
0100
,  // measure 73
0010
0001
0100
0010
,  // measure 74
1000
0100
0010
0001
,  // measure 75
0100
0010
1000
0100
,  // measure 76
0010
0001
0100
0010
,  // measure 77
1000
0001
0100
0000
0010
0100
0001
0100
,  // measure 78
0010
1000
0100
0000
1000
0100
1000
0010
,  // measure 79
0100
0001
0100
0000
0010
0100
0001
1000
,  // measure 80
0100
1000
0010
0000
0100
0001
0100
0001
,  // measure 81
0010
0001
1000
0000
0001
1000
0100
1000
,  // measure 82
0010
1000
0100
0000
1000
0001
0100
0010
,  // measure 83
1000
0100
1000
0000
0001
0100
0010
0100
,  // measure 84
0001
0100
0010
0100
0001
1000
1001
0000
,  // measure 85
1000
0100
1000
0000
,  // measure 86
0100
0001
1000
0000
,  // measure 87
1000
0100
0010
0000
,  // measure 88
0100
0010
1000
0000
,  // measure 89
0010
0001
1000
0000
,  // measure 90
1000
0100
0010
0000
,  // measure 91
0100
0010
1000
0000
,  // measure 92
0010
0001
1000
0000
,  // measure 93
1000
0010
0100
0000
,  // measure 94
1000
0010
0100
0000
,  // measure 95
1000
0001
0100
0000
,  // measure 96
0100
0001
0100
0000
,  // measure 97
0100
0001
1000
0000
,  // measure 98
1000
0010
0100
0000
,  // measure 99
0100
0001
0100
0000
,  // measure 100
0010
0001
0100
0000
,  // measure 101
1000
0100
1000
0000
,  // measure 102
0100
0001
0100
0000
,  // measure 103
1000
0100
1000
0000
,  // measure 104
0100
0001
1000
0000
,  // measure 105
1000
0001
0100
0000
,  // measure 106
0100
0001
1000
0000
,  // measure 107
1000
0001
0100
0000
,  // measure 108
1000
0100
1000
0000
,  // measure 109
0100
0010
1000
0000
,  // measure 110
0100
0001
0010
0000
,  // measure 111
0100
0010
1000
0000
,  // measure 112
1000
0010
0100
0000
,  // measure 113
1000
0100
1000
0000
,  // measure 114
0100
0001
0100
0000
,  // measure 115
1000
0100
0010
0000
,  // measure 116
0100
0010
1000
0000
,  // measure 117
0000
0000
1001
0000
,  // measure 118
0100
0001
0100
0010
,  // measure 119
0100
0001
1000
0100
,  // measure 120
1000
0010
0100
0001
,  // measure 121
0100
0010
1000
0100
,  // measure 122
1000
0001
0100
0001
,  // measure 123
1000
0100
1000
0010
,  // measure 124
0100
0001
0100
0010
,  // measure 125
0100
0001
0010
0100
,  // measure 126
1000
0001
0100
0001
,  // measure 127
0100
0010
1000
0010
,  // measure 128
1000
0100
1000
0010
,  // measure 129
0100
0001
0100
0010
,  // measure 130
1000
0100
1000
0001
,  // measure 131
0100
0010
1000
0100
,  // measure 132
1000
0001
0100
0001
,  // measure 133
2000
0000
3002
0000
,  // measure 134
0103
0010
0100
0001
,  // measure 135
0020
0000
0032
0000
,  // measure 136
0103
0010
1000
0100
,  // measure 137
2000
0000
3020
0000
,  // measure 138
0130
0001
0100
0010
,  // measure 139
2000
0000
3200
0000
,  // measure 140
0310
0001
0100
0001
,  // measure 141
0200
0000
0302
0000
,  // measure 142
0013
0001
0100
0010
,  // measure 143
2000
0000
3020
0000
,  // measure 144
0130
0001
0100
0010
,  // measure 145
2000
0000
3002
0000
,  // measure 146
0103
0010
0100
0001
,  // measure 147
0200
0000
0302
0000
,  // measure 148
0013
0001
0010
0001
,  // measure 149
2002
0000
0000
0000
,  // measure 150
3003
0000
0000
0000
;

//---------------dance-single - ----------------
#NOTEDATA:;
#CHARTNAME:;
#STEPSTYPE:dance-single;
#DESCRIPTION:;
#CHARTSTYLE:;
#DIFFICULTY:Easy;
#METER:8;
#RADARVALUES:0.394553,0.505221,0.182842,0.327190,0.000000,287.000000,268.000000,19.000000,34.000000,0.000000,0.000000,0.000000,0.000000,0.000000,0.394553,0.505221,0.182842,0.327190,0.000000,287.000000,268.000000,19.000000,34.000000,0.000000,0.000000,0.000000,0.000000,0.000000;
#CREDIT:;
#NOTES:
// measure 0
0000
0000
0000
0000
,  // measure 1
0000
0000
0000
0000
,  // measure 2
0000
0000
0000
0000
,  // measure 3
0000
0000
0000
0000
,  // measure 4
0000
0000
0000
0000
,  // measure 5
1000
0000
0000
0000
,  // measure 6
1000
0000
0001
0100
,  // measure 7
0010
0000
0010
0000
,  // measure 8
0010
0000
0100
0000
,  // measure 9
0001
0000
0000
0000
,  // measure 10
0001
0000
1000
0100
,  // measure 11
1000
0000
0010
0000
,  // measure 12
0100
0000
0001
0000
,  // measure 13
0100
0000
0000
0000
,  // measure 14
0010
0000
1000
0100
,  // measure 15
1000
0000
0001
0000
,  // measure 16
0100
0000
0001
0000
,  // measure 17
0010
0000
0000
0000
,  // measure 18
0010
0000
0010
0001
,  // measure 19
0100
0000
0001
0000
,  // measure 20
0010
0000
0100
0000
,  // measure 21
1000
0000
1000
0000
,  // measure 22
1000
0000
0010
0100
,  // measure 23
0001
0000
0100
0000
,  // measure 24
0010
0000
1000
0000
,  // measure 25
0100
0000
1000
0000
,  // measure 26
0001
0000
0100
0001
,  // measure 27
0010
0000
0001
0000
,  // measure 28
0100
0000
0010
0000
,  // measure 29
0010
0000
0100
0000
,  // measure 30
0001
0000
0100
0010
,  // measure 31
1000
0000
0100
0000
,  // measure 32
1000
0000
0001
0000
,  // measure 33
0100
0000
0010
0000
,  // measure 34
0100
0000
0001
0010
,  // measure 35
0001
0000
0100
0000
,  // measure 36
0010
0000
1000
0000
,  // measure 37
2002
0000
0000
3003
,  // measure 38
1001
0000
0000
0000
,  // measure 39
0220
0000
0000
0330
,  // measure 40
0110
0000
0000
0000
,  // measure 41
2002
0000
0000
3003
,  // measure 42
1001
0000
0000
0000
,  // measure 43
0220
0000
0000
0330
,  // measure 44
0110
0000
0000
0000
,  // measure 45
1001
0000
1000
0000
,  // measure 46
0100
0000
1000
0000
,  // measure 47
0010
0000
0100
0000
,  // measure 48
0001
0000
0100
0000
,  // measure 49
0010
0000
1000
0000
,  // measure 50
0100
0000
0010
0000
,  // measure 51
0001
0000
0100
0000
,  // measure 52
0010
0000
1000
0000
,  // measure 53
0100
0000
0010
0000
,  // measure 54
0001
0000
1000
0000
,  // measure 55
0100
0000
0010
0000
,  // measure 56
0001
0000
0100
0000
,  // measure 57
0010
0000
0100
0000
,  // measure 58
0010
0000
1000
0000
,  // measure 59
0001
0000
1000
0000
,  // measure 60
0001
0000
1000
0000
,  // measure 61
0001
0000
0100
0000
,  // measure 62
0001
0000
0100
0000
,  // measure 63
0010
0000
1000
0000
,  // measure 64
0010
0000
1000
0000
,  // measure 65
0100
0000
1000
0000
,  // measure 66
0010
0000
0100
0000
,  // measure 67
0001
0000
0100
0000
,  // measure 68
0001
0000
1000
0000
,  // measure 69
0001
0000
0100
0000
,  // measure 70
0010
0000
0100
0000
,  // measure 71
0001
0000
1000
0000
,  // measure 72
0100
0000
1000
0000
,  // measure 73
0010
0000
0100
0000
,  // measure 74
0001
0000
0100
0000
,  // measure 75
0010
0000
1000
0000
,  // measure 76
0001
0000
0100
0000
,  // measure 77
2020
0000
0000
3030
,  // measure 78
1010
0000
0000
0000
,  // measure 79
0202
0000
0000
0303
,  // measure 80
0101
0000
0000
0000
,  // measure 81
0022
0000
0000
0033
,  // measure 82
0011
0000
0000
0000
,  // measure 83
2200
0000
0000
3300
,  // measure 84
1100
0000
0000
0000
,  // measure 85
1000
0000
0000
0000
,  // measure 86
1000
0000
0000
0000
,  // measure 87
0001
0000
0000
0000
,  // measure 88
0001
0000
0000
0000
,  // measure 89
0100
0000
0000
0000
,  // measure 90
0100
0000
0000
0000
,  // measure 91
0010
0000
0000
0000
,  // measure 92
0010
0000
0000
0000
,  // measure 93
1000
0000
0000
0000
,  // measure 94
0001
0000
0000
0000
,  // measure 95
0100
0000
0000
0000
,  // measure 96
0010
0000
0000
0000
,  // measure 97
1000
0000
0000
0000
,  // measure 98
0001
0000
0000
0000
,  // measure 99
0100
0000
0000
0000
,  // measure 100
0010
0000
0000
0000
,  // measure 101
1000
0000
0001
0000
,  // measure 102
0100
0000
0001
0000
,  // measure 103
1000
0000
0010
0000
,  // measure 104
0100
0000
0010
0000
,  // measure 105
1000
0000
0100
0000
,  // measure 106
1000
0000
0001
0000
,  // measure 107
0100
0000
0010
0000
,  // measure 108
0100
0000
0001
0000
,  // measure 109
1000
0000
0100
0000
,  // measure 110
1000
0000
0010
0000
,  // measure 111
0100
0000
0001
0000
,  // measure 112
0010
0000
0001
0000
,  // measure 113
0100
0000
0010
0000
,  // measure 114
0100
0000
0001
0000
,  // measure 115
0010
0000
0100
0000
,  // measure 116
1000
0000
0001
0000
,  // measure 117
0000
0000
1001
0000
,  // measure 118
0100
0001
0100
0000
,  // measure 119
0010
0000
1000
0000
,  // measure 120
0010
1000
0100
0000
,  // measure 121
1000
0000
0100
0000
,  // measure 122
1000
0010
0100
0000
,  // measure 123
0001
0000
0100
0000
,  // measure 124
0010
0100
0001
0000
,  // measure 125
1000
0000
0100
0000
,  // measure 126
1000
0010
0100
0000
,  // measure 127
0001
0000
0100
0000
,  // measure 128
0010
0100
0001
0000
,  // measure 129
0100
0000
0010
0000
,  // measure 130
1000
0100
1000
0000
,  // measure 131
0010
0000
0100
0000
,  // measure 132
0001
0010
0001
0000
,  // measure 133
2000
0000
3100
0000
,  // measure 134
0002
0000
0103
0000
,  // measure 135
0020
0000
1030
0000
,  // measure 136
0200
0000
1300
0000
,  // measure 137
0020
0000
0130
0000
,  // measure 138
0200
0000
0301
0000
,  // measure 139
0002
0000
0013
0000
,  // measure 140
2000
0000
3001
0000
,  // measure 141
0020
0000
0130
0000
,  // measure 142
0002
0000
0103
0000
,  // measure 143
0020
0000
1030
0000
,  // measure 144
2000
0000
3001
0000
,  // measure 145
0200
0000
0301
0000
,  // measure 146
2000
0000
3010
0000
,  // measure 147
0002
0000
0103
0000
,  // measure 148
0020
0000
0130
0000
,  // measure 149
2002
0000
0000
0000
,  // measure 150
3003
0000
0000
0000
;

//---------------dance-single - ----------------
#NOTEDATA:;
#CHARTNAME:;
#STEPSTYPE:dance-single;
#DESCRIPTION:;
#CHARTSTYLE:;
#DIFFICULTY:Beginner;
#METER:4;
#RADARVALUES:0.188341,0.286773,0.009623,0.163595,0.000000,137.000000,136.000000,1.000000,17.000000,0.000000,0.000000,0.000000,0.000000,0.000000,0.188341,0.286773,0.009623,0.163595,0.000000,137.000000,136.000000,1.000000,17.000000,0.000000,0.000000,0.000000,0.000000,0.000000;
#CREDIT:;
#NOTES:
// measure 0
0000
0000
0000
0000
,  // measure 1
0000
0000
0000
0000
,  // measure 2
0000
0000
0000
0000
,  // measure 3
0000
0000
0000
0000
,  // measure 4
0000
0000
0000
0000
,  // measure 5
2000
0000
0000
0000
,  // measure 6
3000
0000
0000
0000
,  // measure 7
1000
0000
0000
0000
,  // measure 8
0000
0000
0000
0000
,  // measure 9
0002
0000
0000
0000
,  // measure 10
0003
0000
0000
0000
,  // measure 11
0001
0000
0000
0000
,  // measure 12
0000
0000
0000
0000
,  // measure 13
0200
0000
0000
0000
,  // measure 14
0300
0000
0000
0000
,  // measure 15
0100
0000
0000
0000
,  // measure 16
0000
0000
0000
0000
,  // measure 17
0020
0000
0000
0000
,  // measure 18
0030
0000
0000
0000
,  // measure 19
0010
0000
0000
0000
,  // measure 20
0000
0000
0000
0000
,  // measure 21
1000
0000
0000
0000
,  // measure 22
1000
0000
0000
0000
,  // measure 23
1000
0000
0000
0000
,  // measure 24
1000
0000
0000
0000
,  // measure 25
0001
0000
0000
0000
,  // measure 26
0001
0000
0000
0000
,  // measure 27
0001
0000
0000
0000
,  // measure 28
0001
0000
0000
0000
,  // measure 29
0100
0000
0000
0000
,  // measure 30
0100
0000
0000
0000
,  // measure 31
0100
0000
0000
0000
,  // measure 32
0100
0000
0000
0000
,  // measure 33
0010
0000
0000
0000
,  // measure 34
0010
0000
0000
0000
,  // measure 35
0010
0000
0000
0000
,  // measure 36
0010
0000
0000
0000
,  // measure 37
0100
0000
0100
0000
,  // measure 38
0200
0000
0300
0000
,  // measure 39
0010
0000
0010
0000
,  // measure 40
0020
0000
0030
0000
,  // measure 41
1000
0000
1000
0000
,  // measure 42
2000
0000
3000
0000
,  // measure 43
0001
0000
0001
0000
,  // measure 44
0002
0000
0003
0000
,  // measure 45
1000
0000
0000
0000
,  // measure 46
0010
0000
0000
0000
,  // measure 47
0100
0000
0000
0000
,  // measure 48
0001
0000
0000
0000
,  // measure 49
0100
0000
0000
0000
,  // measure 50
0010
0000
0000
0000
,  // measure 51
1000
0000
0000
0000
,  // measure 52
0100
0000
0000
0000
,  // measure 53
1000
0000
0000
0000
,  // measure 54
0001
0000
0000
0000
,  // measure 55
0100
0000
0000
0000
,  // measure 56
0010
0000
0000
0000
,  // measure 57
0100
0000
0000
0000
,  // measure 58
0001
0000
0000
0000
,  // measure 59
0100
0000
0000
0000
,  // measure 60
0010
0000
0000
0000
,  // measure 61
1000
0000
0000
0000
,  // measure 62
0100
0000
0000
0000
,  // measure 63
1000
0000
0000
0000
,  // measure 64
0010
0000
0000
0000
,  // measure 65
0100
0000
0000
0000
,  // measure 66
0001
0000
0000
0000
,  // measure 67
1000
0000
0000
0000
,  // measure 68
0010
0000
0000
0000
,  // measure 69
1000
0000
0000
0000
,  // measure 70
0010
0000
0000
0000
,  // measure 71
1000
0000
0000
0000
,  // measure 72
0100
0000
0000
0000
,  // measure 73
1000
0000
0000
0000
,  // measure 74
0001
0000
0000
0000
,  // measure 75
0100
0000
0000
0000
,  // measure 76
0001
0000
0000
0000
,  // measure 77
1000
0000
1000
0000
,  // measure 78
2000
0000
3000
0000
,  // measure 79
0001
0000
0001
0000
,  // measure 80
0002
0000
0003
0000
,  // measure 81
0100
0000
0100
0000
,  // measure 82
0200
0000
0300
0000
,  // measure 83
0010
0000
0010
0000
,  // measure 84
0020
0000
0030
0000
,  // measure 85
0100
0000
0000
0000
,  // measure 86
0001
0000
0000
0000
,  // measure 87
0010
0000
0000
0000
,  // measure 88
0001
0000
0000
0000
,  // measure 89
0100
0000
0000
0000
,  // measure 90
0010
0000
0000
0000
,  // measure 91
1000
0000
0000
0000
,  // measure 92
0100
0000
0000
0000
,  // measure 93
1000
0000
0000
0000
,  // measure 94
0010
0000
0000
0000
,  // measure 95
0100
0000
0000
0000
,  // measure 96
0001
0000
0000
0000
,  // measure 97
1000
0000
0000
0000
,  // measure 98
0010
0000
0000
0000
,  // measure 99
0100
0000
0000
0000
,  // measure 100
0001
0000
0000
0000
,  // measure 101
1000
0000
0000
0000
,  // measure 102
0001
0000
0000
0000
,  // measure 103
0100
0000
0000
0000
,  // measure 104
0010
0000
0000
0000
,  // measure 105
0100
0000
0000
0000
,  // measure 106
0001
0000
0000
0000
,  // measure 107
1000
0000
0000
0000
,  // measure 108
0100
0000
0000
0000
,  // measure 109
1000
0000
0000
0000
,  // measure 110
0010
0000
0000
0000
,  // measure 111
0100
0000
0000
0000
,  // measure 112
0001
0000
0000
0000
,  // measure 113
1000
0000
0000
0000
,  // measure 114
0001
0000
0000
0000
,  // measure 115
0100
0000
0000
0000
,  // measure 116
0020
0000
0000
0000
,  // measure 117
0030
0000
0000
0000
,  // measure 118
0010
0000
0000
0000
,  // measure 119
0010
0000
0000
0000
,  // measure 120
0100
0000
0000
0000
,  // measure 121
0001
0000
0000
0000
,  // measure 122
0100
0000
0000
0000
,  // measure 123
0010
0000
0000
0000
,  // measure 124
1000
0000
0000
0000
,  // measure 125
0100
0000
0000
0000
,  // measure 126
1000
0000
0000
0000
,  // measure 127
0001
0000
0000
0000
,  // measure 128
0100
0000
0000
0000
,  // measure 129
0001
0000
0000
0000
,  // measure 130
0100
0000
0000
0000
,  // measure 131
0001
0000
0000
0000
,  // measure 132
1000
0000
0000
0000
,  // measure 133
2000
0000
0000
0000
,  // measure 134
3000
0000
0000
0000
,  // measure 135
1000
0000
0000
0000
,  // measure 136
0000
0000
0000
0000
,  // measure 137
0002
0000
0000
0000
,  // measure 138
0003
0000
0000
0000
,  // measure 139
0001
0000
0000
0000
,  // measure 140
0000
0000
0000
0000
,  // measure 141
0200
0000
0000
0000
,  // measure 142
0300
0000
0000
0000
,  // measure 143
0100
0000
0000
0000
,  // measure 144
0000
0000
0000
0000
,  // measure 145
0020
0000
0000
0000
,  // measure 146
0030
0000
0000
0000
,  // measure 147
0010
0000
0000
0000
,  // measure 148
0000
0000
0000
0000
,  // measure 149
1001
0000
0000
0000
;

//---------------dance-single - ----------------
#NOTEDATA:;
#CHARTNAME:;
#STEPSTYPE:dance-single;
#DESCRIPTION:;
#CHARTSTYLE:;
#DIFFICULTY:Challenge;
#METER:19;
#RADARVALUES:1.299139,1.443487,0.596641,0.125102,0.033681,945.000000,883.000000,62.000000,13.000000,0.000000,0.000000,0.000000,0.000000,0.000000,1.299139,1.443487,0.596641,0.125102,0.033681,945.000000,883.000000,62.000000,13.000000,0.000000,0.000000,0.000000,0.000000,0.000000;
#CREDIT:;
#NOTES:
// measure 0
0000
0000
0000
0000
,  // measure 1
0000
0000
0000
0000
,  // measure 2
0000
0000
0000
0000
,  // measure 3
1000
0100
0010
0100
1000
0010
0100
0010
,  // measure 4
1000
0000
0001
0000
0100
0001
0010
0001
1000
0100
0010
0000
1001
0000
0000
0000
,  // measure 5
1000
0000
0100
0000
1100
0000
1000
0001
,  // measure 6
1000
0000
0001
0000
0101
0000
0001
1000
,  // measure 7
0100
0000
0010
0000
0110
0000
0010
0001
,  // measure 8
0100
0000
0010
0000
1100
0000
1000
0001
,  // measure 9
0100
0000
0010
0000
0101
0000
0100
0010
,  // measure 10
0100
0000
0001
0000
1100
0000
1000
0001
,  // measure 11
0010
0000
0100
0000
0110
0000
0100
1000
,  // measure 12
0010
0000
1000
0000
1100
0000
1000
0010
,  // measure 13
0100
0000
0001
0000
0101
0000
0100
0010
,  // measure 14
0100
0000
0001
0000
0101
0000
0010
0001
,  // measure 15
1000
0000
0100
0000
1100
0000
1000
0100
,  // measure 16
1000
0000
0001
0000
0101
0000
0001
1000
,  // measure 17
0100
0000
0010
0000
0011
0000
0001
0010
,  // measure 18
0100
0000
1000
0000
1100
0000
1000
0100
,  // measure 19
0010
0000
0100
0000
1100
0000
1000
0010
,  // measure 20
0100
0010
0100
0001
,  // measure 21
1000
0001
0100
0001
1000
0000
1000
0100
,  // measure 22
1000
0100
0010
0000
0001
1000
0001
0000
,  // measure 23
0001
0100
0010
0100
0010
0000
1000
0100
,  // measure 24
0010
0100
1000
0000
1000
0001
1000
0000
,  // measure 25
0001
0100
0010
0100
0001
0000
0010
0001
,  // measure 26
0100
0001
0010
0000
0100
1000
0100
0000
,  // measure 27
1000
0010
0100
0010
1000
0000
0010
1000
,  // measure 28
0100
1000
0010
0000
0100
0010
1000
0000
,  // measure 29
0001
0100
0010
0100
0010
0000
1000
0001
,  // measure 30
0100
0010
1000
0000
0001
1000
0100
0000
,  // measure 31
0010
0100
1000
0100
0010
0000
0010
0001
,  // measure 32
0010
0100
1000
0000
0010
0100
0001
0000
,  // measure 33
0001
1000
0100
1000
0010
0000
1000
0100
,  // measure 34
0010
0001
0100
0000
0010
0100
0001
0000
,  // measure 35
0010
0100
1000
0010
1000
0000
0100
0010
,  // measure 36
0100
0010
1000
0000
1002
0000
0100
0000
,  // measure 37
0103
0010
0100
0010
1000
0100
1000
0200
,  // measure 38
0000
1300
0100
0010
0001
0100
0010
0100
,  // measure 39
0010
1000
0100
0010
0100
1000
0100
0020
,  // measure 40
0000
0031
0100
0010
0100
0001
0100
0010
,  // measure 41
1000
0100
0010
0100
1000
0100
0010
0200
,  // measure 42
0000
1300
0010
0100
0001
0100
0010
0100
,  // measure 43
0001
0010
0001
0100
0001
0100
0010
0200
,  // measure 44
0000
0000
0310
0000
1000
0000
0100
0000
1000
0000
0001
0000
1000
0100
0010
0100
,  // measure 45
1000
0000
0100
0000
1100
0000
1000
0010
,  // measure 46
0100
0000
0010
0000
0101
0000
0001
0100
,  // measure 47
0010
0000
0100
0000
1010
0000
1000
0001
,  // measure 48
0100
0000
0001
0000
1100
0000
0001
1000
,  // measure 49
0100
0000
1000
0000
0101
0000
0010
0100
,  // measure 50
0010
0000
0100
0000
1001
0000
0100
0001
,  // measure 51
0010
0000
0100
0000
1100
0000
0001
1000
,  // measure 52
0010
0000
0100
0000
0101
0000
0010
0100
,  // measure 53
0001
0000
0100
0000
1001
0000
1000
0010
,  // measure 54
0100
0000
0010
0000
1001
0000
0001
1000
,  // measure 55
0100
0000
0010
0000
0011
0000
0100
0001
,  // measure 56
1000
0000
0001
0000
0110
0000
0010
0100
,  // measure 57
0001
0000
0100
0000
1001
0000
0001
1000
,  // measure 58
0100
0000
1000
0000
0101
0000
1000
0001
,  // measure 59
0010
0000
1000
0000
1100
0000
1000
0100
,  // measure 60
1000
0000
0010
0000
1001
0000
0100
0001
,  // measure 61
0100
0000
0010
0000
1010
0000
1000
0100
,  // measure 62
0010
0001
0100
0000
0101
0000
0001
1000
,  // measure 63
0010
0000
1000
0000
0110
0000
1000
0010
,  // measure 64
0100
0010
0001
0000
0110
0000
0101
0000
,  // measure 65
0001
0000
0010
0000
0011
0000
0001
0100
,  // measure 66
0001
0100
0010
0000
1010
0000
1000
0100
,  // measure 67
1000
0000
0001
0100
0001
0100
0001
0100
,  // measure 68
0001
0000
1000
0100
1000
0010
0100
0000
,  // measure 69
0001
0100
0001
0100
0001
0000
0010
1000
,  // measure 70
0010
1000
0100
0000
1000
0000
0001
0000
,  // measure 71
0100
0010
0001
0010
0100
0000
0010
0100
,  // measure 72
0001
0100
0001
0000
0100
0000
0010
0000
,  // measure 73
0100
0010
0100
0010
1000
0001
1000
0001
,  // measure 74
0010
0001
0010
0001
0010
0100
0010
0100
,  // measure 75
0010
0001
0010
0001
1000
0001
1000
0001
,  // measure 76
0100
0001
0100
0010
1000
0010
0100
0001
,  // measure 77
0100
0010
0100
0010
1000
0100
1000
0200
,  // measure 78
0000
1300
0100
0010
0001
0100
0010
0100
,  // measure 79
0010
1000
0100
0010
0100
1000
0100
0020
,  // measure 80
0000
0031
0100
0010
0100
0001
0100
0010
,  // measure 81
1000
0100
0010
0100
1000
0100
0010
0200
,  // measure 82
0000
1300
0010
0100
0001
0100
0010
0100
,  // measure 83
0001
0010
0001
0100
0001
0100
0010
0200
,  // measure 84
0000
0000
0310
0000
1000
0000
0100
0000
1000
0000
0001
0000
1000
0100
0010
0100
,  // measure 85
1000
0000
0001
0000
0101
0000
0001
0010
,  // measure 86
0100
1000
0100
0000
1000
0100
1000
0100
,  // measure 87
1000
0000
0010
0000
0110
0000
0010
0100
,  // measure 88
0001
0100
0010
0000
0100
0001
0010
0001
,  // measure 89
0100
0000
0001
0000
1001
0000
1000
0010
,  // measure 90
1000
0001
1000
0000
0100
1000
0010
1000
,  // measure 91
0100
0000
0010
0000
0011
0000
1000
0001
,  // measure 92
0100
0010
1000
0000
0001
0100
0010
1000
,  // measure 93
0001
0000
0100
0000
0101
0000
0001
0100
,  // measure 94
0001
0100
0010
0000
0110
0000
0010
1000
,  // measure 95
0100
1000
0100
0000
1100
0000
1000
0010
,  // measure 96
0100
0010
1000
0000
0010
0100
0001
0010
,  // measure 97
0001
0010
0001
0010
0100
1000
0010
1000
,  // measure 98
0010
1000
0010
1000
0010
0100
0001
0100
,  // measure 99
0001
0100
0001
0100
0010
0100
0010
1000
,  // measure 100
0010
1000
0010
0100
0010
0100
0001
0000
,  // measure 101
1000
0001
0100
0001
1000
0000
1000
0100
,  // measure 102
1000
0100
0010
0000
0001
1000
0001
0000
,  // measure 103
0001
0100
0010
0100
0010
0000
1000
0100
,  // measure 104
0010
0100
1000
0000
1000
0001
1000
0000
,  // measure 105
0001
0100
0010
0100
0001
0000
0010
0001
,  // measure 106
0100
0001
0010
0000
0100
1000
0100
0000
,  // measure 107
1000
0010
0100
0010
1000
0000
0010
1000
,  // measure 108
0100
1000
0010
0000
0100
0010
1000
0000
,  // measure 109
0001
0100
0010
0100
0010
0000
1000
0001
,  // measure 110
0100
0010
1000
0000
0001
1000
0100
0000
,  // measure 111
0010
0100
1000
0100
0010
0000
0010
0001
,  // measure 112
0010
0100
1000
0000
0010
0100
0001
0000
,  // measure 113
0001
1000
0100
1000
0010
0000
1000
0100
,  // measure 114
0010
0001
0100
0000
0010
0100
0001
0000
,  // measure 115
0010
0100
1000
0010
1000
0000
0100
0010
,  // measure 116
0100
0010
1000
0001
1000
0001
0100
0020
,  // measure 117
0200
0000
0000
0030
0301
0000
0100
0001
,  // measure 118
0100
0010
0100
0000
0001
0000
0001
1000
,  // measure 119
0100
1000
0010
0000
0100
0000
0010
0100
,  // measure 120
1000
0100
0010
0000
1000
0000
0001
1000
,  // measure 121
0100
0010
0100
0000
1000
0000
1000
0010
,  // measure 122
0100
0010
1000
0000
0001
0000
0100
0010
,  // measure 123
1000
0100
1000
0000
0001
0000
0100
0010
,  // measure 124
0100
0001
0010
0000
0100
0000
1000
0010
,  // measure 125
0100
0010
1000
0000
1000
0100
1000
0000
,  // measure 126
0001
0100
0001
0000
1000
0100
1000
0000
,  // measure 127
0001
0100
0001
0000
1000
0100
1000
0000
,  // measure 128
0001
0100
0001
0000
1000
0100
1000
0000
,  // measure 129
0010
0100
0010
0100
0010
1000
0010
1000
,  // measure 130
0010
0100
0010
0100
0010
0001
0010
0001
,  // measure 131
0010
0100
0010
0100
0010
1000
0010
1000
,  // measure 132
0010
0100
0010
0100
0010
0001
0010
0001
,  // measure 133
0010
1000
0100
1010
,  // measure 134
0001
0010
0001
0110
,  // measure 135
0010
1000
0100
1100
,  // measure 136
0010
0100
0001
0101
,  // measure 137
0010
1000
0100
1001
,  // measure 138
0001
0100
0010
1100
,  // measure 139
0001
0010
0100
1001
,  // measure 140
0100
0010
1000
1100
,  // measure 141
0100
1000
0100
1010
,  // measure 142
0100
0010
0100
1001
,  // measure 143
0001
0100
0010
0110
,  // measure 144
0010
1000
0100
1001
,  // measure 145
0010
0100
0001
0110
,  // measure 146
0010
1000
0100
1010
,  // measure 147
0001
0100
0010
1001
,  // measure 148
0100
0000
1000
0000
0010
0100
0010
0200
,  // measure 149
0020
0000
0000
0000
,  // measure 150
0330
0000
0000
0000
;
