#VERSION:0.83;
#TITLE:NFS2 Sanoqoua;
#SUBTITLE:;
#ARTIST:Saki Kaskas;
#TITLETRANSLIT:;
#SUBTITLETRANSLIT:;
#ARTISTTRANSLIT:;
#GENRE:;
#ORIGIN:;
#CREDIT:;
#BANNER:NFS2 Sanoqoua.png;
#BACKGROUND:NFS2 Sanoqoua-bg.png;
#PREVIEWVID:;
#JACKET:NFS2 Sanoqoua-jacket.png;
#CDIMAGE:;
#DISCIMAGE:;
#LYRICSPATH:;
#CDTITLE:;
#MUSIC:NFS2 Sanoqoua.ogg;
#OFFSET:-0.020000;
#SAMPLESTART:63.960190;
#SAMPLELENGTH:12.000000;
#SELECTABLE:YES;
#DISPLAYBPM:150.000000;
#BPMS:0.000=150.060,
223.000=157.100,
224.000=150.060;
#STOPS:;
#DELAYS:;
#WARPS:;
#TIMESIGNATURES:0.000=4=4;
#TICKCOUNTS:0.000=4;
#COMBOS:0.000=1;
#SPEEDS:0.000=1.000=0.000=0;
#SCROLLS:0.000=1.000;
#FAKES:;
#LABELS:0.000=Song Start;
#BGCHANGES:;
#KEYSOUNDS:;
#ATTACKS:
;

//---------------dance-single - ----------------
#NOTEDATA:;
#CHARTNAME:;
#STEPSTYPE:dance-single;
#DESCRIPTION:;
#CHARTSTYLE:;
#DIFFICULTY:Challenge;
#METER:18;
#RADARVALUES:0.830524,1.018790,0.105703,0.146358,0.939131,715.000000,702.000000,13.000000,18.000000,0.000000,0.000000,0.000000,0.000000,0.000000,0.830524,1.018790,0.105703,0.146358,0.939131,715.000000,702.000000,13.000000,18.000000,0.000000,0.000000,0.000000,0.000000,0.000000;
#CREDIT:;
#DISPLAYBPM:150.000000;
#NOTES:
// measure 0
0000
0000
0000
0000
,  // measure 1
0000
0000
0000
0000
,  // measure 2
0000
0000
0000
0000
,  // measure 3
0000
0000
0000
0000
,  // measure 4
1000
0100
1000
0100
1000
0100
1000
0010
1000
0010
1000
0010
1000
0001
1000
0001
,  // measure 5
1000
0001
0100
0001
0100
0001
0100
0001
0010
0001
0010
0001
0010
0001
1000
0001
,  // measure 6
1000
0001
1000
0001
0100
0001
0100
0001
0100
0001
0100
0010
0100
0010
0100
0010
,  // measure 7
1000
0010
1000
0010
1000
0010
0100
0001
0100
0001
0100
0001
0010
0001
0010
0001
,  // measure 8
1000
0000
0100
1000
0100
0000
1000
0100
0000
0100
1000
0000
0010
0000
0100
0000
,  // measure 9
0001
0000
0010
0001
0010
0000
0001
0100
0000
0100
0010
0000
0010
0000
1000
0000
,  // measure 10
0100
0000
1000
0100
1000
0000
1000
0001
0000
0001
0100
0000
0001
0000
0010
0000
,  // measure 11
0001
0000
0100
0010
0100
0000
0010
1000
0000
1000
0100
0000
0100
0000
1000
0000
,  // measure 12
1000
0000
0001
0100
0001
0000
1000
0001
0000
0001
0100
0000
0010
0000
1000
0000
,  // measure 13
0010
0000
1000
0010
1000
0000
0010
0100
0000
0100
0001
0000
0001
0000
0010
0000
,  // measure 14
0001
0000
1000
0001
1000
0000
0001
0100
0000
0100
0010
0000
0010
0000
1000
0000
,  // measure 15
0100
0000
1000
0010
1000
0000
0010
0100
0000
0100
0001
0000
0001
0000
0010
0000
,  // measure 16
0001
0000
1000
0001
1000
0000
0001
1000
0000
0010
0100
0000
0001
0000
1000
0000
,  // measure 17
0010
0000
1000
0010
1000
0000
0001
0100
0000
0001
0100
0000
0001
0000
1000
0000
,  // measure 18
0100
0000
1000
0010
1000
0000
0010
1000
0000
1000
0100
0000
0010
0000
0001
0000
,  // measure 19
0010
0000
0001
0010
0001
0000
0001
0100
0000
0100
0001
0000
0010
0000
0001
0000
,  // measure 20
1000
0000
0100
1000
0010
0000
0010
1000
0000
1000
0100
0000
0100
0000
0010
0000
,  // measure 21
0001
0000
0001
0100
0010
0000
0010
1000
0000
1000
0100
0000
1000
0000
0010
0000
,  // measure 22
0100
0000
0001
1000
0001
0000
0001
1000
0000
1000
0100
0000
0010
0000
0100
0000
,  // measure 23
1000
0100
0010
0100
1000
0100
0010
0100
1000
0100
0010
0100
1000
0100
0010
0100
,  // measure 24
1000
0000
0001
0000
0100
0001
0100
0000
0001
0000
1000
0000
0100
0000
1000
0000
,  // measure 25
0010
0000
0100
0000
0001
0010
0001
0000
1000
0000
0100
0000
1000
0000
0010
0000
,  // measure 26
0100
0000
0001
0000
1000
0001
1000
0000
0001
0000
0100
0000
0010
0000
1000
0000
,  // measure 27
0100
0000
0010
0000
0100
1000
0100
0000
1000
0000
0010
0000
0100
0000
0001
0000
,  // measure 28
0001
0000
0010
0000
0001
0100
0001
0000
0100
0000
0010
0000
1000
0000
0010
0000
,  // measure 29
0100
0000
0001
0000
1000
0100
1000
0000
0010
0000
0100
0000
0001
0000
0100
0000
,  // measure 30
0010
0000
1000
0000
0001
0100
0001
0000
1000
0000
0001
0000
0010
0000
0001
0000
,  // measure 31
1000
0000
0100
0000
0010
0001
0010
0000
0001
0000
1000
0000
0100
0000
1000
0000
,  // measure 32
0100
1000
0100
0000
1000
0100
1000
0000
0010
1000
0010
0000
1000
0010
1000
0000
,  // measure 33
0001
0100
0001
0000
0100
0001
0100
0000
0010
0100
0010
0000
0100
0010
0100
0000
,  // measure 34
0001
1000
0001
0000
1000
0001
1000
0000
0010
0100
0010
0000
0100
0010
0100
0000
,  // measure 35
0010
1000
0010
0000
1000
0010
1000
0000
0001
0100
0001
0000
0100
0001
0100
0000
,  // measure 36
0001
0010
0001
0000
0010
0001
0010
0000
0100
1000
0100
0000
1000
0100
1000
0000
,  // measure 37
0010
1000
0010
0000
1000
0010
1000
0000
0001
0100
0001
0000
0100
0001
0100
0000
,  // measure 38
0010
1000
0010
0100
0001
0100
0001
1000
,  // measure 39
2002
0000
0000
3003
,  // measure 40
1000
0100
1000
0100
1000
0100
1000
0000
0000
0000
0000
0000
0001
0100
0001
0100
0001
0100
0001
0000
0000
0000
0000
0000
,  // measure 41
1000
0010
1000
0010
1000
0010
1000
0000
0000
0000
0000
0000
0001
0010
0001
0010
0001
0010
0001
0000
0000
0000
0000
0000
,  // measure 42
1000
0001
1000
0001
1000
0001
1000
0000
0000
0000
0000
0000
0010
0100
0010
0100
0010
0100
0010
0000
0000
0000
0000
0000
,  // measure 43
2002
0000
0000
3003
,  // measure 44
0001
0100
0001
0100
0001
0100
0001
0000
0000
0000
0000
0000
1000
0010
1000
0010
1000
0010
1000
0000
0000
0000
0000
0000
,  // measure 45
0001
0100
0001
0100
0001
0100
0001
0000
0000
0000
0000
0000
1000
0010
1000
0010
1000
0010
1000
0000
0000
0000
0000
0000
,  // measure 46
0100
1000
0100
1000
0100
1000
0100
0000
0000
0000
0000
0000
0010
0001
0010
0001
0010
0001
0010
0000
0000
0000
0000
0000
,  // measure 47
0220
0000
0000
0330
,  // measure 48
1000
0001
1000
0001
1000
0001
1000
0000
0000
0000
0000
0000
0001
1000
0001
1000
0001
1000
0001
0000
0000
0000
0000
0000
,  // measure 49
0100
0010
0100
0010
0100
0010
0100
0000
0000
0000
0000
0000
0010
0100
0010
0100
0010
0100
0010
0000
0000
0000
0000
0000
,  // measure 50
1000
0010
1000
0010
1000
0010
1000
0000
0000
0000
0000
0000
0001
0100
0001
0100
0001
0100
0001
0000
0000
0000
0000
0000
,  // measure 51
2002
0000
0000
3003
,  // measure 52
0100
0010
0100
0010
0100
0010
0100
0000
0000
0000
0000
0000
0010
0100
0010
0100
0010
0100
0010
0000
0000
0000
0000
0000
,  // measure 53
1000
0010
1000
0010
1000
0010
1000
0000
0000
0000
0000
0000
0001
0100
0001
0100
0001
0100
0001
0000
0000
0000
0000
0000
,  // measure 54
0010
0001
0010
0001
0010
0001
0010
0000
0000
0000
0000
0000
0100
1000
0100
1000
0100
1000
0100
0000
0000
0000
0000
0000
,  // measure 55
2002
0000
0000
3003
,  // measure 56
1000
0010
0100
0001
1000
0010
0100
0001
,  // measure 57
1000
0100
0010
0001
1000
0100
0010
0001
,  // measure 58
1000
0001
0100
0010
1000
0001
0100
0010
,  // measure 59
1000
0010
0100
0010
1000
0100
0010
0100
,  // measure 60
1000
0001
0100
0010
0100
0001
0010
0100
,  // measure 61
0010
0001
1000
0001
1000
0001
0100
0010
,  // measure 62
0100
0010
1000
0100
0001
0100
1000
0100
,  // measure 63
0001
0100
1000
0010
0100
0010
0001
0010
,  // measure 64
0100
0010
1000
0000
0100
1000
0010
0000
0010
0100
0001
0000
0001
0010
0001
0000
,  // measure 65
0001
0100
0010
0000
0010
1000
0100
0000
0100
1000
0010
0000
0010
0100
0001
0000
,  // measure 66
0001
0100
0010
0000
0010
1000
0100
0000
0100
1000
0010
0000
0100
0001
0010
0000
,  // measure 67
0001
1000
0100
0000
1000
0001
0100
0000
0010
0100
0001
0000
1000
0010
0100
0000
,  // measure 68
2001
0001
0001
3001
,  // measure 69
0210
0010
0010
0310
,  // measure 70
1002
1000
1000
1003
,  // measure 71
0120
0100
0100
0130
,  // measure 72
2100
0100
0100
3100
,  // measure 73
0012
0010
0010
0013
,  // measure 74
1020
1000
1000
1030
,  // measure 75
0201
0000
0000
0000
0001
0000
0000
0000
0001
0000
0000
0000
0301
0010
0100
1000
;
