#VERSION:0.83;
#TITLE:NEW YORK CITY BOY;
#SUBTITLE:(LANGE Remix);
#ARTIST:PET SHOP BOYS;
#TITLETRANSLIT:;
#SUBTITLETRANSLIT:;
#ARTISTTRANSLIT:;
#GENRE:Trance;
#ORIGIN:;
#CREDIT:;
#BANNER:NEW YORK CITY BOY (LANGE Remix)-bn.png;
#BACKGROUND:NEW YORK CITY BOY (LANGE Remix)-bg.png;
#PREVIEWVID:;
#JACKET:NEW YORK CITY BOY (LANGE Remix)-jacket.png;
#CDIMAGE:;
#DISCIMAGE:;
#LYRICSPATH:;
#CDTITLE:;
#MUSIC:NEW YORK CITY BOY (LANGE Remix).ogg;
#OFFSET:-2.003122;
#SAMPLESTART:70.708931;
#SAMPLELENGTH:12.000000;
#SELECTABLE:YES;
#BPMS:0.000=69.834,
48.000=139.668;
#STOPS:;
#DELAYS:;
#WARPS:;
#TIMESIGNATURES:0.000=4=4;
#TICKCOUNTS:0.000=4;
#COMBOS:0.000=1;
#SPEEDS:0.000=1.000=0.000=0;
#SCROLLS:0.000=1.000;
#FAKES:;
#LABELS:0.000=Song Start;
#BGCHANGES:
;
#KEYSOUNDS:;
#ATTACKS:
;

//---------------dance-single - ----------------
#NOTEDATA:;
#CHARTNAME:;
#STEPSTYPE:dance-single;
#DESCRIPTION:;
#CHARTSTYLE:;
#DIFFICULTY:Hard;
#METER:13;
#RADARVALUES:0.447104,0.489797,0.019142,0.248847,0.736969,327.000000,325.000000,2.000000,26.000000,0.000000,0.000000,0.000000,0.000000,0.000000,0.447104,0.489797,0.019142,0.248847,0.736969,327.000000,325.000000,2.000000,26.000000,0.000000,0.000000,0.000000,0.000000,0.000000;
#CREDIT:;
#NOTES:
0000
0000
0000
0000
,
0000
0000
0000
0000
,
0000
0000
0000
0000
,
0000
0000
0000
0000
0000
0000
0000
0000
0000
0000
0000
0000
0000
0000
0001
0002
,
0000
0000
0000
0000
0000
0000
0013
0020
0000
0000
0000
0000
0000
0000
0130
0200
,
0000
0000
0000
0000
0000
0000
0301
0100
2000
0000
3002
0000
1003
0020
0000
0230
,
0000
0000
0000
0000
0000
2300
0000
3200
0000
0000
0000
0000
0000
0302
0000
0200
,
0000
0000
0000
0000
0000
0000
0000
0000
0303
0000
0000
0000
0000
0000
1000
1000
,
0002
0000
2003
0000
0000
0000
3010
0020
0000
0000
0000
0000
0000
0000
0130
0200
,
0000
0000
0000
0000
0000
0000
1300
0100
0002
0000
2003
0000
3001
0020
0000
0230
,
0000
0000
0000
0000
0000
0302
0000
0203
0000
0000
0000
0000
0000
2300
0000
3200
,
0000
0000
0000
0000
0000
0000
0310
0001
1000
0000
0001
0000
0100
0010
0000
0010
,
0100
0000
0010
0000
0000
0010
0000
0000
1000
0000
0100
0000
0000
0010
0000
0000
,
0001
0000
1000
0000
0000
1000
0000
0000
0001
0000
0010
0000
0000
0100
0000
0000
,
1000
0000
0001
0000
0000
0100
0000
0000
0001
0000
1000
0000
0000
0100
0000
0000
,
1000
0000
0001
0000
0000
0010
0000
0000
0001
0000
1000
0000
0000
0010
0000
0000
,
0100
0000
0001
0000
0000
0010
0000
0000
1000
0000
0100
0000
0000
0010
0000
0000
,
0100
0000
0001
0000
0000
0010
0000
0000
1000
0000
0100
0000
0000
0010
0000
0000
,
0100
0000
0001
0000
0000
0010
0000
0000
1000
0000
0100
0000
0000
0010
0000
0000
,
2001
0100
0010
3001
,
0001
0010
0000
0010
0100
0000
0100
1000
0000
1000
0001
0000
0001
0010
0000
0010
,
0100
0000
0100
1000
0000
1000
0001
0000
0001
0010
0000
0010
0100
0000
0100
0010
,
0000
0010
0001
0000
0001
0100
0000
0100
0001
0000
0001
1000
0000
1000
0010
0000
,
0010
0100
0000
0100
0010
0000
0010
1000
0000
1000
0001
0000
0001
0100
0000
0010
,
0100
0000
0100
0001
0000
0001
0010
0000
0010
0100
0000
0100
1000
0000
1000
0010
,
0000
0010
0100
0000
0100
0001
0000
0001
0010
0000
0010
0100
0000
0100
1000
0000
,
1000
0010
0000
1000
0001
0000
1000
0100
0000
0010
0001
0000
1000
0100
0000
0010
,
0100
0000
0100
1000
0000
1000
0001
0000
0001
0010
0000
0010
0100
0000
0100
1000
,
0010
1000
0000
1000
0001
0000
0001
0100
0000
0100
0010
0000
0010
1000
0000
1000
,
0001
0000
0001
0100
0000
0100
0010
0000
0010
1000
0000
1000
0001
0000
0001
0100
,
0000
0010
0100
0000
0100
1000
0000
1000
0100
0000
0100
0001
0000
0001
0010
0000
,
0010
0100
0000
0100
0001
0000
0001
0100
0000
0100
1000
0000
1000
0100
0000
0100
,
0010
0000
0010
0001
0000
1000
0001
0000
0100
0001
0000
1000
0001
0000
0010
0100
,
0000
1000
0001
0000
0001
1000
0000
1000
0100
0000
0100
0010
0000
0010
0001
0000
,
0001
1000
0000
0001
1000
0000
0010
0100
0000
0010
0100
0000
0001
0010
0000
0001
,
0010
0000
0100
1000
0000
0010
0100
0000
0001
1000
0000
0100
0010
0000
0001
0000
,
0010
0100
0000
0100
0000
0000
1000
0000
0001
1000
0000
0010
1000
0000
0001
0000
,
0100
0010
0000
0010
0000
0000
0100
0000
0001
1000
0000
0001
0010
0000
0100
0000
,
0010
0001
0000
0001
0000
0000
0010
0000
0100
1000
0000
0001
1000
0000
0010
0000
,
0100
0001
0000
0001
0000
0000
0100
0000
0010
1000
0000
0001
1000
0000
0100
0000
,
0000
0010
0000
0010
0000
0000
0001
0000
1000
0100
0000
0100
0000
0000
0010
0000
,
0000
0001
0000
0001
0000
0000
0100
0000
0010
1000
0000
1000
0000
0000
0001
0000
,
0000
0100
0000
0010
0000
0000
1000
0000
0001
0010
0000
0100
0000
0000
0010
0000
,
0000
0001
0000
1000
0000
0000
0100
0000
0010
0100
0000
0100
0000
0000
1000
0000
,
0202
0000
0303
0000
;

//---------------dance-single - ----------------
#NOTEDATA:;
#CHARTNAME:;
#STEPSTYPE:dance-single;
#DESCRIPTION:;
#CHARTSTYLE:;
#DIFFICULTY:Medium;
#METER:10;
#RADARVALUES:0.288498,0.362024,0.095710,0.133994,0.000000,211.000000,201.000000,10.000000,14.000000,0.000000,0.000000,0.000000,0.000000,0.000000,0.288498,0.362024,0.095710,0.133994,0.000000,211.000000,201.000000,10.000000,14.000000,0.000000,0.000000,0.000000,0.000000,0.000000;
#CREDIT:;
#NOTES:
0000
0000
0000
0000
,
0000
0000
0000
0000
,
0000
0000
0000
0000
,
0000
0000
0000
0000
,
2000
0000
0000
0000
,
3020
0000
0200
0330
,
0002
0000
0000
0000
,
0023
0000
0200
0330
,
1002
0000
0000
0000
,
0203
0000
0320
0000
,
2030
0000
0000
0000
,
3200
0000
0020
0330
,
1000
0100
0001
0010
,
1000
0100
0001
0010
,
1000
0100
0001
0010
,
1000
0100
0001
0010
,
1001
0100
1000
0010
,
1001
0100
0001
0010
,
1001
0100
1001
0010
,
0100
0100
0010
1000
,
0100
1000
0100
1000
0100
0010
0001
0010
,
0100
1000
0100
1000
0100
0010
0001
0010
,
0100
0010
0001
0000
1000
0010
0100
0000
,
0001
1000
0010
0000
0100
0010
1000
0000
,
0001
0100
0001
0100
0010
1000
0010
0100
,
0001
0100
0001
0100
0010
1000
0010
0100
,
0001
0010
0100
0000
1000
0100
0010
0000
,
0001
0100
0010
0000
1000
0100
0010
0000
,
0001
0010
0001
0010
0100
0010
0001
0100
,
0010
0100
0010
0100
0001
1000
0100
0010
,
0001
0010
0100
0000
1000
0010
0100
0000
,
0001
1000
0100
0000
0010
0001
0100
0000
,
1000
0010
0100
0010
1000
0001
1000
0001
,
1000
0010
0100
0010
1000
0001
1000
0001
,
0100
0010
1000
0000
0100
0010
0001
0000
,
1000
0100
0010
0000
0001
0100
0010
0000
,
1001
0000
0100
0010
1000
0000
0100
0000
,
1001
0000
0100
0010
0001
0000
0100
0000
,
1001
0000
0010
1000
0100
0000
0010
0000
,
1001
0000
0010
0001
0100
0000
0010
0000
,
1000
0100
1000
0000
0001
0100
0001
0000
,
1000
0100
1000
0000
0001
0010
0100
0000
,
0001
0100
0001
0000
1000
0010
1000
0000
,
0001
0100
0010
0000
1000
0100
0010
0000
,
2002
0000
3003
0000
;

//---------------dance-single - ----------------
#NOTEDATA:;
#CHARTNAME:;
#STEPSTYPE:dance-single;
#DESCRIPTION:;
#CHARTSTYLE:;
#DIFFICULTY:Easy;
#METER:5;
#RADARVALUES:0.196890,0.298137,0.105281,0.133994,0.000000,144.000000,133.000000,11.000000,14.000000,0.000000,0.000000,0.000000,0.000000,0.000000,0.196890,0.298137,0.105281,0.133994,0.000000,144.000000,133.000000,11.000000,14.000000,0.000000,0.000000,0.000000,0.000000,0.000000;
#CREDIT:;
#NOTES:
0000
0000
0000
0000
,
0000
0000
0000
0000
,
0000
0000
0000
0000
,
0000
0000
0000
0000
,
2000
0000
0000
0000
,
3020
0000
0200
0330
,
0002
0000
0000
0000
,
0023
0000
0200
0330
,
1002
0000
0000
0000
,
0203
0000
0320
0000
,
2030
0000
0000
0000
,
3200
0000
0020
0330
,
0001
0001
1000
1000
,
0001
0001
1000
1000
,
0010
0010
0100
0100
,
0001
0001
0010
0010
,
1001
1000
0100
0010
,
1001
0001
0100
0010
,
1001
0100
0010
0100
,
1001
1001
0101
1001
,
0010
1000
0100
0010
,
0001
0010
0100
1000
,
0010
1000
0001
0100
,
0010
0100
0001
1000
,
0100
0010
0001
0010
,
0100
1000
0010
0100
,
0001
0100
1000
0100
,
0001
0100
1000
0100
,
1001
1000
0010
0100
,
0001
0010
0100
0010
,
0001
1000
0100
0010
,
0001
0100
0010
1000
,
0001
0001
0100
0010
,
0100
0001
1000
0100
,
0010
0010
0100
1000
,
0001
0010
0100
1000
,
0001
0100
0000
0010
,
1000
0100
0000
0010
,
0001
1000
0000
0001
,
0100
0010
0000
1000
,
0100
0100
0000
0001
,
0100
0100
0000
1000
,
0010
0010
0000
0001
,
0010
0010
0000
1001
,
0220
0000
0330
0000
;

//---------------dance-single - ----------------
#NOTEDATA:;
#CHARTNAME:;
#STEPSTYPE:dance-single;
#DESCRIPTION:;
#CHARTSTYLE:;
#DIFFICULTY:Beginner;
#METER:2;
#RADARVALUES:0.087507,0.126338,0.047855,0.028713,0.000000,64.000000,59.000000,5.000000,3.000000,0.000000,0.000000,0.000000,0.000000,0.000000,0.087507,0.126338,0.047855,0.028713,0.000000,64.000000,59.000000,5.000000,3.000000,0.000000,0.000000,0.000000,0.000000,0.000000;
#CREDIT:;
#NOTES:
// measure 0
0000
0000
0000
0000
,  // measure 1
0000
0000
0000
0000
,  // measure 2
0000
0000
0000
0000
,  // measure 3
0000
0000
0000
0000
,  // measure 4
0020
0000
0000
0000
,  // measure 5
0000
0000
0030
0000
,  // measure 6
0200
0000
0000
0000
,  // measure 7
0000
0000
0300
0000
,  // measure 8
1001
0000
0000
0000
,  // measure 9
0000
0000
0000
0000
,  // measure 10
0200
0000
0000
0000
,  // measure 11
0000
0000
0300
0000
,  // measure 12
1001
0000
0000
0000
,  // measure 13
1000
0000
0000
0000
,  // measure 14
0001
0000
0000
0000
,  // measure 15
0010
0000
0000
0000
,  // measure 16
0100
0000
0000
0000
,  // measure 17
0010
0000
0000
0000
,  // measure 18
0100
0000
0010
0000
,  // measure 19
0110
0000
0000
0000
,  // measure 20
1000
0000
1000
0000
,  // measure 21
1000
0000
1000
0000
,  // measure 22
0010
0000
0100
0000
,  // measure 23
0001
0000
1000
0000
,  // measure 24
0001
0000
0001
0000
,  // measure 25
0001
0000
0001
0000
,  // measure 26
0010
0000
0100
0000
,  // measure 27
1000
0000
0010
0000
,  // measure 28
0100
0000
0100
0000
,  // measure 29
0100
0000
0100
0000
,  // measure 30
0001
0000
1000
0000
,  // measure 31
0010
0000
0100
0000
,  // measure 32
0010
0000
0010
0000
,  // measure 33
0010
0000
0010
0000
,  // measure 34
0001
0000
0010
0000
,  // measure 35
0100
0000
1000
0000
,  // measure 36
1001
0000
0001
0000
,  // measure 37
0100
0000
0100
0000
,  // measure 38
1000
0000
1000
0000
,  // measure 39
0010
0000
0010
0000
,  // measure 40
0001
0000
0000
0000
,  // measure 41
1000
0000
0000
0000
,  // measure 42
0010
0000
0000
0000
,  // measure 43
0100
0000
0100
0000
,  // measure 44
1001
0000
0000
0000
;
