#VERSION:0.83;
#TITLE:NAILS!;
#SUBTITLE:;
#ARTIST:Vari;
#TITLETRANSLIT:;
#SUBTITLETRANSLIT:;
#ARTISTTRANSLIT:;
#GENRE:;
#ORIGIN:;
#CREDIT:;
#BANNER:;
#BACKGROUND:;
#PREVIEWVID:;
#JACKET:;
#CDIMAGE:;
#DISCIMAGE:;
#LYRICSPATH:;
#CDTITLE:;
#MUSIC:NAILS! (Vari).ogg;
#OFFSET:0.016000;
#SAMPLESTART:7.100001;
#SAMPLELENGTH:12.000000;
#SELECTABLE:YES;
#BPMS:0.000=134.986;
#STOPS:;
#DELAYS:;
#WARPS:;
#TIMESIGNATURES:0.000=4=4;
#TICKCOUNTS:0.000=4;
#COMBOS:0.000=1;
#SPEEDS:0.000=1.000=0.000=0;
#SCROLLS:0.000=1.000;
#FAKES:;
#LABELS:0.000=Song Start;
#BGCHANGES:;
#KEYSOUNDS:;
#ATTACKS:
;

//---------------dance-single - ----------------
#NOTEDATA:;
#CHARTNAME:;
#STEPSTYPE:dance-single;
#DESCRIPTION:;
#CHARTSTYLE:;
#DIFFICULTY:Hard;
#METER:12;
#RADARVALUES:0.524754,0.761865,0.345351,0.020930,0.177908,351.000000,318.000000,33.000000,2.000000,0.000000,0.000000,0.000000,0.000000,0.000000,0.524754,0.761865,0.345351,0.020930,0.177908,351.000000,318.000000,33.000000,2.000000,0.000000,0.000000,0.000000,0.000000,0.000000;
#CREDIT:;
#NOTES:
// measure 0
0000
0000
0000
0000
,  // measure 1
1001
0000
0000
0000
0001
0000
0000
0000
1000
0001
0000
1000
0001
0000
0001
0100
,  // measure 2
0010
0100
0000
0010
0000
0100
0000
0010
,  // measure 3
0100
0000
0001
0000
0100
0000
0010
0000
1000
0000
0100
0000
0010
0000
0010
0100
,  // measure 4
0010
0010
0100
0100
0001
1000
1000
1000
,  // measure 5
0110
1000
0001
1000
0010
0100
0010
1000
,  // measure 6
1001
0100
1000
0010
1000
1000
0001
0010
,  // measure 7
0110
0100
0010
0100
0001
0100
0010
0100
,  // measure 8
1000
0001
0010
0010
,  // measure 9
1000
0010
0010
0001
,  // measure 10
0010
0010
1000
0010
,  // measure 11
0010
0000
0001
0000
0010
0000
0010
0100
,  // measure 12
0100
0000
0000
0100
0000
0000
0100
0000
0000
0000
1000
0000
0000
0000
0100
0000
,  // measure 13
0010
0100
1000
0001
,  // measure 14
0100
0000
0000
0010
0000
0000
0200
0000
0000
0000
0000
0000
0010
0000
0000
0000
,  // measure 15
0010
0010
0010
0310
,  // measure 16
0100
0000
0000
0001
0000
0000
2000
0000
0001
0000
0000
0000
0010
0000
0000
0000
,  // measure 17
0001
0010
0100
0001
,  // measure 18
0100
0010
0001
0001
,  // measure 19
0001
0010
0001
0100
,  // measure 20
3001
0000
0100
0010
1010
0000
0010
1000
,  // measure 21
1001
0000
0100
0010
0011
0000
0100
0010
,  // measure 22
0110
0000
0100
1000
1010
0000
0100
0010
,  // measure 23
1100
0000
1000
0010
1010
0000
1000
0001
,  // measure 24
0011
0000
0001
1000
1001
0000
0100
0001
,  // measure 25
0011
0000
0010
0001
0011
0000
0001
1000
,  // measure 26
1001
1001
1001
1001
0001
1000
1001
1001
,  // measure 27
1001
1001
1000
0001
1001
1001
1001
0000
,  // measure 28
1000
0000
0000
0100
0010
0000
0010
0000
0001
1000
0000
0000
1000
0000
0000
0000
,  // measure 29
0010
0000
0000
0100
0000
0000
0001
0000
1000
0001
0000
0000
0001
0000
0000
0000
,  // measure 30
1000
0000
0000
0010
0100
0000
0100
0000
0010
1000
0000
0000
0100
0000
0000
0000
,  // measure 31
1000
0000
0000
0001
0000
0000
0100
0000
0010
0000
1000
0000
0100
0000
0000
0000
,  // measure 32
0010
0000
0000
0001
1000
0000
1000
0000
0100
0010
0000
0000
0100
0000
1000
0000
,  // measure 33
0001
0000
0000
0100
0000
0000
0010
0000
1000
0000
0001
0000
0010
0000
0001
0000
,  // measure 34
1000
0000
0000
1000
0001
0000
0001
0000
0001
0010
0000
0000
0100
0000
1000
0000
,  // measure 35
0100
0000
0000
1000
0000
0000
0001
0000
0100
0000
0010
0000
1000
0000
0001
0000
,  // measure 36
1000
0010
1000
0000
1000
0001
1000
0000
,  // measure 37
0001
0010
0001
0010
1000
0000
0000
0000
,  // measure 38
0001
0010
0001
0000
1000
0100
1000
0000
,  // measure 39
0100
1000
0100
0001
0100
0000
1000
0000
,  // measure 40
0010
0100
0010
0000
0100
0010
0100
0000
,  // measure 41
0010
1000
0010
0001
0010
0000
0000
0000
,  // measure 42
1000
0100
0010
0000
0100
0010
0001
0000
,  // measure 43
0001
1000
0001
0100
0001
0000
0000
0000
,  // measure 44
1001
0000
0000
0000
0001
0000
0000
0001
0000
0000
0100
0000
0010
0000
0100
0000
,  // measure 45
0110
0000
0000
0000
1000
0000
0000
0001
0000
0000
1000
0000
0100
0000
1000
0000
,  // measure 46
1100
0000
0000
0000
0100
0000
0000
0010
0000
0000
0001
0000
1000
0000
0010
0000
,  // measure 47
0110
0000
0000
0000
0100
0000
0000
0010
0000
0000
0010
0000
0100
0000
0001
0000
,  // measure 48
1001
0000
0000
0000
1000
0000
0000
0001
0000
0000
0010
0000
0001
0000
0100
0000
,  // measure 49
0110
0000
0000
0000
0001
0000
0000
1000
0000
0000
0010
0000
1000
0000
0100
0000
,  // measure 50
1100
1000
0100
0010
0001
1000
0100
0010
,  // measure 51
0001
1000
0100
0010
0001
1000
0100
0010
0001
1000
0100
0010
0001
1000
0100
0010
,  // measure 52
0001
0000
0000
0000
;

//---------------dance-single - ----------------
#NOTEDATA:;
#CHARTNAME:;
#STEPSTYPE:dance-single;
#DESCRIPTION:;
#CHARTSTYLE:;
#DIFFICULTY:Medium;
#METER:10;
#RADARVALUES:0.415617,0.489770,0.188373,0.020930,0.041861,278.000000,260.000000,18.000000,2.000000,0.000000,0.000000,0.000000,0.000000,0.000000,0.415617,0.489770,0.188373,0.020930,0.041861,278.000000,260.000000,18.000000,2.000000,0.000000,0.000000,0.000000,0.000000,0.000000;
#CREDIT:;
#NOTES:
// measure 0
0000
0000
0000
0000
,  // measure 1
0000
0000
0000
0000
,  // measure 2
1000
1000
1000
0001
,  // measure 3
1000
1000
1000
0001
,  // measure 4
1000
0010
0100
0100
0010
0000
1000
0000
,  // measure 5
0010
1000
0001
1000
0010
0000
0010
0000
,  // measure 6
1000
0100
1000
0010
1000
0000
0001
0000
,  // measure 7
0010
0001
0010
0100
1000
0000
0010
0000
,  // measure 8
0001
0001
0010
0010
,  // measure 9
1000
0010
0010
0001
,  // measure 10
0010
0010
1000
0010
,  // measure 11
0010
0000
0001
0000
0010
0000
0010
0100
,  // measure 12
0100
0000
0000
0100
0000
0000
0100
0000
0000
0000
1000
0000
0000
0000
0100
0000
,  // measure 13
0010
0100
1000
0001
,  // measure 14
0100
0000
0000
0010
0000
0000
0200
0000
0000
0000
0000
0000
0010
0000
0000
0000
,  // measure 15
0010
0010
0010
0310
,  // measure 16
0010
2000
0001
0010
,  // measure 17
0001
0010
0100
0001
,  // measure 18
0100
0010
0001
0001
,  // measure 19
0001
0010
0001
0100
,  // measure 20
3001
0100
1010
0010
,  // measure 21
1001
0100
0011
0100
,  // measure 22
0110
0100
1010
0100
,  // measure 23
1010
1000
1010
1000
,  // measure 24
0011
0001
1001
0100
,  // measure 25
0011
0010
0011
0001
,  // measure 26
1000
0001
1000
0001
1000
0001
1000
0001
,  // measure 27
1000
0001
1000
0001
1000
0001
1000
0001
,  // measure 28
1000
0000
0010
0010
0100
0000
0001
0000
,  // measure 29
0010
0000
0001
0001
1000
0000
0001
0000
,  // measure 30
1000
0000
0100
0100
0010
0000
0100
0000
,  // measure 31
1000
0000
0001
0100
0010
0000
0100
0000
,  // measure 32
0010
0000
1000
1000
0100
0000
0100
1000
,  // measure 33
0001
0000
0100
0010
1000
0001
0010
0000
,  // measure 34
0001
0000
0001
0001
0001
0000
1000
1000
,  // measure 35
1000
0000
0001
0001
0100
0010
1000
0001
,  // measure 36
1000
0000
1000
0000
1000
0001
1000
0000
,  // measure 37
0001
0010
0001
0000
0100
0001
0100
0000
,  // measure 38
0001
0010
0001
0000
1000
0100
1000
0000
,  // measure 39
0100
1000
0100
0000
0010
0100
0010
0000
,  // measure 40
1000
0100
1000
0000
0100
0010
0100
0000
,  // measure 41
0010
0001
0010
0000
0001
1000
0001
0000
,  // measure 42
1000
0100
0010
0000
0100
0010
0001
0000
,  // measure 43
0001
1000
0001
0100
0001
0000
0000
0000
,  // measure 44
1001
0000
0000
0000
0001
0000
0000
0001
0000
0000
0001
0000
0010
0000
0000
0000
,  // measure 45
0110
0000
0000
0000
1000
0000
0000
0001
0000
0000
1000
0000
0100
0000
0000
0000
,  // measure 46
1100
0000
0000
0000
0100
0000
0000
0010
0000
0000
0001
0000
1000
0000
0000
0000
,  // measure 47
0110
0000
0000
0000
0100
0000
0000
0010
0000
0000
0010
0000
0100
0000
0000
0000
,  // measure 48
1001
0000
0000
0000
1000
0000
0000
0001
0000
0000
0010
0000
0001
0000
0000
0000
,  // measure 49
0110
0000
0000
0000
0001
0000
0000
1000
0000
0000
0010
0000
1000
0000
0000
0000
,  // measure 50
1000
0100
0010
0001
1000
0100
0010
0001
,  // measure 51
1000
0100
0010
0001
1000
0100
0010
0001
,  // measure 52
1001
0000
0000
0000
;

//---------------dance-single - ----------------
#NOTEDATA:;
#CHARTNAME:;
#STEPSTYPE:dance-single;
#DESCRIPTION:;
#CHARTSTYLE:;
#DIFFICULTY:Easy;
#METER:7;
#RADARVALUES:0.313955,0.353723,0.083721,0.010465,0.041861,210.000000,202.000000,8.000000,1.000000,0.000000,0.000000,0.000000,0.000000,0.000000,0.313955,0.353723,0.083721,0.010465,0.041861,210.000000,202.000000,8.000000,1.000000,0.000000,0.000000,0.000000,0.000000,0.000000;
#CREDIT:;
#NOTES:
// measure 0
0000
0000
0000
0000
,  // measure 1
0000
0000
0000
0000
,  // measure 2
1000
1000
1000
0001
,  // measure 3
1000
1000
1000
0001
,  // measure 4
1000
0100
0010
1000
,  // measure 5
0010
0001
0010
0010
,  // measure 6
1000
1000
1000
0001
,  // measure 7
0010
0010
1000
0010
,  // measure 8
0001
0001
0010
0010
,  // measure 9
1000
0010
0010
0001
,  // measure 10
0010
0010
1000
0010
,  // measure 11
0010
0001
0010
0010
,  // measure 12
0100
0000
0000
0100
0000
0000
0100
0000
0000
0000
0000
0000
0000
0000
0000
0000
,  // measure 13
0010
0100
1000
0001
,  // measure 14
0100
0000
0000
0010
0000
0000
0200
0000
0000
0000
0000
0000
0010
0000
0000
0000
,  // measure 15
0010
0010
0010
0310
,  // measure 16
0010
1000
0001
0010
,  // measure 17
0001
1000
0100
0001
,  // measure 18
0100
1000
0001
0100
,  // measure 19
0001
0010
0001
1000
,  // measure 20
0001
0100
0010
0010
,  // measure 21
1000
0100
0010
0100
,  // measure 22
1000
0100
1000
0100
,  // measure 23
1000
0010
0100
0001
,  // measure 24
0010
0001
1000
0100
,  // measure 25
0010
0100
1000
0001
,  // measure 26
1000
0001
1000
0001
,  // measure 27
1000
0001
1000
0001
1000
0001
1000
0000
,  // measure 28
1001
0001
0100
0001
,  // measure 29
0010
0001
1000
0001
,  // measure 30
1000
0100
0010
0100
,  // measure 31
1000
0001
0010
0100
,  // measure 32
0010
0001
0100
0100
,  // measure 33
0001
0100
0010
1000
,  // measure 34
0001
0001
0001
1000
,  // measure 35
1000
0001
0100
0010
,  // measure 36
1000
1000
1000
1000
,  // measure 37
0001
0001
0100
0100
,  // measure 38
0001
0001
1000
1000
,  // measure 39
0100
0100
0010
0100
,  // measure 40
1000
1000
0100
0100
,  // measure 41
0010
0010
0001
0001
,  // measure 42
1000
0010
0100
0001
,  // measure 43
0001
0001
0001
0000
,  // measure 44
1001
0000
0000
0000
0001
0000
0000
0001
0000
0000
0001
0000
0000
0000
0000
0000
,  // measure 45
0110
0000
0000
0000
1000
0000
0000
1000
0000
0000
1000
0000
0000
0000
0000
0000
,  // measure 46
1100
0000
0000
0000
0100
0000
0000
0100
0000
0000
0100
0000
0000
0000
0000
0000
,  // measure 47
0110
0000
0000
0000
0010
0000
0000
0010
0000
0000
0010
0000
0000
0000
0000
0000
,  // measure 48
1001
0000
0000
0000
0001
0000
0000
0001
0000
0000
0001
0000
0000
0000
0000
0000
,  // measure 49
0110
0000
0000
0000
0010
0000
0000
0010
0000
0000
0010
0000
0000
0000
0000
0000
,  // measure 50
1000
0100
0010
0001
,  // measure 51
1000
0100
0010
0001
,  // measure 52
1001
0000
0000
0000
;

//---------------dance-single - ----------------
#NOTEDATA:;
#CHARTNAME:;
#STEPSTYPE:dance-single;
#DESCRIPTION:;
#CHARTSTYLE:;
#DIFFICULTY:Beginner;
#METER:3;
#RADARVALUES:0.143522,0.190466,0.010465,0.104652,0.000000,96.000000,95.000000,1.000000,10.000000,0.000000,0.000000,0.000000,0.000000,0.000000,0.143522,0.190466,0.010465,0.104652,0.000000,96.000000,95.000000,1.000000,10.000000,0.000000,0.000000,0.000000,0.000000,0.000000;
#CREDIT:;
#NOTES:
// measure 0
0000
0000
0000
0000
,  // measure 1
0000
0000
0000
0000
,  // measure 2
1000
1000
1000
0000
,  // measure 3
0001
0001
0001
0000
,  // measure 4
1000
0000
0010
0000
,  // measure 5
0010
0000
0010
0000
,  // measure 6
1000
0000
1000
0000
,  // measure 7
0010
0000
1000
0000
,  // measure 8
0001
0000
0010
0000
,  // measure 9
1000
0000
0010
0000
,  // measure 10
0010
0000
1000
0000
,  // measure 11
0010
0000
0010
0000
,  // measure 12
0200
0000
0300
0000
,  // measure 13
0010
0000
1000
0000
,  // measure 14
0020
0000
0030
0000
,  // measure 15
0010
0000
0010
0000
,  // measure 16
2000
0000
3000
0000
,  // measure 17
0001
0000
0100
0000
,  // measure 18
0002
0000
0003
0000
,  // measure 19
0001
0000
0001
0000
,  // measure 20
0001
0000
0010
0000
,  // measure 21
1000
0000
0010
0000
,  // measure 22
1000
0000
1000
0000
,  // measure 23
1000
0000
0100
0000
,  // measure 24
0010
0000
1000
0000
,  // measure 25
0010
0000
1000
0000
,  // measure 26
1000
0000
1000
0000
,  // measure 27
0001
0001
0001
0001
,  // measure 28
0001
0000
0100
0000
,  // measure 29
0010
0000
1000
0000
,  // measure 30
1000
0000
0010
0000
,  // measure 31
1000
0000
0010
0000
,  // measure 32
0010
0000
0100
0000
,  // measure 33
0001
0000
0010
0000
,  // measure 34
0001
0000
0001
0000
,  // measure 35
1000
0000
0100
0000
,  // measure 36
1000
0000
1000
0000
,  // measure 37
0001
0000
0100
0000
,  // measure 38
0001
0000
1000
0000
,  // measure 39
0100
0000
0010
0000
,  // measure 40
1000
0000
0100
0000
,  // measure 41
0010
0000
0001
0000
,  // measure 42
1000
0000
0100
0000
,  // measure 43
0001
0000
0001
0000
,  // measure 44
0002
0000
0000
0003
,  // measure 45
2000
0000
0000
3000
,  // measure 46
0200
0000
0000
0300
,  // measure 47
0020
0000
0000
0030
,  // measure 48
0002
0000
0000
0003
,  // measure 49
2000
0000
0000
3000
,  // measure 50
1000
0000
0001
0000
,  // measure 51
0100
0000
0010
0000
,  // measure 52
1001
0000
0000
0000
;
