#VERSION:0.83;
#TITLE:My Happy Ending;
#SUBTITLE:(Eurotrance Mix);
#ARTIST:Katty B.;
#TITLETRANSLIT:;
#SUBTITLETRANSLIT:;
#ARTISTTRANSLIT:;
#GENRE:;
#ORIGIN:;
#CREDIT:;
#BANNER:;
#BACKGROUND:My Happy Ending (Eurotrance Mix)-bg.jpg;
#PREVIEWVID:;
#JACKET:My Happy Ending (Eurotrance Mix)-jacket.jpg;
#CDIMAGE:;
#DISCIMAGE:;
#LYRICSPATH:;
#CDTITLE:;
#MUSIC:My Happy Ending (Eurotrance Mix).ogg;
#OFFSET:-1.000000;
#SAMPLESTART:62.440102;
#SAMPLELENGTH:15.999994;
#SELECTABLE:YES;
#BPMS:0.000=158.000;
#STOPS:;
#DELAYS:;
#WARPS:;
#TIMESIGNATURES:0.000=4=4;
#TICKCOUNTS:0.000=4;
#COMBOS:0.000=1;
#SPEEDS:0.000=1.000=0.000=0;
#SCROLLS:0.000=1.000;
#FAKES:;
#LABELS:0.000=Song Start;
#BGCHANGES:;
#KEYSOUNDS:;
#ATTACKS:
;

//---------------dance-single - ----------------
#NOTEDATA:;
#CHARTNAME:;
#STEPSTYPE:dance-single;
#DESCRIPTION:;
#CHARTSTYLE:;
#DIFFICULTY:Hard;
#METER:11;
#RADARVALUES:0.514190,0.581799,0.351154,0.167596,0.000000,451.000000,407.000000,44.000000,21.000000,0.000000,0.000000,0.000000,0.000000,0.000000,0.514190,0.581799,0.351154,0.167596,0.000000,451.000000,407.000000,44.000000,21.000000,0.000000,0.000000,0.000000,0.000000,0.000000;
#CREDIT:;
#NOTES:
0000
0000
0000
0000
,
0000
0000
0000
0000
,
0000
0000
0000
0000
,
0000
0000
0000
0000
,
1000
0100
1000
0100
1000
0010
1000
0010
,
1000
0100
1000
0100
1000
0010
1000
0000
,
0001
0100
0001
0100
0001
0010
0001
0010
,
0001
0100
0001
0100
0001
0010
0001
0000
,
1001
0000
1000
0100
0000
0100
0010
0000
,
0010
0001
0000
0001
0100
0000
0010
0000
,
1000
0100
0010
0100
,
1000
0010
0100
0010
,
1000
0100
0010
0100
1000
0010
0100
0010
,
1000
0001
0010
0100
0010
0001
0100
0010
,
0100
0001
0010
0100
0010
0001
1000
0100
,
1000
0100
1000
0100
1000
0010
0100
0001
,
1002
0100
0100
0103
,
0110
1001
1000
0100
,
1000
0010
0100
0001
,
0100
0000
0010
0000
1000
0000
0100
0010
,
0001
0000
0100
0010
1000
0000
0100
0000
,
1000
0000
0010
0000
0100
0000
0001
0010
,
0001
0000
1000
0100
1000
0000
0010
0000
,
0100
0001
1000
0100
,
1001
0110
1001
0110
,
1001
0000
0100
0000
0001
0000
0100
0010
,
1000
0000
0100
0000
1000
0010
0100
0000
,
1001
0000
0001
0000
0100
0000
0010
0100
,
0001
0000
0010
0001
0100
0010
0100
0000
,
0001
1000
0100
1000
,
0010
0000
0100
0001
0100
0000
1001
0000
,
1000
0100
1000
0100
1000
0000
1001
0000
,
0101
0011
0101
2001
,
0100
0010
0100
0010
,
0001
0010
0100
0010
,
0100
0100
0010
0001
,
0001
0010
3100
1002
,
0100
0010
0100
1000
,
0100
0010
0100
1000
,
2000
0000
0000
3003
,
2000
0002
0000
0000
3000
0003
0000
0000
,
1000
0001
1000
0001
0100
0001
0100
0001
,
0100
0010
1000
0010
1000
0100
1000
0010
,
0100
0001
0100
0010
1000
0100
1000
0001
,
0100
0001
0100
0010
1000
0100
1000
0001
,
0001
0000
0001
0100
0000
0100
0010
0000
,
0010
1000
0000
1000
0100
0000
0100
1000
,
1000
0001
0100
0000
0001
0000
1000
0100
,
0010
0000
0100
0000
1000
0001
1000
0002
,
0010
0023
0100
0230
1000
2300
0100
3200
,
0010
0320
0001
0032
0000
0000
1003
0000
,
1001
0000
0001
1000
0000
1000
0010
0000
,
0010
0010
0100
0001
,
1000
0100
1001
1001
,
0100
0000
0010
1000
0100
1000
0000
0010
,
0100
0001
0100
0000
0110
0000
1001
0000
,
0010
0100
0010
0100
0010
0100
0010
0100
,
0001
1000
1001
1100
,
1000
0001
1001
0101
,
1000
0100
1000
0010
1000
0100
1000
0010
,
1000
0100
1000
0010
1000
0100
1000
0000
,
0001
0100
0101
0011
,
0001
0100
0011
0101
,
0001
0010
0100
0010
0001
0100
0010
0100
,
0001
1000
0100
1000
0010
1000
0100
1000
,
0010
0100
0101
1001
,
0001
1000
1100
1010
,
0100
0010
0100
0010
0100
0010
0100
0010
,
1000
0001
1000
0001
1000
0001
1000
0001
,
1000
0100
0011
0101
,
0001
0010
1100
1010
,
0010
0100
0101
1001
,
0100
1000
1001
0110
,
1002
1000
1000
1000
,
2003
0010
0010
0010
,
3020
0100
0100
0100
,
0230
0001
0001
0001
,
0302
1000
1000
1000
,
2003
0010
0010
0010
,
3020
0100
0100
0100
,
0230
0001
0001
0301
,
1001
0000
0000
0000
;

//---------------dance-single - ----------------
#NOTEDATA:;
#CHARTNAME:;
#STEPSTYPE:dance-single;
#DESCRIPTION:;
#CHARTSTYLE:;
#DIFFICULTY:Medium;
#METER:8;
#RADARVALUES:0.418421,0.452510,0.239423,0.167596,0.000000,367.000000,337.000000,30.000000,21.000000,0.000000,0.000000,0.000000,0.000000,0.000000,0.418421,0.452510,0.239423,0.167596,0.000000,367.000000,337.000000,30.000000,21.000000,0.000000,0.000000,0.000000,0.000000,0.000000;
#CREDIT:;
#NOTES:
0000
0000
0000
0000
,
0000
0000
0000
0000
,
0000
0000
0000
0000
,
0000
0000
0000
0000
,
1000
0001
0100
0001
,
1000
0010
0100
0010
,
1000
0100
0010
0001
,
1000
0010
0100
0010
,
1001
0000
1000
0100
0000
0100
0010
0000
,
0010
0001
0000
0001
0100
0000
0010
0000
,
1000
0100
0010
0100
,
1000
0010
0100
0010
,
1000
0100
0010
0100
1000
0000
0100
0000
,
1000
0001
0010
0100
0010
0000
0100
0000
,
1000
0001
0010
0100
0010
0000
0001
0000
,
1000
0100
1000
0100
1000
0000
0100
0000
,
1002
0100
0100
0103
,
0110
1000
1000
0100
,
1000
0010
0100
0001
,
0100
0010
1000
0100
,
0001
0100
1000
0100
,
1000
0000
0010
0000
0100
0000
0001
0010
,
0001
0000
1000
0100
1000
0000
0010
0000
,
0100
0001
1000
0100
,
1001
0100
0100
1001
,
0100
0001
1000
0100
,
1000
0100
1000
0100
,
1001
0000
0001
0000
0100
0000
0010
0100
,
0001
0010
0100
0100
,
1000
0010
0100
0010
,
1000
0000
0100
1000
0100
0000
1001
0000
,
0001
0000
0100
0001
0100
0000
0001
0000
,
0010
0100
1000
2001
,
0100
0010
0100
0010
,
0001
0010
0100
0010
,
0100
0100
0010
0001
,
0001
0010
3100
1002
,
0100
0010
0100
1000
,
0100
0010
0100
1000
,
2000
0000
0000
3003
,
2000
0002
0000
0000
3000
0003
0000
0000
,
1000
0001
0000
0001
0100
0000
0100
0010
,
0000
0010
1000
0000
1000
0000
0100
0000
,
0010
0001
0010
0001
,
1000
0000
0010
0000
0100
0001
0000
0100
,
0001
0000
0001
0100
0000
0100
0010
0000
,
0010
1000
0000
1000
0100
0000
0100
1000
,
0000
1000
0100
0000
0010
0000
0100
0000
,
1000
0000
0001
0000
0100
0000
0001
0002
,
0000
0023
0000
0230
0000
2300
0000
3200
,
0000
0320
0000
0032
0000
0000
1003
0000
,
1001
0000
0001
1000
0000
1000
0010
0000
,
0010
0010
0100
0001
,
1000
0100
1001
1001
,
0100
0000
0010
1000
0000
0001
0000
0010
,
0100
0100
0110
1001
,
1000
0010
0000
0100
0000
0001
0010
0000
,
1000
1000
1000
1100
,
1000
0001
0001
0101
,
1000
1000
1000
1000
,
1000
0100
1000
0100
1000
0100
1000
0000
,
0001
0100
0001
0011
,
0001
0100
0001
0101
,
0001
0001
0001
0001
,
0001
0100
0001
0100
0001
0100
0001
0000
,
0010
0100
0100
1001
,
0001
1000
1000
1010
,
0100
0100
0100
0100
,
0100
0001
0100
0001
0100
0001
0100
0000
,
1000
0100
0011
0101
,
0001
0010
1100
1010
,
0010
0100
0101
1001
,
0100
1000
1001
0110
,
1002
1000
1000
1000
,
2003
0010
0010
0010
,
3020
0100
0100
0100
,
0230
0001
0001
0001
,
0302
1000
1000
1000
,
2003
0010
0010
0010
,
3020
0100
0100
0100
,
0230
0001
0001
0301
,
1001
0000
0000
0000
;

//---------------dance-single - ----------------
#NOTEDATA:;
#CHARTNAME:;
#STEPSTYPE:dance-single;
#DESCRIPTION:;
#CHARTSTYLE:;
#DIFFICULTY:Easy;
#METER:6;
#RADARVALUES:0.344314,0.387866,0.127693,0.127693,0.000000,302.000000,286.000000,16.000000,16.000000,0.000000,0.000000,0.000000,0.000000,0.000000,0.344314,0.387866,0.127693,0.127693,0.000000,302.000000,286.000000,16.000000,16.000000,0.000000,0.000000,0.000000,0.000000,0.000000;
#CREDIT:;
#NOTES:
0000
0000
0000
0000
,
0000
0000
0000
0000
,
0000
0000
0000
0000
,
0000
0000
0000
0000
,
1000
0001
0100
0001
,
1000
0010
0100
0010
,
1000
0100
0010
0001
,
1000
0010
0100
0010
,
1001
0100
0100
0010
,
0010
0010
0100
0010
,
1000
0100
0010
0100
,
1000
0010
0100
0010
,
1000
0010
1000
0100
,
1000
0010
0010
0001
,
1000
0010
1000
0001
,
1000
1000
1000
0100
,
1002
0100
0100
0103
,
0110
1000
1000
0100
,
1000
0010
0100
0001
,
0100
0010
1000
0100
,
0001
0100
1000
0100
,
1000
0010
0100
0001
,
0001
1000
1000
0010
,
0100
0001
1000
0100
,
1001
0100
0100
0100
,
1001
0100
0001
0100
,
1000
0100
1000
0100
,
1001
0001
0100
0010
,
0001
0010
0100
0100
,
0001
1000
0100
1000
,
0010
0100
0100
1001
,
1000
1000
1000
1001
,
0001
0001
0001
2001
,
0000
3020
0000
2030
,
0000
3200
0000
0320
,
0000
0032
0000
0203
,
0000
0310
0100
0002
,
0000
0023
0000
0032
,
0000
2003
0000
3200
,
2000
0000
0000
0300
,
0002
0000
0000
0000
3000
0003
0000
0000
,
1001
0001
0100
0001
,
1000
0100
1000
0100
,
0010
0001
0010
0001
,
1000
0010
0100
0001
,
0001
0001
0100
0010
,
0010
1000
0100
0100
,
1000
0100
0010
0100
,
1000
0000
0001
0000
0100
0000
0000
1002
,
0000
1000
0000
1000
0000
1000
0000
1000
,
0000
1000
0000
1003
0000
0000
1000
0000
,
1001
0000
0000
0110
0000
0000
1001
0000
,
0010
0010
0100
0001
,
1000
0100
0001
0010
,
1000
0100
0001
0010
,
1000
0100
0001
0010
,
1000
1000
1000
1000
,
1001
1000
1000
0100
,
1000
0001
0001
0100
,
0001
1000
1000
1000
,
1000
0100
1000
0100
,
1000
0010
0100
0010
,
1000
0100
1000
0001
,
0100
0001
0001
0001
,
0001
1000
0001
1000
,
0010
0100
0010
1000
,
0001
1000
1000
0010
,
0100
0100
0100
0100
,
0001
0001
0001
0001
,
1000
0100
0010
0100
,
1000
0010
0100
0010
,
1000
0100
0010
0001
,
0100
0001
0010
0001
,
0001
0001
0001
0001
,
0001
0001
0001
0000
,
1000
1000
1000
1000
,
1000
1000
1000
0000
,
0010
0010
0010
0010
,
0010
0010
0010
0000
,
0100
0100
0100
0100
,
0100
0100
0100
0000
,
1001
0000
0000
0000
;

//---------------dance-single - ----------------
#NOTEDATA:;
#CHARTNAME:;
#STEPSTYPE:dance-single;
#DESCRIPTION:;
#CHARTSTYLE:;
#DIFFICULTY:Beginner;
#METER:3;
#RADARVALUES:0.192679,0.224859,0.023942,0.015962,0.000000,169.000000,166.000000,3.000000,2.000000,0.000000,0.000000,0.000000,0.000000,0.000000,0.192679,0.224859,0.023942,0.015962,0.000000,169.000000,166.000000,3.000000,2.000000,0.000000,0.000000,0.000000,0.000000,0.000000;
#CREDIT:;
#NOTES:
// measure 0
0000
0000
0000
0000
,  // measure 1
0000
0000
0000
0000
,  // measure 2
0000
0000
0000
0000
,  // measure 3
0000
0000
0000
0000
,  // measure 4
1000
0000
0100
0000
,  // measure 5
1000
0000
0100
0000
,  // measure 6
1000
0000
0010
0000
,  // measure 7
1000
0000
0100
0000
,  // measure 8
1001
0000
0100
0000
,  // measure 9
0010
0000
0100
0000
,  // measure 10
1000
0000
0010
0000
,  // measure 11
1000
0000
0100
0000
,  // measure 12
1000
0000
1000
0000
,  // measure 13
1000
0000
0010
0000
,  // measure 14
1000
0000
1000
0000
,  // measure 15
1000
0000
1000
0000
,  // measure 16
0002
0000
0000
0003
,  // measure 17
0001
0000
1000
0000
,  // measure 18
1000
0000
0100
0000
,  // measure 19
0100
0000
1000
0000
,  // measure 20
0001
0000
1000
0000
,  // measure 21
1000
0000
0100
0000
,  // measure 22
0001
0000
1000
0000
,  // measure 23
0100
0000
1000
0000
,  // measure 24
1000
0000
0100
0000
,  // measure 25
1001
0000
0001
0000
,  // measure 26
1000
0000
1000
0000
,  // measure 27
0001
0000
0100
0000
,  // measure 28
0001
0000
0100
0000
,  // measure 29
0001
0000
0100
0000
,  // measure 30
0010
0000
0100
0000
,  // measure 31
1000
1000
1000
0000
,  // measure 32
0001
0001
0001
0001
,  // measure 33
0000
0010
0000
1000
,  // measure 34
0000
0100
0000
0010
,  // measure 35
0000
0001
0000
0100
,  // measure 36
0000
0010
0010
0010
,  // measure 37
0000
1000
0000
0001
,  // measure 38
0000
1000
0000
0100
,  // measure 39
0200
0000
0000
0000
,  // measure 40
0000
0000
0300
0000
,  // measure 41
1001
0000
0100
0000
,  // measure 42
1000
0000
1000
0000
,  // measure 43
0010
0000
0010
0000
,  // measure 44
1000
0000
0100
0000
,  // measure 45
0001
0000
0100
0000
,  // measure 46
0010
0000
0100
0000
,  // measure 47
1000
0000
0010
0000
,  // measure 48
1000
0000
0100
0000
,  // measure 49
0001
0001
0001
0000
,  // measure 50
0001
0001
0001
0000
,  // measure 51
0001
0000
0001
0000
,  // measure 52
0001
0000
0100
0000
,  // measure 53
1000
0000
0001
0000
,  // measure 54
1000
0000
0001
0000
,  // measure 55
1000
0000
0001
0000
,  // measure 56
1000
1000
1000
1000
,  // measure 57
1000
1000
0000
0000
,  // measure 58
0001
0001
0000
0000
,  // measure 59
0100
0100
0000
0000
,  // measure 60
0010
0010
0000
0000
,  // measure 61
1000
1000
0000
0000
,  // measure 62
1000
1000
0000
0000
,  // measure 63
0001
0001
0000
0000
,  // measure 64
0001
0001
0000
0000
,  // measure 65
0010
0010
0000
0000
,  // measure 66
0100
0100
0000
0000
,  // measure 67
0100
0100
0000
0000
,  // measure 68
0001
0001
0000
0000
,  // measure 69
1000
1000
0000
0000
,  // measure 70
0010
0010
0000
0000
,  // measure 71
1000
1000
0000
0000
,  // measure 72
0100
0100
0000
0000
,  // measure 73
0001
0001
0001
0000
,  // measure 74
0001
0001
0001
0000
,  // measure 75
1000
1000
1000
0000
,  // measure 76
1000
1000
1000
0000
,  // measure 77
0010
0010
0010
0000
,  // measure 78
0010
0010
0010
0000
,  // measure 79
0100
0100
0100
0000
,  // measure 80
0100
0100
0100
0000
;
