#TITLE:Music Is Moving;
#SUBTITLE:(Kumara Mix);
#ARTIST:Cortina;
#TITLETRANSLIT:;
#SUBTITLETRANSLIT:;
#ARTISTTRANSLIT:;
#GENRE:;
#CREDIT:;
#BANNER:;
#BACKGROUND:DDR CD-bg.JPG;
#LYRICSPATH:;
#CDTITLE:;
#MUSIC:10 Music Is Moving (Kumara Mix).ogg;
#OFFSET:-0.325000;
#SAMPLESTART:42.374233;
#SAMPLELENGTH:12.000000;
#SELECTABLE:YES;
#BPMS:0.000000=137.020004
;
#STOPS:
;
#BGCHANGES:;
#KEYSOUNDS:;
#ATTACKS:;

//---------------dance-single - ----------------
#NOTES:
     dance-single:
     :
     Hard:
     14:
     0.553874,0.811690,0.148115,0.113264,0.470482,445.000000,428.000000,17.000000,13.000000,0.000000,0.000000,0.553874,0.811690,0.148115,0.113264,0.470482,445.000000,428.000000,17.000000,13.000000,0.000000,0.000000:
0000
0000
0000
0000
,
0000
0000
0000
0000
,
0000
0000
0000
0000
,
0000
0000
0000
0000
,
0000
0000
0000
0000
,
0000
0000
0000
0000
,
0000
0000
0000
0000
,
0000
0000
0000
0000
,
1010
0000
0000
0000
,
0101
0000
0000
0000
,
1010
0000
0000
0000
,
0101
0000
1010
0000
,
0101
1010
0101
1010
,
0101
1010
0101
1010
,
0001
1000
0001
0010
0001
0010
0100
0010
0100
1000
0100
1000
,
0100
1000
0001
1000
0001
1000
0010
0100
0010
0100
0001
0100
0001
1000
0001
1000
,
0100
0010
0100
0010
0100
1000
0100
0010
,
0001
0010
0001
0000
0001
0000
1000
0000
0100
0000
0100
0000
0010
0000
0100
0000
,
1000
0001
0010
0100
1000
0010
1000
0001
,
0100
0001
0100
0000
0010
1000
0010
0000
0100
0001
0100
0000
1001
0000
0100
0000
,
1001
0100
0010
1000
0001
0100
0010
1000
,
0001
0010
0100
0000
1000
0000
1000
0000
0001
0000
0100
0000
0010
0000
1000
0000
,
0100
0010
0100
1000
0001
0100
0001
0100
,
0001
0010
0001
0000
1000
0100
1000
0000
0001
0010
0001
0000
1000
0100
1000
0000
,
0100
0000
1000
0100
0000
1000
0100
0010
0002
0000
0000
0000
1003
0000
0000
0000
,
0000
0000
0001
0010
0000
0010
0100
1000
0200
0000
0000
0000
0310
0000
0000
0000
,
0000
0000
1000
0010
0000
1000
0010
0100
0002
0000
0000
0000
1003
0000
0000
0000
,
0010
0100
0010
0100
0001
1000
0010
0100
,
0001
0000
1000
0010
0000
0010
0100
0001
0200
0000
0000
0000
0301
0000
0000
0000
,
0000
0000
0100
0010
0000
0010
1000
0100
0020
0000
0000
0000
0130
0000
0000
0000
,
0000
0000
0100
1000
0000
1000
0100
0010
0002
0000
0000
0000
1003
0000
0000
0000
,
1000
0000
0000
0001
0000
0000
1000
0000
0000
0000
0000
0000
0001
0000
0000
0010
0000
0000
0001
0000
0000
0000
0000
0000
1000
0000
0000
0000
0001
0000
0000
0000
1000
0000
0000
0000
0001
0000
0000
0000
0100
0000
0000
0000
0010
0000
0000
0000
,
0100
0000
0100
0000
0001
0000
0010
0000
0001
0000
0100
0000
0001
0000
0100
0001
,
0010
0100
1000
0000
0001
0000
0010
0000
0100
0000
0010
0000
0100
0000
1000
0100
,
1000
0010
0100
0000
0010
0000
0100
0000
0100
0000
0010
0000
0100
0000
0001
0000
,
0100
0010
0100
0000
0010
0100
0001
0000
1000
0001
0100
0000
1001
0000
0100
0000
,
1001
0000
0001
0000
0010
0000
0001
0000
0010
0000
0100
0000
1000
0000
0100
1000
,
0010
1000
0100
0000
1000
0000
0010
0000
1000
0000
0100
0000
1000
0000
0100
1000
,
0010
1000
0001
0000
0010
0000
0001
0000
0010
0000
0100
0000
1000
0000
0010
0000
,
1000
0010
1000
0000
0100
0001
0100
0000
0010
1000
0010
0000
0100
0001
0100
0000
,
0000
0000
0001
0100
0000
0100
0001
0100
0002
0000
0000
0000
0013
0000
0000
0000
,
0000
0000
0001
0010
0000
0010
0100
1000
0020
0000
0000
0000
0130
0000
0000
0000
,
0000
0000
1000
0100
0000
0100
0010
0001
0200
0000
0000
0000
0301
0000
0100
0000
,
0010
1000
0100
0010
0100
0010
0100
1000
,
0001
0000
1000
0001
0000
0001
1000
0001
2000
0000
0000
0000
3100
0000
0000
0000
,
0000
0000
1000
0010
0000
0010
1000
0010
2000
0000
0000
0000
3001
0000
0000
0000
,
0000
0000
0100
0010
0000
0010
0100
0010
0200
0000
0000
0000
0310
0000
0000
0000
,
0100
0000
0100
0100
,
0001
0010
0001
1000
0100
0010
0100
0010
,
0001
0010
0100
1000
0100
1000
0010
0100
,
0010
0100
0010
1000
0001
0010
0001
0100
,
0001
1000
0100
1000
0001
0010
0100
0010
,
0001
0100
0010
0100
0010
1000
0001
0100
,
0010
1000
0010
0100
0001
0010
0001
0010
,
0001
1000
0100
0010
0001
1000
0100
1000
,
0001
0000
0000
0010
0000
0000
0100
0000
0000
1000
0000
0000
0001
0000
1000
0000
0100
0000
0010
0000
0001
0000
0010
0000
,
0100
0000
0000
0000
0000
0000
0000
0000
0000
0000
0000
0000
0000
0000
0000
0001
,
0010
0001
0010
0000
0000
0000
0000
0000
0000
0000
0000
0000
0000
0000
0000
0010
,
0100
0010
0100
0000
0000
0000
0000
0000
0000
0000
0000
0000
0000
0000
0000
0100
,
1000
0100
1000
0000
0000
0000
0000
0000
0000
0000
0000
0000
0000
0000
0000
0000
,
0010
0001
0100
0001
,
1000
0100
1000
0100
,
1000
0010
0100
0001
0010
0001
0100
0001
0010
0100
1000
0001
,
0100
0001
0100
0010
1000
0001
0010
0001
0100
0001
0010
0100
0010
0001
1000
0100
,
0020
0030
0000
0000
;

//---------------dance-single - ----------------
#NOTES:
     dance-single:
     :
     Medium:
     9:
     0.347260,0.501847,0.557608,0.270091,0.017425,279.000000,215.000000,64.000000,31.000000,0.000000,0.000000,0.347260,0.501847,0.557608,0.270091,0.017425,279.000000,215.000000,64.000000,31.000000,0.000000,0.000000:
0000
0000
0000
0000
,
0000
0000
0000
0000
,
0000
0000
0000
0000
,
0000
0000
0000
0000
,
0000
0000
0000
0000
,
0000
0000
0000
0000
,
0000
0000
0000
0000
,
0000
0000
0000
0000
,
1001
0000
0000
0000
,
0110
0000
0000
0000
,
1001
0000
0000
0000
,
0110
0000
0000
0000
,
1000
0101
0001
1100
,
1000
0101
0001
1100
,
1000
0000
0001
0100
0000
0010
0100
0000
0010
1000
0000
0100
,
1000
0001
1000
0001
1000
0001
1000
0000
,
1001
0000
0100
0000
0001
0100
0001
0000
,
1001
0000
1000
0000
0100
1000
0100
0000
,
1001
0000
0001
0000
0100
0010
0100
0000
,
1001
0000
0010
0000
1000
0010
0100
0000
,
1001
0000
0001
0000
0100
0001
0010
0000
,
1001
0000
0010
0000
1000
0001
0100
0000
,
1001
0000
0100
0000
0001
1000
0010
0000
,
1001
0110
1001
0110
,
2001
3100
1002
0103
,
2001
3010
1002
0103
,
2001
3010
2100
3010
,
1002
0103
0012
0103
,
1000
0002
1003
0010
,
0200
0301
2000
3010
,
0010
0020
1030
1000
,
0002
0203
0320
2030
,
3100
0100
0100
0100
,
1001
0100
0100
0100
,
1001
0010
0010
0010
,
1001
0010
0010
0010
,
1001
0100
1001
0100
,
1001
0010
1001
0010
,
1001
0101
1001
1100
,
1001
0110
1001
0110
,
2001
0001
0001
3001
,
0210
0010
0010
0310
,
1002
1000
1000
1003
,
0120
0100
0100
0130
,
0001
1000
0100
1000
,
0010
0100
0001
0100
,
0010
1000
0100
0010
,
0001
1000
0001
0100
,
1001
1001
0100
0100
,
1001
1001
0010
0010
,
2001
0010
0001
3010
,
1002
0100
1000
0103
,
0110
0110
1000
1000
,
0110
0110
0001
0001
,
0210
1000
0010
1300
,
0120
0001
0100
0031
,
0220
0000
0000
0030
,
0002
0000
0000
0300
,
2000
0000
0000
0003
,
0020
0000
0000
3000
,
0100
0100
0100
0100
,
0230
0001
0001
0301
,
0002
1000
1000
1003
,
1001
0110
1001
0110
,
1001
0000
0000
0000
;

//---------------dance-single - ----------------
#NOTES:
     dance-single:
     :
     Easy:
     6:
     0.288761,0.362445,0.287517,0.252666,0.000000,232.000000,199.000000,33.000000,29.000000,0.000000,0.000000,0.288761,0.362445,0.287517,0.252666,0.000000,232.000000,199.000000,33.000000,29.000000,0.000000,0.000000:
0000
0000
0000
0000
,
0000
0000
0000
0000
,
0000
0000
0000
0000
,
0000
0000
0000
0000
,
0000
0000
0000
0000
,
0000
0000
0000
0000
,
0000
0000
0000
0000
,
0000
0000
0000
0000
,
1001
0000
0000
0000
,
1001
0000
0000
0000
,
1001
0000
0000
0000
,
1001
0000
0000
0000
,
1000
0101
0001
1100
,
1000
0101
0001
1100
,
1000
0001
1000
0001
,
0100
0000
0010
0000
1000
1000
1000
0000
,
1001
0100
0001
0001
,
1001
1000
0100
0100
,
1001
0001
0100
0100
,
1001
0010
1000
0100
,
1001
0001
0100
0010
,
1001
0010
1000
0100
,
1001
0100
0001
0010
,
1001
0100
0100
0100
,
2000
3100
0002
0103
,
2000
3010
0002
0103
,
2000
3010
2000
3010
,
0002
0103
0002
0103
,
2000
3001
2000
3010
,
0200
0301
2000
3010
,
0200
0310
2000
3001
,
2002
0000
0000
3003
,
1001
0100
0100
0100
,
1001
0100
0100
0100
,
1001
0010
0010
0010
,
1001
0010
0010
0010
,
1001
0100
0100
0100
,
1001
0010
0010
0010
,
1001
0100
0100
0100
,
1001
0010
1001
0100
,
2001
0001
0001
3001
,
0210
0010
0010
0310
,
1002
1000
1000
1003
,
0120
0100
0100
0130
,
0001
1000
0100
1000
,
0010
0100
0001
0100
,
0010
1000
0100
0010
,
0001
1000
0001
0100
,
1000
0100
0001
0010
,
1000
0100
0001
0010
,
1000
0100
0001
0010
,
1000
0100
0001
0010
,
1000
1000
1000
1000
,
0001
0001
0001
0001
,
2000
0010
0010
3010
,
0200
0001
0001
0301
,
0220
0000
0000
0030
,
0002
0000
0000
0300
,
2000
0000
0000
0003
,
0020
0000
0000
3000
,
0100
0100
0100
0100
,
0230
0001
0001
0301
,
0002
1000
1000
1003
,
1001
0100
0100
0100
,
1001
0000
0000
0000
;

//---------------dance-single - ----------------
#NOTES:
     dance-single:
     :
     Beginner:
     3:
     0.155583,0.223043,0.078414,0.043563,0.000000,125.000000,116.000000,9.000000,5.000000,0.000000,0.000000,0.155583,0.223043,0.078414,0.043563,0.000000,125.000000,116.000000,9.000000,5.000000,0.000000,0.000000:
0000
0000
0000
0000
,
0000
0000
0000
0000
,
0000
0000
0000
0000
,
0000
0000
0000
0000
,
0000
0000
0000
0000
,
0000
0000
0000
0000
,
0000
0000
0000
0000
,
0000
0000
0000
0000
,
1000
0000
0000
0000
,
0001
0000
0000
0000
,
1000
0000
0000
0000
,
0001
0000
0000
0000
,
1000
0000
0001
0000
,
1000
0000
0001
0000
,
1000
0000
1000
0000
,
0100
0000
0010
0000
,
1001
0000
0000
0000
,
1001
0000
0000
0000
,
1001
0000
0000
0000
,
1001
0000
0000
0000
,
1001
0000
0000
0000
,
1001
0000
0000
0000
,
1001
0000
0000
0000
,
1001
0000
0000
0000
,
1000
0000
0001
0000
,
1000
0000
0001
0000
,
1000
0000
0001
0000
,
1000
0000
0001
0000
,
0100
0000
0010
0000
,
0100
0000
0010
0000
,
0100
0000
0010
0000
,
0200
0000
0300
0000
,
0100
0100
0100
0000
,
0100
0100
0100
0000
,
0010
0010
0010
0000
,
0010
0010
0010
0000
,
0100
0100
0100
0000
,
0010
0010
0010
0000
,
0100
0100
0100
0000
,
0010
0010
0010
0000
,
0001
0001
0001
0000
,
0010
0010
0010
0000
,
1000
1000
1000
0000
,
0100
0100
0100
0000
,
0001
0000
0100
0000
,
0010
0000
0001
0000
,
0010
0000
0100
0000
,
0001
0000
0001
0000
,
1000
0000
0001
0000
,
1000
0000
0001
0000
,
1000
0000
0001
0000
,
1000
0000
0001
0000
,
1000
1000
1000
0000
,
0001
0001
0001
0000
,
0010
0010
0010
0000
,
0100
0100
0100
0000
,
2000
0000
3000
0000
,
0002
0000
0003
0000
,
2000
0000
3000
0000
,
0002
0000
0003
0000
,
0100
0100
0100
0000
,
0001
0001
0001
0000
,
1000
1000
1000
0000
,
0010
0010
0010
0000
,
1001
0000
0000
0000
;
