#TITLE:Megamix;
#SUBTITLE:;
#ARTIST:Uncle Al;
#TITLETRANSLIT:;
#SUBTITLETRANSLIT:;
#ARTISTTRANSLIT:;
#GENRE:;
#CREDIT:;
#BANNER:;
#BACKGROUND:;
#LYRICSPATH:;
#CDTITLE:;
#MUSIC:21 UNCLE AL - MEGAMIX.ogg;
#OFFSET:-0.668000;
#SAMPLESTART:44.029442;
#SAMPLELENGTH:12.000000;
#SELECTABLE:YES;
#BPMS:0.000000=154.873001
;
#STOPS:
;
#BGCHANGES:;
#KEYSOUNDS:;
#ATTACKS:;

//---------------dance-single - Nifara----------------
#NOTES:
     dance-single:
     Nifara:
     Hard:
     15:
     0.735181,0.883424,0.348899,0.163547,0.632380,472.000000,440.000000,32.000000,15.000000,0.000000,0.000000,0.735181,0.883424,0.348899,0.163547,0.632380,472.000000,440.000000,32.000000,15.000000,0.000000,0.000000:
0000
0000
0000
0000
,
0000
0000
0000
0000
,
0000
0000
0000
0000
,
0000
0000
0000
0000
,
2000
0000
0000
3002
0003
0002
0000
0003
,
2000
0000
0000
3002
0000
0000
0000
0000
,
2003
0000
0000
3002
0003
0002
0003
0000
,
2000
0000
0000
3002
0000
0000
0003
0000
,
2002
0000
0003
0000
0100
0000
0020
0000
3030
0000
2020
0000
0000
0000
0000
3000
,
1030
0001
1000
0001
1000
0001
1000
0000
0000
0000
0000
0000
0000
0000
0000
0000
,
0010
0001
0010
0001
0010
0001
0010
0000
0000
0000
1001
0000
0000
0000
0000
0000
,
1000
0100
0010
0001
1000
0100
0010
0001
,
1000
0010
1000
0010
0100
0010
0100
0010
0100
0001
0100
0001
0010
0000
0000
0000
,
0001
0010
0001
0010
0001
1000
0001
1000
0010
0100
0010
0100
0001
0000
0000
0000
,
1000
0010
1000
0010
0100
0010
0100
0010
0100
0001
0100
0001
1000
0000
0000
0000
,
0010
1000
0010
1000
0001
0100
0001
0100
0010
0100
0010
0100
0001
0000
0000
0000
,
1000
0010
1000
0001
0100
0010
1000
0010
0100
0010
1000
0010
0100
0000
0000
0000
,
0010
0100
0010
0100
0010
0100
0010
0100
0010
0100
0010
0100
0010
0000
0000
0000
,
1000
0010
1000
0010
1000
0010
1000
0010
1000
0010
1000
0010
1000
0000
0000
0000
,
1000
0001
1000
0001
1000
0001
1000
0001
1000
0000
0001
0000
1000
0000
0001
0000
,
1001
0000
0000
0100
0010
0100
0001
0100
,
0000
0110
0000
1001
0100
0100
1001
0000
,
0101
0000
0000
1000
0100
0010
0100
1000
,
0000
0001
0100
0010
0100
0001
0100
0010
,
0100
0000
0000
0010
0100
1000
0100
0001
,
0000
1000
0001
0100
0001
0100
1001
0000
,
1001
0000
0000
0100
1000
0100
0010
0100
,
0000
1000
0010
0100
0010
1000
0001
1000
,
1000
0010
1000
0010
0100
0010
0100
0010
0100
0001
0100
0001
0010
0000
0000
0000
,
0001
0010
0001
0010
0001
1000
0001
1000
0010
0100
0010
0100
0001
0000
0000
0000
,
1000
0010
1000
0010
0100
0010
0100
0010
0100
0001
0100
0001
1000
0000
0000
0000
,
0010
1000
0010
1000
0001
0100
0001
0100
0010
0100
0010
0100
0001
0000
0000
0000
,
1000
0010
1000
0001
0100
0010
1000
0010
0100
0010
1000
0010
0100
0000
0000
0000
,
0010
0100
0010
0100
0010
0100
0010
0100
0010
0100
0010
0100
0010
0000
0000
0000
,
1000
0010
1000
0010
1000
0010
1000
0010
1000
0010
1000
0010
1000
0000
0000
0000
,
1000
0100
0010
0100
1000
0001
1000
0001
,
0000
1001
0000
0110
0100
0001
0100
0001
,
0000
0011
0000
1000
0100
0010
0100
1000
,
0000
0001
0100
0010
0100
0001
0100
0010
,
0000
1001
0000
0010
0100
0010
1000
0010
,
0000
1100
1000
0100
0010
0100
1000
0001
,
0000
0110
0000
1001
0001
0010
0100
1000
,
0000
1010
0000
0101
0000
1001
0000
0110
,
0101
0100
0010
0100
1000
0100
0010
0100
,
0001
0000
0000
0000
0000
0000
0001
0000
0000
0000
1000
0000
0000
0001
0000
0000
,
0010
0010
0000
0001
0000
0010
0001
0000
,
1000
0000
0000
0000
0000
0000
0010
0000
0000
0000
1000
0000
0000
0001
0000
0000
,
0010
0010
0010
0010
0000
1001
0000
0000
,
0011
0000
0000
0000
0000
0000
0110
0000
0000
0000
1100
0000
0000
0110
0000
0000
,
0011
0000
0000
0011
0000
0110
0000
0000
,
1001
0000
0000
0000
0100
0010
0100
0001
,
0010
0001
1000
0100
0010
0100
1000
0010
,
0100
0000
0001
0000
1000
0000
0001
0000
1000
0001
1000
0001
0100
0000
0001
0000
,
0100
0000
0010
0100
0010
0000
0100
0000
0001
0010
0001
0010
0001
0000
0100
0000
,
0010
0000
0100
0010
0100
0000
0010
0000
1000
0000
0010
0100
0010
0000
0100
0000
,
0001
0000
0010
0001
0100
0000
0010
1000
0100
1000
0010
0100
0010
0100
0001
0100
,
0010
1000
0001
1000
0001
0000
0000
0000
1000
0000
0001
0000
1000
0000
0000
0000
,
1000
0001
0100
0001
0100
0000
0000
0000
0100
0010
0100
0010
0100
0000
1001
0000
;

//---------------dance-single - Nifara----------------
#NOTES:
     dance-single:
     :
     Medium:
     10:
     0.465718,0.536365,0.370706,0.163547,0.016355,299.000000,265.000000,34.000000,15.000000,0.000000,0.000000,0.465718,0.536365,0.370706,0.163547,0.016355,299.000000,265.000000,34.000000,15.000000,0.000000,0.000000:
0000
0000
0000
0000
,
0000
0000
0000
0000
,
0000
0000
0000
0000
,
0000
0000
0000
0000
,
2000
0000
0000
0002
0003
0002
3000
0003
,
0002
0000
0000
0100
0000
0000
0000
0000
,
2003
0000
0000
0002
0003
0002
3003
0000
,
0002
0000
0000
0020
0000
0000
0033
0000
,
2002
0000
0003
0000
0000
0000
0020
0000
3000
0000
2000
0000
0000
0000
0030
3000
,
0002
0000
0000
0100
0000
0103
0000
0000
,
2000
0000
0000
0001
0000
3001
0000
0000
,
1000
0001
1000
0001
1000
0001
1000
0001
,
1000
0000
0001
0100
0001
0100
0001
0000
,
0001
0000
1000
0010
1000
0010
1000
0000
,
1000
0000
0010
0100
0010
0100
0010
0000
,
0010
0000
0100
0001
0100
0001
0100
0000
,
0100
0000
0001
1000
0001
1000
0001
0000
,
0001
0000
1000
0010
1000
0010
1000
0000
,
1000
0000
0100
1000
0100
1000
0100
0000
,
0100
0000
1000
0001
1000
0001
1000
0000
,
1001
0000
0100
0000
0010
0100
0001
0100
,
0000
0110
0000
0001
0100
0001
0100
0000
,
0101
0000
1000
0000
0010
1000
0100
1000
,
0000
0001
0100
0001
0100
0000
1001
0000
,
1100
0000
0000
1000
0100
1000
0100
1000
,
0000
1001
0000
0100
0001
0100
0001
0000
,
1001
1000
0100
0010
,
0001
0010
0100
1000
,
1000
0000
0001
0100
0001
0100
0001
0000
,
0001
0000
1000
0010
1000
0010
1000
0000
,
1000
0000
0010
0100
0010
0100
0010
0000
,
0010
0000
0100
0001
0100
0001
0100
0000
,
0100
0000
0001
1000
0001
1000
0001
0000
,
0001
0000
1000
0010
1000
0010
1000
0000
,
1000
0000
0100
1000
0100
1000
0100
0000
,
0100
0000
1000
0001
1000
0001
1000
0001
,
0000
1001
0000
0001
0100
0001
0100
0001
,
0000
1000
0000
1000
0100
1000
0100
1000
,
0000
0001
0100
0001
0100
0001
0100
0001
,
0000
1001
0000
1000
0100
1000
0100
1000
,
0000
0100
1000
0100
1000
0100
1000
0100
,
0000
1001
0000
1001
0000
0100
0100
0100
,
0000
1010
0000
0101
0000
1001
0000
0110
,
0000
0101
0000
0110
0000
1001
0000
1000
,
0001
0000
0000
0000
0000
0000
0001
0000
0000
0000
1000
0000
0000
0001
0000
0000
,
0010
0000
0000
0001
0000
0010
0001
0000
,
1000
0000
0000
0000
0000
0000
0010
0000
0000
0000
1000
0000
0000
0001
0000
0000
,
0100
0010
0100
0010
,
1001
0000
0000
0000
0000
0000
1001
0000
0000
0000
1100
0000
0000
0110
0000
0000
,
0011
0000
0000
0011
0000
0110
0000
0000
,
1001
0000
0100
0001
,
0010
1000
0100
0001
,
0010
1000
0100
0001
,
0010
1000
0100
0001
,
0010
1001
0100
1001
,
0010
1001
0100
1001
,
1000
0101
0001
1100
,
1000
0000
0101
0000
0001
0000
1000
0100
;

//---------------dance-single - Nifara----------------
#NOTES:
     dance-single:
     :
     Easy:
     7:
     0.358245,0.473263,0.392512,0.152643,0.016355,230.000000,194.000000,36.000000,14.000000,0.000000,0.000000,0.358245,0.473263,0.392512,0.152643,0.016355,230.000000,194.000000,36.000000,14.000000,0.000000,0.000000:
0000
0000
0000
0000
,
0000
0000
0000
0000
,
0000
0000
0000
0000
,
0000
0000
0000
0000
,
2000
0000
3200
0000
,
0320
0000
0032
0000
,
2003
0000
3002
0000
,
0203
0000
0320
0000
,
2030
0000
3020
0000
,
0230
0000
0302
0000
,
2003
0000
3002
0000
,
1003
0000
1000
0000
1000
1000
1000
0000
,
1000
0001
1001
0001
,
0001
1000
1010
1000
,
1000
0010
0110
0010
,
0010
0100
0101
0100
,
0100
0001
0011
0001
,
0001
1000
1010
1000
,
1000
0100
0110
0100
,
1000
0001
1010
0001
,
1001
0100
0010
0001
,
0100
0001
0100
0100
,
0101
1000
0010
0100
,
0010
0100
0100
1001
,
1100
1000
0100
0100
,
0010
0001
0001
0001
,
1001
1000
0100
0010
,
0001
0010
0100
1000
,
1000
0001
1001
0001
,
0001
1000
1010
1000
,
1000
0010
0110
0010
,
0010
0100
0101
0100
,
0100
0001
0011
0001
,
0001
1000
1010
1000
,
1000
0100
0110
0100
,
1000
0001
1010
0001
,
0000
1001
0000
0000
0100
0000
0100
0000
,
0000
1000
0000
0000
0100
0000
0100
0000
,
0000
0001
0000
0000
0100
0000
0100
0000
,
0000
1001
0000
0000
0100
0000
0100
0000
,
0000
1000
1000
1000
,
0000
1001
0000
0000
0001
0000
0001
0000
,
0000
1010
0000
0101
0000
1001
0000
0110
,
0000
0101
0000
0110
0000
1001
0000
0000
,
0001
0000
0000
0000
0000
0000
0001
0000
0000
0000
0001
0000
0000
0001
0000
0000
,
0001
0000
0000
0001
0000
0001
0000
0000
,
1000
0000
0000
0000
0000
0000
1000
0000
0000
0000
1000
0000
0000
1000
0000
0000
,
1000
0010
0100
0010
,
0001
0000
0000
0000
0000
0000
0001
0000
0000
0000
0001
0000
0000
0001
0000
0000
,
0001
0000
0000
0001
0000
0001
0000
0000
,
1001
0000
0100
0001
,
0010
1000
0100
0001
,
0010
1000
0100
0001
,
0010
1000
0100
0001
,
1001
0100
0001
0100
,
1001
0100
1000
0100
,
1001
0100
0001
0100
,
1001
0000
0001
0000
1000
0000
0001
1000
;

//---------------dance-single - Nifara----------------
#NOTES:
     dance-single:
     :
     Beginner:
     4:
     0.188468,0.250771,0.228965,0.130837,0.000000,121.000000,100.000000,21.000000,12.000000,0.000000,0.000000,0.188468,0.250771,0.228965,0.130837,0.000000,121.000000,100.000000,21.000000,12.000000,0.000000,0.000000:
// measure 0
0000
0000
0000
0000
,  // measure 1
0000
0000
0000
0000
,  // measure 2
0000
0000
0000
0000
,  // measure 3
0000
0000
0000
0000
,  // measure 4
2000
0000
3000
0000
,  // measure 5
0002
0000
0003
0000
,  // measure 6
2000
0000
3000
0000
,  // measure 7
0002
0000
0003
0000
,  // measure 8
0200
0000
0300
0000
,  // measure 9
0020
0000
0030
0000
,  // measure 10
0200
0000
0300
0000
,  // measure 11
0020
0000
0030
0000
,  // measure 12
1000
0000
1001
0000
,  // measure 13
0001
0000
1001
0000
,  // measure 14
1000
0000
0110
0000
,  // measure 15
0010
0000
1001
0000
,  // measure 16
0100
0000
1001
0000
,  // measure 17
0001
0000
0110
0000
,  // measure 18
1000
0000
0110
0000
,  // measure 19
1000
0000
1001
0000
,  // measure 20
1001
0000
0010
0000
,  // measure 21
0100
0000
0100
0000
,  // measure 22
0001
0000
0010
0000
,  // measure 23
0010
0000
0100
0000
,  // measure 24
1000
1000
0000
0000
,  // measure 25
0001
0001
0000
0000
,  // measure 26
1000
1000
0000
0000
,  // measure 27
0001
0001
0000
0000
,  // measure 28
1000
0000
1001
0000
,  // measure 29
0001
0000
1001
0000
,  // measure 30
1000
0000
0110
0000
,  // measure 31
0010
0000
1001
0000
,  // measure 32
0100
0000
1001
0000
,  // measure 33
0001
0000
0110
0000
,  // measure 34
1000
0000
1001
0000
,  // measure 35
0001
0000
1001
0000
,  // measure 36
0000
1000
1000
1000
,  // measure 37
0000
0100
0100
0100
,  // measure 38
0000
0010
0010
0010
,  // measure 39
0000
0001
0001
0001
,  // measure 40
0000
1000
1000
1000
,  // measure 41
0000
0010
0010
0010
,  // measure 42
0000
0100
0100
0100
,  // measure 43
0000
0001
0001
0001
,  // measure 44
0002
0000
0000
0003
,  // measure 45
0001
0000
0000
0000
,  // measure 46
2000
0000
0000
3000
,  // measure 47
1000
0000
0000
0000
,  // measure 48
0020
0000
0000
0030
,  // measure 49
0010
0000
0000
0000
,  // measure 50
0200
0000
0000
0300
,  // measure 51
0100
0000
0000
0000
,  // measure 52
0010
0000
0100
0000
,  // measure 53
0010
0000
0100
0000
,  // measure 54
1001
0000
0001
0000
,  // measure 55
1001
0000
1000
0000
,  // measure 56
1001
0000
0100
0000
,  // measure 57
1001
0000
0010
0000
;
