#VERSION:0.83;
#TITLE:Megalomaniac;
#SUBTITLE:;
#ARTIST:KMFDM;
#TITLETRANSLIT:;
#SUBTITLETRANSLIT:;
#ARTISTTRANSLIT:;
#GENRE:;
#ORIGIN:;
#CREDIT:;
#BANNER:;
#BACKGROUND:Megalomaniac-bg.png;
#PREVIEWVID:;
#JACKET:Megalomaniac-jacket.png;
#CDIMAGE:;
#DISCIMAGE:;
#LYRICSPATH:;
#CDTITLE:;
#MUSIC:Megalomaniac.ogg;
#OFFSET:-0.089000;
#SAMPLESTART:37.583958;
#SAMPLELENGTH:12.000000;
#SELECTABLE:YES;
#BPMS:0.000=128.000;
#STOPS:;
#DELAYS:;
#WARPS:;
#TIMESIGNATURES:0.000=4=4;
#TICKCOUNTS:0.000=4;
#COMBOS:0.000=1;
#SPEEDS:0.000=1.000=0.000=0;
#SCROLLS:0.000=1.000;
#FAKES:;
#LABELS:0.000=Song Start;
#BGCHANGES:;
#KEYSOUNDS:;
#ATTACKS:
;

//---------------dance-single - ----------------
#NOTEDATA:;
#CHARTNAME:;
#STEPSTYPE:dance-single;
#DESCRIPTION:;
#CHARTSTYLE:;
#DIFFICULTY:Hard;
#METER:15;
#RADARVALUES:0.703766,0.844370,0.332978,0.000000,0.674493,577.000000,538.000000,39.000000,0.000000,0.000000,0.000000,0.000000,0.000000,0.000000,0.703766,0.844370,0.332978,0.000000,0.674493,577.000000,538.000000,39.000000,0.000000,0.000000,0.000000,0.000000,0.000000,0.000000;
#CREDIT:;
#NOTES:
0000
0000
0000
0000
,
0000
0000
0000
0000
,
0000
0000
0000
0000
,
0000
0000
0000
0000
,
0001
0100
0001
0010
0100
0010
0100
1000
0100
1000
0010
1000
0100
0010
0100
1000
,
0001
1000
0010
0100
0010
0100
0001
0100
0010
1000
0010
0100
0001
0100
0010
1000
,
0010
1000
0100
0010
0100
1000
0010
1000
0100
0010
0100
1000
0001
1000
0100
1000
,
0010
1000
0001
1000
0100
1000
0010
1000
0001
1000
0100
1000
0100
0010
0001
0000
,
1000
0000
0000
0000
0001
0000
0000
0000
0001
0000
0000
0000
1000
0000
0000
0010
0000
0000
0000
0000
0000
0000
0000
0000
,
0100
0010
1000
0100
1000
0010
0100
0010
,
1000
0001
1000
0001
1000
0001
0000
0000
,
0100
0010
0000
0010
0000
0010
0000
0010
0100
0000
0010
0100
0001
0000
0000
0000
,
0100
0001
0010
1000
0100
0001
1000
0010
,
0100
1000
1000
0010
1000
0010
0100
0010
,
1000
0100
1000
0010
,
0100
0010
0100
0010
0100
0010
0100
0010
0100
0010
0100
0010
0100
0010
0100
0010
,
0100
0010
0000
0100
0010
0000
0100
0010
0000
0100
0010
0000
0110
0000
0110
0000
,
1000
0001
0000
1000
0001
0000
1000
0001
0000
1000
0001
0000
1001
0000
1001
0000
,
0001
0100
0000
0001
0100
0000
0001
0100
0000
0001
0100
0000
0101
0000
0101
0000
,
1000
0010
0000
1000
0010
0000
1000
0010
0000
1000
0010
0000
1010
0000
1010
0000
,
1000
1000
1000
0001
0100
0001
0100
0000
,
0001
0001
0001
1000
0100
1000
0100
0000
,
1000
0100
0010
0100
1000
0010
0100
0000
,
0001
0100
0010
0100
0001
0010
0100
0000
,
1001
0100
0001
0100
0001
0100
0001
0000
,
1001
1000
0010
1000
0010
1000
0010
0000
,
1100
1000
0010
0100
0010
1000
0010
0000
,
0101
0100
0010
1000
0100
0010
0001
0010
,
0001
0100
0001
0100
0001
0010
0001
0010
0001
1000
0001
1000
0010
1000
0010
1000
,
0100
1000
0100
1000
0010
0100
0010
0100
0010
1000
0010
1000
0100
1000
0100
1000
,
0010
0100
0010
0100
0001
0100
0001
0100
0001
0010
0001
0010
0001
1000
0001
1000
,
0001
0100
0001
0100
0010
1000
0010
1000
0100
1000
0100
1000
0001
0010
0001
0010
,
0001
1000
1000
0001
0100
0001
1000
0000
,
1000
0001
0001
1000
0100
1000
0100
0000
,
1000
0100
0010
0100
1000
0010
0100
0000
,
0001
0100
0010
0100
0001
0010
0100
0000
,
1001
0100
0001
0100
0001
0100
0001
0000
,
1001
1000
0010
1000
0010
1000
0010
0000
,
1100
1000
0010
0100
0010
1000
0010
0000
,
1000
0001
1000
0001
1000
0001
1000
0001
1000
0001
1000
0001
1000
0001
1000
0001
,
0100
0010
0000
0100
0010
0000
0100
0010
0000
0100
0010
0000
0110
0000
0110
0000
,
1000
0001
0000
1000
0001
0000
1000
0001
0000
1000
0001
0000
1001
0000
1001
0000
,
0001
0100
0000
0001
0100
0000
0001
0100
0000
0001
0100
0000
0101
0000
0101
0000
,
1000
0010
0000
1000
0010
0000
1000
0010
0000
1000
0010
0000
1010
0000
1010
0000
,
1000
0100
0000
0001
0100
0000
1000
0100
0000
0001
0100
0000
1001
0000
1100
0000
,
0001
0100
0000
1000
0100
0000
0001
0100
0000
1000
0100
0000
0101
0000
1001
0000
,
1000
0010
0000
0100
0001
0000
1000
0010
0000
0100
0001
0000
0011
0000
1100
0000
,
0001
0100
0000
0010
1000
0000
0001
0100
0000
0010
1000
0000
0011
0000
1100
0000
,
1000
0100
0000
0010
0001
0000
0001
0100
0000
0010
1000
0000
1100
0000
0011
0000
,
0001
0100
0000
0010
1000
0000
1000
0100
0000
0010
0001
0000
1100
0000
0011
0000
,
1000
0010
0000
0100
0001
0000
1000
0010
0000
0100
0001
0000
0110
0000
1001
0000
,
0001
0100
0000
0100
0010
0000
0010
1000
0000
1000
0100
0000
1100
0000
0011
0000
,
1000
1000
1000
1000
1000
1000
1000
0000
,
0001
0001
0001
0001
0001
0001
0001
0000
,
0100
0100
0100
0100
0100
0100
0100
0000
,
0010
0010
0010
0010
0010
0010
0010
0000
,
1000
0100
1000
0100
1000
0100
1000
0000
,
0001
0010
0001
0010
0001
0010
0001
0000
,
1000
0010
1000
0010
1000
0010
1000
0000
,
0001
0010
0100
0010
0001
0010
0100
0010
0001
0010
0100
0010
0001
0010
0100
1000
;

//---------------dance-single - ----------------
#NOTEDATA:;
#CHARTNAME:;
#STEPSTYPE:dance-single;
#DESCRIPTION:;
#CHARTSTYLE:;
#DIFFICULTY:Medium;
#METER:11;
#RADARVALUES:0.413478,0.408965,0.204909,0.000000,0.008538,339.000000,315.000000,24.000000,0.000000,0.000000,0.000000,0.000000,0.000000,0.000000,0.413478,0.408965,0.204909,0.000000,0.008538,339.000000,315.000000,24.000000,0.000000,0.000000,0.000000,0.000000,0.000000,0.000000;
#CREDIT:;
#NOTES:
0000
0000
0000
0000
,
0000
0000
0000
0000
,
0000
0000
0000
0000
,
0000
0000
0000
0000
,
1000
1000
1000
0000
0001
0001
0001
0000
,
0100
0100
0100
0000
0010
0010
0010
0000
,
1000
1000
1000
0000
0100
0100
0100
0000
,
0010
0010
0010
0000
0001
0001
0001
0000
,
1000
0000
0000
0000
0001
0000
0000
0000
0001
0000
0000
0000
1000
0000
0000
0010
0000
0000
0000
0000
0000
0000
0000
0000
,
0100
0010
1000
0000
1000
0010
0100
0000
,
1000
0001
1000
0001
1000
0000
0000
0000
,
0100
0000
1001
0000
0100
0010
1000
0000
,
0100
0001
0010
0000
0100
0001
1000
0000
,
0100
1000
1000
0000
1000
0010
0100
0000
,
1000
0100
0001
0010
,
0100
0100
0100
0100
0100
0100
0100
0000
,
1000
1100
1000
1100
,
0001
0101
0001
0101
,
1000
1010
1000
1010
,
0001
0011
0001
0011
,
1000
1000
1000
0000
0100
0001
0100
0000
,
0001
0001
0001
0000
0100
1000
0100
0000
,
1000
0100
0010
0000
1000
0010
0100
0000
,
0001
0100
0010
0000
0001
0010
0100
0000
,
0001
0100
0001
0000
0001
0100
0001
0000
,
0001
1000
0010
0000
0010
1000
0010
0000
,
0100
1000
0010
0000
0010
1000
0010
0000
,
0001
0100
0010
0000
0100
0010
1000
0000
,
1001
0100
0001
0100
,
1001
0100
1000
0100
,
1000
0100
0010
0001
,
0010
0100
1000
1001
,
0001
1000
1000
0000
0100
0001
1000
0000
,
1000
0001
0001
0000
0100
1000
0100
0000
,
1000
0100
0010
0000
1000
0010
0100
0000
,
0001
0100
0010
0000
0001
0010
0100
0000
,
0001
0100
0001
0000
0001
0100
0001
0000
,
1000
1000
0010
0000
0010
1000
0010
0000
,
0001
0001
0010
0000
0001
1000
0010
0000
,
0100
0100
0100
0100
0100
0100
0100
0000
,
0001
1100
0001
1100
,
1000
0101
1000
0101
,
0001
1010
0001
1010
,
1000
0011
1000
0011
,
1000
1000
1000
0000
0001
0001
0001
0000
,
1000
1000
1000
0000
0001
0001
0001
0000
,
0100
0100
0100
0000
0010
0010
0010
0000
,
0100
0100
0100
0000
0010
0010
0010
0000
,
1000
1000
1000
0000
0100
0100
0100
0000
,
0010
0010
0010
0000
0001
0001
0001
0000
,
1000
1000
1000
0000
0001
0001
0001
0000
,
0100
0100
0100
0000
0010
0010
0010
0000
,
1000
0001
1000
0001
1000
0001
1000
0000
,
0001
1000
0001
1000
0001
1000
0001
0000
,
0100
0010
0100
0010
0100
0010
0100
0000
,
0010
0100
0010
0100
0010
0100
0010
0000
,
1001
0000
1000
0100
1000
0100
1000
0000
,
1001
0000
0001
0010
0001
0010
0001
0000
,
1001
0000
1000
0010
1000
0010
1000
0000
,
1000
0001
1000
0001
1000
0001
1000
1001
;

//---------------dance-single - ----------------
#NOTEDATA:;
#CHARTNAME:;
#STEPSTYPE:dance-single;
#DESCRIPTION:;
#CHARTSTYLE:;
#DIFFICULTY:Easy;
#METER:6;
#RADARVALUES:0.296387,0.306724,0.170758,0.000000,0.000000,243.000000,223.000000,20.000000,0.000000,0.000000,0.000000,0.000000,0.000000,0.000000,0.296387,0.306724,0.170758,0.000000,0.000000,243.000000,223.000000,20.000000,0.000000,0.000000,0.000000,0.000000,0.000000,0.000000;
#CREDIT:;
#NOTES:
0000
0000
0000
0000
,
0000
0000
0000
0000
,
0000
0000
0000
0000
,
0000
0000
0000
0000
,
1000
1000
0001
0001
,
0100
0100
0010
0010
,
1000
1000
0100
0100
,
0010
0010
0001
0001
,
1001
0110
1001
0000
,
0100
1000
1000
0100
,
1000
1000
1000
0000
,
0100
1001
0100
0001
,
0100
0010
0001
1000
,
0100
1000
1000
0001
,
1000
0100
0001
0010
,
1000
0100
0001
0010
,
1000
1000
1000
1100
,
0001
0001
0001
0101
,
1000
1000
1000
1010
,
0001
0001
0001
0011
,
1000
1000
0100
0100
,
0001
0001
0010
0010
,
1000
0010
1000
0100
,
0001
0010
0001
0100
,
0001
0001
0001
0001
,
0010
0010
0010
0010
,
0100
0100
0100
0100
,
1000
1000
1000
1000
,
1001
0100
0001
0100
,
1001
0100
1000
0100
,
1000
0100
0010
0001
,
0010
0100
1000
1001
,
0001
1000
0100
1000
,
1000
0001
0100
0100
,
0001
0010
1000
0100
,
0001
0010
1000
0100
,
0001
0001
0001
0001
,
1000
1000
1000
1000
,
0010
0010
0010
0010
,
0100
0100
0100
0100
,
0001
0100
0001
1100
,
1000
0001
1000
0101
,
0001
1000
0001
1010
,
1000
0001
1000
0011
,
1000
1000
0001
0001
,
1000
1000
0001
0001
,
0100
0100
0010
0010
,
0100
0100
0010
0010
,
1000
1000
0100
0100
,
0010
0010
0001
0001
,
1000
1000
0001
0001
,
0100
0100
0010
0010
,
1000
1000
1000
1000
,
0001
0001
0001
0001
,
0100
0100
0100
0100
,
0010
0010
0010
0010
,
1001
1000
1000
1000
,
1001
0001
0001
0001
,
1001
0100
0100
0100
,
1001
0000
0010
0000
0010
0000
0010
1001
;

//---------------dance-single - ----------------
#NOTEDATA:;
#CHARTNAME:;
#STEPSTYPE:dance-single;
#DESCRIPTION:;
#CHARTSTYLE:;
#DIFFICULTY:Beginner;
#METER:4;
#RADARVALUES:0.165879,0.203202,0.034152,0.000000,0.000000,136.000000,132.000000,4.000000,0.000000,0.000000,0.000000,0.000000,0.000000,0.000000,0.165879,0.203202,0.034152,0.000000,0.000000,136.000000,132.000000,4.000000,0.000000,0.000000,0.000000,0.000000,0.000000,0.000000;
#CREDIT:;
#NOTES:
// measure 0
0000
0000
0000
0000
,  // measure 1
0000
0000
0000
0000
,  // measure 2
0000
0000
0000
0000
,  // measure 3
0000
0000
0000
0000
,  // measure 4
1000
1000
0000
0000
,  // measure 5
0100
0100
0000
0000
,  // measure 6
0010
0010
0000
0000
,  // measure 7
0001
0001
0000
0000
,  // measure 8
1001
0000
1001
0000
,  // measure 9
0100
0000
1000
0000
,  // measure 10
1000
0000
1000
0000
,  // measure 11
0100
0000
0100
0000
,  // measure 12
0100
0000
0001
0000
,  // measure 13
0100
0000
1000
0000
,  // measure 14
1000
0000
0001
0000
,  // measure 15
1000
0000
0001
0000
,  // measure 16
1000
1000
1000
0000
,  // measure 17
0001
0001
0001
0000
,  // measure 18
1000
1000
1000
0000
,  // measure 19
0001
0001
0001
0000
,  // measure 20
1000
1000
0000
0000
,  // measure 21
0001
0001
0000
0000
,  // measure 22
1000
0000
1000
0000
,  // measure 23
0001
0000
0001
0000
,  // measure 24
0001
0001
0001
0000
,  // measure 25
0010
0010
0010
0000
,  // measure 26
0100
0100
0100
0000
,  // measure 27
1000
1000
1000
0000
,  // measure 28
1001
0000
0001
0000
,  // measure 29
1001
0000
1000
0000
,  // measure 30
1000
0000
0010
0000
,  // measure 31
0010
0000
1000
0000
,  // measure 32
0001
0000
0100
0000
,  // measure 33
1000
0000
0001
0000
,  // measure 34
0001
0000
1000
0000
,  // measure 35
0001
0000
1000
0000
,  // measure 36
0001
0001
0001
0000
,  // measure 37
1000
1000
1000
0000
,  // measure 38
0010
0010
0010
0000
,  // measure 39
0100
0100
0100
0000
,  // measure 40
0001
0000
0001
0000
,  // measure 41
1000
0000
1000
0000
,  // measure 42
0001
0000
0001
0000
,  // measure 43
1000
0000
1000
0000
,  // measure 44
1000
1000
0000
0000
,  // measure 45
0001
0001
0000
0000
,  // measure 46
0100
0100
0000
0000
,  // measure 47
0010
0010
0000
0000
,  // measure 48
1000
1000
0000
0000
,  // measure 49
0010
0010
0000
0000
,  // measure 50
0100
0100
0000
0000
,  // measure 51
0001
0001
0000
0000
,  // measure 52
1000
1000
1000
0000
,  // measure 53
0001
0001
0001
0000
,  // measure 54
0100
0100
0100
0000
,  // measure 55
0010
0010
0010
0000
,  // measure 56
1000
1000
1000
0000
,  // measure 57
0001
0001
0001
0000
,  // measure 58
0100
0100
0100
0000
,  // measure 59
0010
0010
0010
0000
;
