#VERSION:0.83;
#TITLE:Make Way For The Boom;
#SUBTITLE:;
#ARTIST:Sonic Adventure Featuring A.C.E.;
#TITLETRANSLIT:;
#SUBTITLETRANSLIT:;
#ARTISTTRANSLIT:;
#GENRE:;
#ORIGIN:;
#CREDIT:;
#BANNER:;
#BACKGROUND:DDR CD-bg.JPG;
#PREVIEWVID:;
#JACKET:Make way for the boom-jacket.jpg;
#CDIMAGE:;
#DISCIMAGE:;
#LYRICSPATH:;
#CDTITLE:;
#MUSIC:21 - Sonic Adventure Featuring A.C.E. - Make Way For The Boom.ogg;
#OFFSET:-0.312000;
#SAMPLESTART:72.999001;
#SAMPLELENGTH:9.029000;
#SELECTABLE:YES;
#BPMS:0.000=132.898;
#STOPS:;
#DELAYS:;
#WARPS:;
#TIMESIGNATURES:0.000=4=4;
#TICKCOUNTS:0.000=4;
#COMBOS:0.000=1;
#SPEEDS:0.000=1.000=0.000=0;
#SCROLLS:0.000=1.000;
#FAKES:;
#LABELS:0.000=Song Start;
#BGCHANGES:;
#KEYSOUNDS:;
#ATTACKS:
;

//---------------dance-single - ----------------
#NOTEDATA:;
#CHARTNAME:;
#STEPSTYPE:dance-single;
#DESCRIPTION:;
#CHARTSTYLE:;
#DIFFICULTY:Beginner;
#METER:2;
#RADARVALUES:0.068176,0.109005,0.010846,0.000000,0.000000,44.000000,43.000000,1.000000,0.000000,0.000000,0.000000,0.000000,0.000000,0.000000,0.068176,0.109005,0.010846,0.000000,0.000000,44.000000,43.000000,1.000000,0.000000,0.000000,0.000000,0.000000,0.000000,0.000000;
#CREDIT:;
#NOTES:
// measure 0
0000
0000
0000
0000
,  // measure 1
0000
0000
0000
0000
,  // measure 2
0000
0000
0000
0000
,  // measure 3
0000
0000
0000
0000
,  // measure 4
0000
0010
0000
0000
,  // measure 5
0000
0000
0000
0000
,  // measure 6
0000
1000
0000
0000
,  // measure 7
0000
0000
0000
0000
,  // measure 8
0000
0100
0000
0000
,  // measure 9
0000
0010
0000
0000
,  // measure 10
0000
0000
0001
0000
,  // measure 11
0000
0000
0000
0000
,  // measure 12
1000
0000
0000
0000
,  // measure 13
0100
0000
0000
0000
,  // measure 14
0010
0000
0000
0000
,  // measure 15
0001
0000
0000
0000
,  // measure 16
0000
0010
0000
0000
,  // measure 17
0000
1000
0000
0000
,  // measure 18
0000
0001
0000
0000
,  // measure 19
0000
0010
0000
0000
,  // measure 20
0000
1000
0000
0000
,  // measure 21
0001
0000
0000
0000
,  // measure 22
1000
0000
0000
0000
,  // measure 23
0000
0000
0000
0000
,  // measure 24
0000
0010
0000
0000
,  // measure 25
0000
0001
0000
0000
,  // measure 26
0000
1000
0000
0000
,  // measure 27
0000
0010
0000
0000
,  // measure 28
0000
0100
0000
0000
,  // measure 29
0000
0001
0000
0000
,  // measure 30
0000
1000
0000
0000
,  // measure 31
0000
0100
0000
0000
,  // measure 32
0000
0001
0000
0000
,  // measure 33
0000
1000
0000
0000
,  // measure 34
0000
0001
0000
0000
,  // measure 35
0000
0000
1000
0000
,  // measure 36
0000
0000
0000
0001
,  // measure 37
0000
0000
0000
1000
,  // measure 38
0000
0000
0000
0001
,  // measure 39
0000
0000
1000
0001
,  // measure 40
0000
1000
0000
0000
,  // measure 41
0000
0000
0001
0000
,  // measure 42
0000
0000
0100
0000
,  // measure 43
0000
0000
0000
0000
,  // measure 44
0000
0010
0000
0000
,  // measure 45
0000
1000
0000
0000
,  // measure 46
0000
0010
0000
0000
,  // measure 47
0000
0100
0000
0000
,  // measure 48
0000
0001
0000
0000
,  // measure 49
0000
0010
0000
0000
,  // measure 50
0000
1001
0000
0000
;

//---------------dance-single - ----------------
#NOTEDATA:;
#CHARTNAME:;
#STEPSTYPE:dance-single;
#DESCRIPTION:;
#CHARTSTYLE:;
#DIFFICULTY:Easy;
#METER:6;
#RADARVALUES:0.162693,0.272511,0.054231,0.000000,0.000000,105.000000,100.000000,5.000000,0.000000,0.000000,0.000000,0.000000,0.000000,0.000000,0.162693,0.272511,0.054231,0.000000,0.000000,105.000000,100.000000,5.000000,0.000000,0.000000,0.000000,0.000000,0.000000,0.000000;
#CREDIT:;
#NOTES:
// measure 0
0000
0000
0000
0000
,  // measure 1
0000
0000
0000
0000
,  // measure 2
0000
0000
0000
0000
,  // measure 3
0000
0000
0000
0000
,  // measure 4
0000
0000
0001
0000
0000
0100
0000
0000
,  // measure 5
0000
0000
0100
0000
0000
0001
0000
0000
,  // measure 6
0000
0000
0010
0000
0000
0100
0000
0000
,  // measure 7
0000
0000
0100
0000
0000
0010
0000
0000
,  // measure 8
0000
0010
0100
0000
,  // measure 9
0000
0001
0100
0000
,  // measure 10
0000
0000
1000
0010
,  // measure 11
0000
0001
1000
0000
,  // measure 12
0000
0000
0100
0001
,  // measure 13
0000
0010
1000
0000
,  // measure 14
0000
0100
0001
0000
,  // measure 15
0000
1000
0001
0000
,  // measure 16
0000
0000
0010
0000
0000
1000
0000
0000
,  // measure 17
0000
0000
1000
0000
0000
0010
0000
0000
,  // measure 18
0000
0000
0001
0000
0000
0010
0000
0000
,  // measure 19
0000
0000
0010
0000
0000
0001
0000
0000
,  // measure 20
0000
0010
0100
0000
,  // measure 21
0000
0001
1000
0000
,  // measure 22
0000
0100
0001
0000
,  // measure 23
0000
0000
0000
0100
0000
0000
0000
0000
,  // measure 24
0000
0000
0010
0000
0000
1000
0000
0000
,  // measure 25
0000
0000
1000
0000
0000
0010
0000
0000
,  // measure 26
0000
0000
0001
0000
0000
0010
0000
0000
,  // measure 27
0000
0000
0010
0000
0000
0001
0000
0000
,  // measure 28
0000
0000
0100
0000
0000
0010
0000
0000
,  // measure 29
0000
0000
0010
0000
0000
0100
0000
0000
,  // measure 30
0000
0000
1000
0000
0000
0010
0000
0000
,  // measure 31
0000
0000
0010
0000
0000
1000
0000
0000
,  // measure 32
0000
0100
0100
0100
,  // measure 33
0000
0001
0001
0001
,  // measure 34
0000
1000
1000
1000
,  // measure 35
0000
0100
0100
0100
,  // measure 36
0000
1000
1000
1000
,  // measure 37
0000
0010
0010
0010
,  // measure 38
0000
0100
0100
0100
,  // measure 39
0000
0001
0001
0001
,  // measure 40
0000
0000
1000
0000
0000
0100
0000
0000
,  // measure 41
0000
0000
0100
0000
0000
1000
0000
0000
,  // measure 42
0000
0000
1000
0000
0000
0001
0000
0000
,  // measure 43
0000
0000
0001
0000
0000
1000
0000
0000
,  // measure 44
0000
0000
0001
0000
0000
0100
0000
0000
,  // measure 45
0000
0000
0100
0000
0000
0001
0000
0000
,  // measure 46
0000
0000
0001
0000
0000
1000
0000
0000
,  // measure 47
0000
0000
1000
0000
0000
0001
0000
0000
,  // measure 48
0000
0000
1001
0000
0000
1001
0000
0000
,  // measure 49
0000
0000
1001
0000
0000
1001
0000
0000
,  // measure 50
0000
1001
0000
0000
;

//---------------dance-single - ----------------
#NOTEDATA:;
#CHARTNAME:;
#STEPSTYPE:dance-single;
#DESCRIPTION:;
#CHARTSTYLE:;
#DIFFICULTY:Medium;
#METER:10;
#RADARVALUES:0.457091,0.490520,0.856852,0.130155,0.037962,295.000000,216.000000,79.000000,12.000000,0.000000,0.000000,0.000000,0.000000,0.000000,0.457091,0.490520,0.856852,0.130155,0.037962,295.000000,216.000000,79.000000,12.000000,0.000000,0.000000,0.000000,0.000000,0.000000;
#CREDIT:;
#NOTES:
// measure 0
0000
0000
0000
0000
,  // measure 1
0000
0000
0000
0000
,  // measure 2
0000
0000
0000
0000
,  // measure 3
0000
0000
0000
0000
,  // measure 4
0000
0000
1010
0000
0000
1010
0000
1000
,  // measure 5
0100
0010
0011
0000
0000
0011
0000
0001
,  // measure 6
0010
0100
0110
0000
0000
0110
0000
0010
,  // measure 7
0100
0001
0101
0000
0000
0101
0000
0001
,  // measure 8
1000
0010
1000
0000
0100
0000
0001
0100
,  // measure 9
0010
0000
1000
0001
1000
0001
1000
0001
,  // measure 10
1000
0000
0000
0000
0001
1000
0100
0000
,  // measure 11
0010
0000
0100
0001
1000
0100
0100
0010
,  // measure 12
0001
0000
1000
0100
,  // measure 13
0001
0000
0010
0001
0100
0000
1000
0001
,  // measure 14
1000
0000
0000
0000
0010
1000
0001
0010
,  // measure 15
0100
0100
1000
0100
,  // measure 16
1000
0000
1010
0000
0000
1010
0000
1000
,  // measure 17
0100
0010
0011
0000
0000
0011
0000
0001
,  // measure 18
0010
0100
0110
0000
0000
0110
0000
0010
,  // measure 19
0100
0001
0101
0000
0000
0101
0000
0001
,  // measure 20
1000
0010
0000
0010
1000
0000
0010
0000
,  // measure 21
0001
0000
1000
0000
0100
0000
0001
0010
,  // measure 22
1000
0000
0000
1000
1000
1000
0001
0001
,  // measure 23
0001
0000
0000
0001
0000
0000
1001
0000
0000
0000
0000
0000
0100
0000
0000
0000
,  // measure 24
1000
0000
1010
0000
0000
1010
0000
1000
,  // measure 25
0100
0010
0011
0000
0000
0011
0000
0001
,  // measure 26
0010
0100
0110
0000
0000
0110
0000
0010
,  // measure 27
0100
0001
0101
0000
0000
0101
0000
0001
,  // measure 28
1000
0010
1010
0000
0011
0000
1010
1000
,  // measure 29
0001
0000
0110
0000
1001
0000
0110
0010
,  // measure 30
0100
0000
1100
0000
0011
0000
1100
1000
,  // measure 31
0001
0000
0000
0000
0101
0000
0000
0000
0000
0000
0101
0000
0000
0001
0100
0000
,  // measure 32
0000
0001
0100
0000
0011
0000
0000
0000
1100
0000
0000
0000
0220
0000
0000
0000
,  // measure 33
0330
1001
0110
0022
,  // measure 34
0033
1100
0101
2002
,  // measure 35
3003
0000
1010
1010
,  // measure 36
0000
1100
0011
0220
,  // measure 37
0330
1100
0101
0220
,  // measure 38
0330
0110
1010
2002
,  // measure 39
3003
0000
1100
0011
,  // measure 40
0000
0000
1010
0000
0000
1010
0000
1000
,  // measure 41
0100
0010
0011
0000
0000
0011
0000
0001
,  // measure 42
0010
0100
0110
0000
0000
0110
0000
0010
,  // measure 43
0100
0001
0101
0000
0000
0101
0000
0001
,  // measure 44
1000
0010
1010
0000
0000
1010
0000
1000
,  // measure 45
0100
0010
0011
0000
0000
0011
0000
0001
,  // measure 46
0010
0100
0110
0000
0000
0110
0000
0010
,  // measure 47
0100
0001
0101
0000
0000
0101
0000
0001
,  // measure 48
1000
0000
0010
0000
1010
0000
0000
0000
0000
0000
0101
0000
0000
0001
0100
0000
,  // measure 49
0000
0001
0100
0000
0101
0000
0000
0000
0000
0000
0101
0000
0000
0001
0100
0000
,  // measure 50
0000
0001
0100
0000
0101
0000
0000
0000
0000
0000
0000
0000
0000
0000
0000
0000
;

//---------------dance-single - ----------------
#NOTEDATA:;
#CHARTNAME:;
#STEPSTYPE:dance-single;
#DESCRIPTION:;
#CHARTSTYLE:;
#DIFFICULTY:Hard;
#METER:12;
#RADARVALUES:0.453992,0.577968,0.173540,0.108462,0.379618,293.000000,277.000000,16.000000,10.000000,0.000000,0.000000,0.000000,0.000000,0.000000,0.453992,0.577968,0.173540,0.108462,0.379618,293.000000,277.000000,16.000000,10.000000,0.000000,0.000000,0.000000,0.000000,0.000000;
#CREDIT:;
#NOTES:
// measure 0
0000
0000
0000
0000
,  // measure 1
0000
0000
0000
0000
,  // measure 2
0000
0000
0000
0000
,  // measure 3
0000
0000
0000
0000
,  // measure 4
0000
0000
0000
0000
0100
0000
0000
0000
0000
0000
0001
0000
0000
0100
0001
0000
,  // measure 5
0000
0100
0001
0000
0010
0000
0000
0000
0000
0000
1000
0000
0000
0010
1000
0000
,  // measure 6
0000
0010
1000
0000
0100
0000
0000
0000
0000
0000
0001
0000
0000
0100
0001
0000
,  // measure 7
0000
0100
0001
0000
0010
0000
0000
0000
0000
0000
1000
0000
0000
0010
1000
0000
,  // measure 8
0000
0010
1000
0000
0100
0000
0000
0000
0001
0000
0000
0000
0100
0001
0100
0001
,  // measure 9
0100
0000
0010
0001
0100
0001
0010
0001
,  // measure 10
0101
0000
0000
1000
0100
0001
1000
0010
,  // measure 11
1001
0000
0011
0001
0001
0011
0001
0001
,  // measure 12
0011
0000
0010
0100
1000
0010
0100
0010
,  // measure 13
1001
0000
0100
1000
0100
0010
0001
0100
,  // measure 14
0010
0000
1000
0000
0000
0000
1000
0001
1000
0000
0000
0000
1001
0000
0001
1000
,  // measure 15
0001
0000
0000
0000
1001
0000
1001
0000
1001
0000
0000
0000
0000
0001
1000
0000
,  // measure 16
1000
0000
1000
0001
0100
0000
0000
0000
0000
0000
0001
0000
0000
0100
0001
0000
,  // measure 17
0000
0100
0001
0000
0010
0000
0000
0000
0000
0000
1000
0000
0000
0010
1000
0000
,  // measure 18
0000
0010
1000
0000
0100
0000
0000
0000
0000
0000
0001
0000
0000
0100
0001
0000
,  // measure 19
0000
0100
0001
0000
0010
0000
0000
0000
0000
0000
1000
0000
0000
0010
1000
0000
,  // measure 20
0000
0010
1000
0000
0100
0000
0010
0000
0100
0000
0000
0000
1000
0000
0001
0000
,  // measure 21
1001
0000
0000
0010
0100
0010
1000
0001
,  // measure 22
0101
0000
0000
0010
0100
0001
1000
0100
,  // measure 23
1000
0000
0001
0000
0000
0000
0100
0000
0000
0000
0000
0000
0000
0001
1000
0000
,  // measure 24
1000
0000
1000
0001
0100
0000
0000
0000
0000
0000
0001
0000
0000
0100
0001
0000
,  // measure 25
0000
0100
0001
0000
0010
0000
0000
0000
0000
0000
1000
0000
0000
0010
1000
0000
,  // measure 26
0000
0010
1000
0000
0100
0000
0000
0000
0000
0000
0001
0000
0000
0100
0001
0000
,  // measure 27
0000
0100
0001
0000
0010
0000
0000
0000
0000
0000
1000
0000
0000
0010
1000
0000
,  // measure 28
0000
0010
1000
0000
0100
0000
0000
0000
0000
0000
0001
0000
0000
0100
0001
0000
,  // measure 29
0000
0100
0001
0000
0010
0000
0000
0000
0000
0000
1000
0000
0000
0010
1000
0000
,  // measure 30
0000
0010
1000
0000
0100
0000
0000
0000
0000
0000
0001
0000
0000
0100
0001
0000
,  // measure 31
0000
0100
0001
0000
0010
0000
0000
0000
0000
0000
1000
0000
0000
0010
1000
0000
,  // measure 32
0000
0010
1000
0000
0100
0000
0000
0000
1000
0000
0000
1000
0002
0000
0000
0000
,  // measure 33
0000
0000
0003
0000
0001
0000
0000
0000
0100
0000
0000
0100
0020
0000
0000
0000
,  // measure 34
0000
0000
0030
0000
0010
0000
0000
0000
0000
0000
0000
0001
2000
0000
0000
0000
,  // measure 35
0000
0000
0000
0000
3000
0000
0000
1000
0001
0000
0000
0001
2000
0000
0000
0000
,  // measure 36
0000
0000
0000
0000
3001
0000
0000
0000
0000
0000
0000
0010
2000
0000
0000
0000
,  // measure 37
0000
0000
0000
0000
3000
0000
0000
0000
0000
0000
0000
0001
0200
0000
0000
0000
,  // measure 38
0000
0000
0000
0000
0300
0000
0000
0000
0000
0000
0000
1000
0020
0000
0000
0000
,  // measure 39
0000
0000
0000
0000
0030
0000
0000
0010
0100
0000
0000
0100
0020
0000
0000
0000
,  // measure 40
0000
0000
0000
0000
0130
0000
0000
0000
0000
0000
0001
0000
0000
0100
0001
0000
,  // measure 41
0000
0100
0001
0000
0010
0000
0000
0000
0000
0000
1000
0000
0000
0010
1000
0000
,  // measure 42
0000
0010
1000
0000
0100
0000
0000
0000
0000
0000
0001
0000
0000
0100
0001
0000
,  // measure 43
0000
0100
0001
0000
0010
0000
0000
0000
0000
0000
1000
0000
0000
0010
1000
0000
,  // measure 44
0000
0010
1000
0000
0100
0000
0100
0000
0100
0000
0001
0000
0000
0100
0001
0000
,  // measure 45
0000
0100
0001
0000
0010
0000
0010
0000
0010
0000
1000
0000
0000
0010
1000
0000
,  // measure 46
0000
0010
1000
0000
0100
0000
0100
0000
0100
0000
0001
0000
0000
0100
0001
0000
,  // measure 47
0000
0100
0001
0000
0010
0000
0010
0000
0010
0000
1000
0000
0000
0010
1000
0000
,  // measure 48
0000
0010
1000
0000
0100
0000
0100
0000
0100
0000
0001
0000
0000
0001
1000
0000
,  // measure 49
0000
0001
1000
0000
1001
0000
1001
0000
1001
0000
0001
0000
0000
0001
1000
0000
,  // measure 50
0000
0001
1000
0000
2002
0000
0000
0000
0000
0000
0000
0000
3003
0000
0000
0000
;

//---------------dance-single - ----------------
#NOTEDATA:;
#CHARTNAME:;
#STEPSTYPE:dance-single;
#DESCRIPTION:;
#CHARTSTYLE:;
#DIFFICULTY:Challenge;
#METER:15;
#RADARVALUES:0.720499,0.912710,0.596542,0.021692,0.759236,465.000000,410.000000,55.000000,2.000000,0.000000,0.000000,0.000000,0.000000,0.000000,0.720499,0.912710,0.596542,0.021692,0.759236,465.000000,410.000000,55.000000,2.000000,0.000000,0.000000,0.000000,0.000000,0.000000;
#CREDIT:;
#NOTES:
// measure 0
0000
0000
0000
0000
,  // measure 1
0000
0000
0000
0000
,  // measure 2
0000
0000
0000
0000
,  // measure 3
0000
0000
0000
0000
,  // measure 4
0000
0000
0000
0000
0100
0000
0000
0000
0010
0000
0001
0000
1000
0010
1000
0000
,  // measure 5
0100
0001
0100
0000
0001
0000
0000
0000
1000
0000
0010
0000
0100
0001
0100
0000
,  // measure 6
0010
1000
0010
0000
0100
0000
0000
0000
0010
0000
0100
0000
0010
0100
0010
0000
,  // measure 7
0100
0010
0100
0000
0010
0000
0000
0000
0000
0000
1000
0000
0000
0001
1000
0000
,  // measure 8
0000
0001
1000
0001
1000
0000
0000
1000
0001
0000
0000
0010
0100
0000
0000
0100
,  // measure 9
1000
0000
0000
0000
0010
1000
0100
0010
0001
0000
0011
0000
0100
0001
0010
0100
,  // measure 10
1000
0000
0000
0000
0000
0000
0010
0100
0010
0000
0010
1000
0010
0000
1010
0000
,  // measure 11
0101
0000
0000
0001
1000
0000
0100
1000
0010
0000
0100
0000
0001
0000
1000
0010
,  // measure 12
0100
0000
0000
0000
0010
0000
0100
0000
0010
0000
1000
0000
0010
0000
0100
0010
,  // measure 13
0100
0000
0000
0000
0010
0000
0000
1000
0000
0000
0001
0000
0000
0100
0000
0000
,  // measure 14
0010
0100
0001
0000
0000
0000
1000
0001
1000
0000
0000
0000
0100
0000
0010
0000
,  // measure 15
0001
0000
0000
0000
1100
0000
0011
0000
1100
0000
0000
0000
0000
0100
0010
0000
,  // measure 16
0001
0000
1000
0100
0010
0001
0010
0000
0011
0000
0001
1000
0000
0010
0000
0100
,  // measure 17
0000
0010
1000
0100
0010
0100
1000
0000
1100
0000
1000
0010
0000
0100
0000
0001
,  // measure 18
0000
0010
0100
1000
0100
1000
0100
0000
1100
0000
1000
0010
0000
0100
0000
0010
,  // measure 19
0000
0100
0001
0100
0001
0100
0001
0000
0101
0000
0001
1000
0000
0100
0000
1000
,  // measure 20
0000
0100
0010
0001
0100
0000
0001
0000
0100
0000
0000
0000
0100
0000
1000
0000
,  // measure 21
1001
0000
0100
0000
0010
0000
1000
0100
,  // measure 22
0001
0000
1000
0010
0100
0000
0010
0100
,  // measure 23
1000
0100
0010
0000
0100
0000
1000
0000
,  // measure 24
0010
0000
1000
0100
0010
0001
0010
0000
0011
0000
0001
1000
0000
0010
0000
0100
,  // measure 25
0000
0010
1000
0100
0010
0100
1000
0000
1100
0000
1000
0010
0000
0100
0000
0001
,  // measure 26
0000
0010
0100
1000
0100
1000
0100
0000
1100
0000
1000
0010
0000
0100
0000
0010
,  // measure 27
0000
0100
0001
0100
0001
0100
0001
0000
0101
0000
0001
1000
0000
0100
0000
1000
,  // measure 28
0000
0100
0010
0001
0100
0010
1000
0100
0010
0100
0010
0001
0100
0010
1000
0100
,  // measure 29
0010
0100
0010
0001
0100
0010
0100
0010
1000
0001
0010
0001
0100
0001
0010
0100
,  // measure 30
0010
0100
1000
0100
1000
0001
0010
0100
1000
0010
1000
0100
0010
0001
1000
0100
,  // measure 31
1000
0010
0100
0001
0010
0000
0000
0000
0000
0000
0100
0000
0000
0010
0100
0000
,  // measure 32
0000
0100
0010
0000
1001
0000
0000
0000
0110
0000
0000
0100
0010
0100
0010
0000
,  // measure 33
0110
0000
1100
0000
0011
0000
0000
0000
1010
0000
0000
1000
0100
0010
0001
0000
,  // measure 34
1001
0000
0011
0000
1010
0000
0000
0000
0101
0000
0000
0001
0010
0100
1000
0000
,  // measure 35
1100
0000
0110
0000
0011
0000
0000
0000
0110
0000
0000
0100
0010
1000
0001
0000
,  // measure 36
1001
0000
0110
0000
1001
0000
0000
0000
1100
0000
0000
1000
0100
0010
0001
0000
,  // measure 37
0011
0000
0110
0000
1100
0000
0000
0000
1010
0000
0000
0100
0010
0100
0010
0000
,  // measure 38
0110
0000
1100
0000
1100
0000
0000
0000
1001
0000
0000
1000
0001
1000
0001
0000
,  // measure 39
1001
1001
1001
0000
0100
0000
0010
0000
,  // measure 40
0100
0000
0000
0000
0010
1000
0001
0000
1001
0000
1001
0000
1001
0000
1000
0100
,  // measure 41
0010
0000
0000
0000
0001
0100
0010
0000
0101
0000
1010
0000
0101
0000
0010
1000
,  // measure 42
0000
0000
0000
0000
0100
0010
0100
1000
0100
0000
1000
0010
0100
0001
0010
0100
,  // measure 43
1000
0000
1001
0000
1001
0000
0000
0000
0000
0000
0000
0000
0000
0010
1000
0000
,  // measure 44
1000
0000
1000
0100
0010
0000
0000
0000
0010
0000
1000
0000
0001
1000
0001
0000
,  // measure 45
0100
0001
0100
0000
0010
0000
0000
0000
0100
0000
0010
0000
1000
0100
1000
0000
,  // measure 46
0001
0010
0001
0000
0100
0000
0000
0000
0010
0000
1000
0000
0100
1000
0100
0000
,  // measure 47
0010
0100
0010
0000
0001
0000
0000
0000
1000
0000
0100
0000
0010
0100
1000
0000
,  // measure 48
1000
0100
0010
0000
0100
0000
0000
0000
0000
0000
0010
0000
0000
0100
0010
0000
,  // measure 49
0000
0100
0010
0000
0110
0000
0000
0000
0000
0000
0110
0000
0000
0100
0010
0000
,  // measure 50
0000
0100
0010
0000
0220
0000
0000
0000
0000
0000
0000
0000
0000
0000
0000
0000
,  // measure 51
0330
0000
0000
0000
;
