#TITLE:MY GENERATION;
#SUBTITLE:(Speed Pitch Mix);
#ARTIST:CAPTAIN JACK;
#TITLETRANSLIT:;
#SUBTITLETRANSLIT:;
#ARTISTTRANSLIT:;
#GENRE:;
#CREDIT:;
#BANNER:MY GENERATION (Speed Pitch Mix).png;
#BACKGROUND:My Generation (Speed Pitch Mix)-bg.png;
#LYRICSPATH:;
#CDTITLE:;
#MUSIC:My Generation (Speed Pitch Mix).mp3;
#OFFSET:2.800001;
#SAMPLESTART:60.544014;
#SAMPLELENGTH:12.000000;
#LASTBEATHINT:5.100002;
#SELECTABLE:YES;
#BPMS:0.000000=170.000000
,116.000000=85.019997
,132.000000=170.000000
;
#STOPS:
;
#BGCHANGES:;
#KEYSOUNDS:;
#ATTACKS:;

//---------------dance-single - ----------------
#NOTES:
     dance-single:
     :
     Challenge:
     14:
     0.672741,0.840011,0.143635,0.143635,0.138506,459.000000,445.000000,14.000000,14.000000,0.000000,0.000000,0.672741,0.840011,0.143635,0.143635,0.138506,459.000000,445.000000,14.000000,14.000000,0.000000,0.000000:
// measure 0
0000
0000
0000
0000
,  // measure 1
0000
0000
0000
0000
,  // measure 2
0000
0000
0000
0000
,  // measure 3
0000
0000
0000
0000
,  // measure 4
1000
0100
1000
0100
1000
0010
0100
0000
,  // measure 5
0001
0100
0001
0100
0010
1000
0001
0010
,  // measure 6
0001
0100
0010
0100
1000
0100
0010
0000
,  // measure 7
1000
0000
0001
1000
0100
0000
0010
0000
0001
0000
0100
0010
1000
0000
1000
0000
,  // measure 8
0001
0100
1000
0100
0010
0100
0001
0000
,  // measure 9
0001
0100
1000
0100
0001
1000
0100
0010
,  // measure 10
0001
0100
0001
0100
0001
0010
0100
0000
,  // measure 11
1000
0000
0001
1000
0010
0000
0100
0000
0010
0000
0100
0001
0010
0000
0100
0000
,  // measure 12
1000
0100
0010
0100
1000
0010
0100
0000
,  // measure 13
0001
0100
0010
1000
0100
0010
0001
0000
,  // measure 14
0100
0000
0010
0000
0100
0000
0001
0000
1000
0001
0100
0000
0010
0000
0000
0000
,  // measure 15
1000
0100
1000
0010
0100
0010
1000
0000
,  // measure 16
0001
0010
0100
0010
0001
0100
0010
0000
,  // measure 17
0001
0000
1000
0000
0010
0000
1000
0000
0001
0010
0001
0000
0100
0000
0000
0000
,  // measure 18
0010
0000
0100
0000
0010
0000
1000
0000
0010
0100
0010
0000
1000
0000
0000
0000
,  // measure 19
1010
0000
0101
0000
0001
0100
0010
0100
,  // measure 20
0001
0010
0001
0010
0100
1000
1001
0000
,  // measure 21
0010
0100
1000
0100
0010
0100
1001
0000
,  // measure 22
0010
1000
0100
0001
0100
1000
1001
0000
,  // measure 23
1000
0100
0001
0100
1000
0010
0001
0010
,  // measure 24
1000
0010
1000
0010
0100
0010
1001
0000
,  // measure 25
0010
0100
0001
0100
0010
0100
1001
0000
,  // measure 26
0010
0001
0100
1000
0100
0001
1001
0000
,  // measure 27
0001
0100
1000
0100
0001
0010
1000
0010
,  // measure 28
0001
0000
0000
0000
,  // measure 29
2000
0000
0010
0010
3020
0000
0100
0100
0230
0000
0001
0001
0302
0000
0100
0100
,  // measure 30
0203
0000
0010
0010
0320
0000
1000
1000
2030
0000
0100
0100
3200
0000
0010
0010
,  // measure 31
0310
0001
0100
0010
1000
0100
0010
0100
,  // measure 32
1000
0000
0001
0000
0100
0000
0010
0000
1000
0001
0100
0001
1000
0100
0010
0100
,  // measure 33
1000
0000
0100
0000
1000
0000
0100
1000
,  // measure 34
0001
0000
0100
0000
0001
0000
0100
0001
,  // measure 35
0010
0000
0001
0000
0010
0000
0001
1000
,  // measure 36
0010
0000
0000
0000
1000
0000
0000
0000
0010
0000
0000
1000
0000
0000
0001
0000
,  // measure 37
1000
0001
0100
0001
1000
0100
1000
0001
,  // measure 38
0100
0010
0100
0001
1000
0010
0100
0001
,  // measure 39
1000
0100
0010
0001
0010
0100
1000
0100
,  // measure 40
2200
0000
0000
3300
,  // measure 41
0010
0100
1000
0100
0010
0000
0100
1000
,  // measure 42
0100
1000
0010
0100
0001
0010
0001
0100
,  // measure 43
0001
0000
1001
0000
0101
0000
1000
0001
,  // measure 44
1000
0000
0100
0000
1000
0000
0010
0000
0100
0000
0000
0100
0000
0000
0001
0000
,  // measure 45
0100
0010
0100
0001
0100
0010
1000
0010
,  // measure 46
1000
0100
1000
0010
1000
0100
0010
0001
,  // measure 47
0100
0000
1001
0000
1010
0000
0001
1000
,  // measure 48
0001
0000
1000
0000
0010
0000
0100
0000
0001
0000
0000
0001
0000
0000
1000
0000
,  // measure 49
0001
0010
0001
0010
0100
1000
0100
1000
,  // measure 50
0010
1000
0010
1000
0001
0010
0001
0010
,  // measure 51
0100
1000
0100
1000
0001
1000
0001
1000
,  // measure 52
0001
0000
0100
0000
0001
0000
0100
0000
0100
0000
0000
0100
0000
0000
0100
0000
,  // measure 53
0010
1000
0010
1000
0100
1000
0100
1000
,  // measure 54
0010
0100
0010
1000
0010
0100
0001
1000
,  // measure 55
0010
0100
0001
0010
0001
0100
0010
0200
,  // measure 56
0002
0000
0000
0303
,  // measure 57
1000
0100
1000
0100
1000
0010
0100
0000
,  // measure 58
0001
0100
0001
0100
0010
1000
0001
0010
,  // measure 59
0001
0100
0010
0100
1000
0100
0010
0000
,  // measure 60
1000
0000
0001
1000
0100
0000
0010
0000
0001
0000
0100
0010
1000
0000
1000
0000
,  // measure 61
0001
0100
1000
0100
0010
0100
0001
0000
,  // measure 62
0001
0100
1000
0100
0001
1000
0100
0010
,  // measure 63
0001
0100
0001
0100
0001
0010
0100
0000
,  // measure 64
1000
0000
0001
1000
0010
0000
0100
0000
0010
0000
0100
0001
1000
0000
2002
0000
,  // measure 65
0000
0000
3003
0000
;
