#TITLE:MY BABY MAMA;
#SUBTITLE:(CD Edit);
#ARTIST:ANQUETTE;
#TITLETRANSLIT:;
#SUBTITLETRANSLIT:;
#ARTISTTRANSLIT:;
#GENRE:;
#CREDIT:;
#BANNER:MY BABY MAMA.png;
#BACKGROUND:MY BABY MAMA-bg.png;
#LYRICSPATH:;
#CDTITLE:;
#MUSIC:MY BABY MAMA.ogg;
#OFFSET:-0.060000;
#SAMPLESTART:29.288967;
#SAMPLELENGTH:15.000000;
#SELECTABLE:YES;
#DISPLAYBPM:138.000000;
#BPMS:0.000000=137.906006
;
#STOPS:
;
#BGCHANGES:;
#KEYSOUNDS:;
#ATTACKS:;

//---------------dance-single - ----------------
#NOTES:
     dance-single:
     :
     Easy:
     5:
     0.233158,0.337622,0.128008,0.000000,0.000000,153.000000,141.000000,12.000000,0.000000,0.000000,0.000000,0.233158,0.337622,0.128008,0.000000,0.000000,153.000000,141.000000,12.000000,0.000000,0.000000,0.000000:
0000
0000
0000
0000
,
0000
0000
0000
0000
,
0000
0000
0000
0000
,
1000
0000
1000
0000
,
0001
0000
0001
0000
,
1000
0000
1000
0000
,
0001
0000
0001
0000
,
1000
0000
1000
0000
,
1001
0000
1001
0000
,
0010
1000
0001
1000
,
0000
0000
0001
0001
,
0000
0000
1000
1000
,
0001
0001
1000
1000
,
0001
0010
1000
0010
,
1000
0001
1000
0100
,
0001
0000
0000
1000
0000
0000
0001
0000
,
0000
0000
0000
0010
0010
0000
0000
0000
,
0001
0000
0001
0000
,
1000
0000
1000
0000
,
0001
0000
0001
0000
,
1000
0000
1000
0000
,
1000
0000
0001
0000
,
1000
0000
0001
0000
,
0001
0000
0100
0000
,
1000
0000
0100
0000
,
1000
0001
0001
0000
,
0001
1000
1001
0000
,
0001
1000
1000
0000
,
1000
0000
0001
0001
,
1000
0100
0100
0000
,
0001
1000
0100
0000
,
1000
0001
0001
0000
,
0001
0000
1000
1000
,
0010
0000
0000
1000
0000
0000
0001
0000
,
0000
0000
0000
0000
,
1000
0010
0001
0010
,
1000
0100
0001
0100
,
1000
0010
0001
0010
,
1000
0010
0001
0010
,
1000
0100
0001
0100
,
1000
0010
0001
0010
,
1000
0010
0001
0010
,
1000
0100
0001
0000
,
1000
1001
0000
1001
,
0001
1001
0000
1001
,
1000
0110
0000
0110
,
0001
0110
0000
0110
,
1000
1000
1000
0000
,
0001
0001
0001
0000
,
0100
0100
0100
0000
,
0010
0010
0010
0000
,
1000
0000
0000
0001
0000
0000
1000
0000
,
0000
0001
1000
1001
;

//---------------dance-single - ----------------
#NOTES:
     dance-single:
     :
     Medium:
     7:
     0.271255,0.365757,0.256016,0.000000,0.000000,178.000000,154.000000,24.000000,0.000000,0.000000,0.000000,0.271255,0.365757,0.256016,0.000000,0.000000,178.000000,154.000000,24.000000,0.000000,0.000000,0.000000:
0000
0000
0000
0000
,
0000
0000
0000
0000
,
0000
0000
0000
0000
,
0010
1001
0000
0000
,
0100
1001
0000
0000
,
0001
1100
0000
0000
,
1000
0101
0000
0000
,
0100
1001
0000
0000
,
1000
0100
0001
0000
,
1000
0000
0000
0000
,
0001
0001
0000
0000
,
1000
0000
1000
0000
0010
1000
0001
0000
,
1000
0001
0100
0000
0001
0000
0010
0000
,
1000
0010
0100
0100
,
0001
0001
1000
1000
,
1000
0000
0000
0001
0000
0000
1000
0000
,
0000
0001
1000
0001
1000
0000
0000
0000
,
1000
0110
0000
0000
,
0001
0110
0000
0000
,
1000
0101
0000
0000
,
0010
1100
0000
0000
,
0001
0110
0000
0000
,
1000
1100
0000
0000
,
0010
1001
0000
0000
,
0100
1001
0000
0000
,
0001
1000
0001
0000
1000
0000
0100
0000
,
1000
0000
0001
1000
,
0100
0000
0010
0000
,
0001
0000
1100
0001
,
1000
0000
0001
0000
,
1000
0000
0001
0001
,
1000
0000
0010
0000
,
0100
0000
1100
0001
,
0001
0010
0000
0001
1000
0000
0001
0100
,
0000
0000
0000
0000
,
0010
0101
0000
0000
,
0010
1100
0000
0000
,
0001
0101
0000
0000
,
1000
1100
0000
0000
,
0100
1000
0001
0000
0000
0000
0000
0000
,
0010
0001
1000
0000
0000
0000
0000
0000
,
1000
0001
0000
0000
,
0010
0100
1000
0000
0010
1000
0000
0001
,
0100
0010
0100
0000
0010
0100
0010
0000
,
1000
0001
1000
0000
0001
1000
0001
0000
,
0100
0001
1000
0010
,
1000
0100
1000
0010
,
0100
0001
0100
0010
,
1000
0100
1000
0001
,
0100
1001
0100
1001
,
0010
1001
0010
1001
,
1000
0001
0000
0100
0010
0000
1000
0001
,
0000
0000
0100
0010
0100
0000
1001
0000
;

//---------------dance-single - ----------------
#NOTES:
     dance-single:
     :
     Hard:
     10:
     0.470887,0.478297,0.138676,0.000000,0.048003,309.000000,296.000000,13.000000,0.000000,0.000000,0.000000,0.470887,0.478297,0.138676,0.000000,0.048003,309.000000,296.000000,13.000000,0.000000,0.000000,0.000000:
0000
0000
0000
0000
,
0000
0000
0000
0000
,
0000
0000
0000
0000
,
0001
0010
0001
0000
1000
0010
1000
0000
,
0001
0010
0001
0000
1000
0000
0001
0000
,
0010
0001
1000
0000
0001
0000
0010
0000
,
0001
0010
0001
1000
0010
0000
0100
0000
,
0001
0010
0001
0000
1000
0000
0010
0000
,
1000
0010
1000
0000
0001
0000
1000
0000
,
0100
0010
0100
0000
1010
0000
0101
0000
,
0001
0010
1000
0010
0001
0010
1000
0000
,
1000
0010
0001
0000
0001
1000
0100
0000
,
1010
0101
1100
0011
,
0100
0001
0010
0000
0001
0010
0001
0000
,
1000
0010
0100
0000
1010
0000
0101
0000
,
1000
0001
0000
0000
0000
0000
0010
0001
0000
0000
0000
0000
1000
0100
0000
0000
,
0000
0000
0000
1000
0010
0001
0010
0001
,
0010
1000
0001
0000
1000
0010
1000
0000
,
0010
1000
0001
1000
0001
0000
1000
0000
,
0010
1000
0010
0000
0001
0000
0010
0001
,
0010
0001
0010
0000
1000
0000
0001
0000
,
0010
0001
1000
0000
1000
0010
1000
0000
,
0001
0010
0001
0000
1000
0000
0001
0000
,
0010
0001
0010
0000
0001
0010
1000
0000
,
0010
0001
0010
0000
1000
0001
1000
0000
,
0100
0010
0001
0000
1000
0010
0001
0000
,
1000
0010
0001
0000
1000
0001
1000
0000
,
0100
0010
0001
0010
1000
0010
0001
0000
,
1000
0010
0001
0000
1100
0000
0011
0000
,
1000
0010
0001
0000
1000
0100
0001
0000
,
0001
0100
1000
0000
1000
0100
0001
0000
,
1000
0010
0100
0000
0001
0000
0001
0000
,
1000
0010
0001
0000
1100
0000
0011
0000
,
1000
0001
0000
0000
0000
0000
0100
0010
0000
0000
0000
0000
1000
0001
0000
0000
,
1000
0001
0100
0001
,
0001
0010
0001
0000
1000
0010
1000
0000
,
0001
0010
0001
0000
1000
0000
0001
0000
,
0100
0010
1000
0000
0010
1000
0010
0000
,
0001
0010
0001
0000
1000
0000
0010
0000
,
0001
0010
0001
0000
1000
0000
0010
0000
,
0001
0010
0001
0010
1000
0000
0001
0000
,
0010
0001
0010
0000
1000
0010
1000
0000
,
0001
0010
0001
0000
1000
0000
0001
0000
,
1000
0100
1000
0010
1000
0100
1000
0010
,
0100
0001
0100
0010
0100
0001
1000
0001
,
0100
0010
0100
0001
1000
0100
1000
0001
,
0100
0001
0100
0010
1000
0100
1000
0001
,
0100
0001
0100
0010
0100
0001
1000
0001
,
1000
0100
0010
0001
0100
0010
1000
0001
,
0100
0001
0100
0010
1000
0100
1000
0001
,
1000
0001
0100
0001
0100
0010
0100
0010
,
1000
0100
0000
0000
0000
0000
0100
0010
0000
0000
0000
0000
0010
0001
0000
0000
,
0000
0000
1000
0001
0100
0000
1001
0000
;

//---------------dance-solo - ----------------
#NOTES:
     dance-solo:
     :
     Easy:
     3:
     0.202680,0.296286,0.021335,0.000000,0.000000,133.000000,131.000000,2.000000,0.000000,0.000000,0.000000,0.202680,0.296286,0.021335,0.000000,0.000000,133.000000,131.000000,2.000000,0.000000,0.000000,0.000000:
000000
000000
000000
000000
,
000000
000000
000000
000000
,
000000
000000
000000
000000
,
000000
000000
000000
000000
,
000000
000000
000000
000000
,
010000
000100
000000
000000
,
000010
000100
000000
000000
,
010000
000100
000000
000000
,
000010
000100
000000
000000
,
100000
001000
000000
000000
,
000001
100001
000000
000000
,
000010
010000
000001
100000
,
000000
000000
000001
000001
,
000000
000000
100000
100000
,
000001
000001
000001
000000
100000
100000
100000
000000
,
000010
000010
010000
010000
,
100000
000001
100000
001000
,
000100
000001
010000
100000
,
100000
000001
000001
100000
,
000001
000000
000000
100000
000000
000000
000001
000000
,
000000
000000
000000
000100
000100
000000
000000
000000
,
000010
000100
000000
000000
,
010000
000100
000000
000000
,
000010
000100
000000
000000
,
010000
000100
000000
000000
,
100000
000001
000000
000000
,
100000
100000
000000
000000
,
000001
000001
000000
000000
,
010000
010000
000000
000000
,
100000
000001
000001
000000
,
000001
100000
100001
000000
,
000001
100000
100000
000000
,
100000
000000
000001
000001
,
100000
001000
001000
000000
,
000001
100000
001000
000000
,
100000
000001
000001
000000
,
000001
000000
100000
100000
,
000100
000000
000000
100000
000000
000000
000001
000000
,
000000
000000
000000
000000
,
100000
000000
000000
000001
000000
000000
100000
000000
,
000000
000000
000000
000100
000100
000000
000000
000000
,
010000
000100
000010
000100
,
100000
001000
000001
001000
,
010000
000100
000010
000100
,
100000
000100
000001
000100
,
010000
001000
000010
001000
,
010000
000100
000010
000100
,
100000
010000
000001
000010
,
100000
001000
000001
000000
,
100000
000000
000000
000001
000000
000000
100000
000000
,
000000
000000
000000
010000
000010
000000
000000
000000
;

//---------------dance-solo - ----------------
#NOTES:
     dance-solo:
     :
     Medium:
     3:
     0.196584,0.296286,0.032002,0.000000,0.000000,129.000000,126.000000,3.000000,0.000000,0.000000,0.000000,0.196584,0.296286,0.032002,0.000000,0.000000,129.000000,126.000000,3.000000,0.000000,0.000000,0.000000:
000000
000000
000000
000000
,
000000
000000
000000
000000
,
000000
000000
000000
000000
,
000000
000000
000000
000000
,
000000
000000
000000
000000
,
000000
000000
000100
000100
,
000000
000000
001000
001000
,
000000
000000
000001
000001
,
000000
000000
100000
100000
,
000000
000000
001000
000001
,
000000
000000
100000
001000
,
000010
000000
010000
000000
,
000000
000000
000001
000001
,
000000
000000
100000
100000
,
000100
100000
000001
000000
100000
000001
001000
000000
,
000010
000010
010000
010000
,
001000
001000
000001
000001
,
100000
100000
001000
001000
,
000001
000000
000001
000000
100000
000001
010000
000000
,
000010
000000
000000
100000
000000
000000
000001
000000
,
000000
000000
000000
100000
000001
000000
000000
000000
,
100000
100000
000000
000000
,
000001
000001
000000
000000
,
001000
001000
000000
000000
,
000001
000001
000000
000000
,
000010
000010
000000
000000
,
100000
100000
000000
000000
,
000001
000010
000000
000000
,
010000
100000
000000
000000
,
000010
010000
000001
000000
100000
000000
001000
000000
,
100000
000000
000011
100000
,
001000
000000
000100
000000
,
000001
000000
101000
000001
,
100000
000000
000001
000000
,
100000
000000
000001
000001
,
100000
000000
000100
000000
,
001000
000000
100100
000001
,
000001
000100
000000
000001
100000
000000
000001
001000
,
000000
000000
000000
000000
,
100000
001000
000000
100000
000001
000000
100000
000100
,
000000
000000
000000
000001
100000
000000
000000
000000
,
000000
000000
000100
000100
,
000000
000000
001000
001000
,
000000
000000
100000
100000
,
000000
000000
000001
000001
,
000000
000000
000000
000000
001000
100000
000001
000000
,
000000
000000
000000
000000
000100
000001
100000
000000
,
000000
000000
100000
000001
,
000000
000000
000000
000000
000100
001000
000001
000000
,
000010
000001
000000
100000
001000
000000
000001
001000
,
000000
000000
000000
100000
000001
000000
000000
000000
;

//---------------dance-solo - ----------------
#NOTES:
     dance-solo:
     :
     Hard:
     4:
     0.405359,0.431494,0.149343,0.000000,0.074671,266.000000,252.000000,14.000000,0.000000,0.000000,0.000000,0.405359,0.431494,0.149343,0.000000,0.074671,266.000000,252.000000,14.000000,0.000000,0.000000,0.000000:
000000
000000
000000
000000
,
000000
000000
000000
000000
,
000000
000000
000000
000000
,
000000
000000
000000
000000
,
000000
000000
000000
000000
,
000010
000010
000010
000000
010000
010000
010000
000000
,
000010
000010
000010
000000
010000
000000
000010
000000
,
000010
100000
000010
000000
010000
000000
010000
000000
,
000010
000010
000010
010000
010000
000000
000010
000000
,
000001
000010
000001
000000
010000
000000
010000
000000
,
000010
000010
000010
000000
010000
000000
000010
000000
,
000010
000100
010000
000000
100100
000000
001001
000000
,
000010
000100
010000
000100
000001
000100
100000
000000
,
000010
000100
010000
000000
000001
100000
001000
000000
,
100100
001001
101000
000101
,
000010
000010
000010
000000
010000
010000
010000
000000
,
000010
000100
010000
000000
100100
000000
001001
000000
,
010000
010000
010000
000000
000010
000000
000010
000010
,
000100
010000
000100
000001
100100
000000
001001
000000
,
100000
000010
000000
000000
000000
000000
000100
000001
000000
000000
000000
000000
100000
001000
000000
000000
,
000000
000000
000000
010000
010000
000010
000010
000010
,
000010
010000
000010
000000
010000
010000
010000
000000
,
000010
000001
100000
000010
010000
000000
000010
000000
,
000010
000010
000010
000000
010000
000000
010000
000010
,
000010
000010
000010
000000
010000
000000
000010
000000
,
000010
010000
000010
000000
010000
010000
010000
000000
,
000010
000100
000010
000000
010000
000000
000010
000000
,
000010
000010
000010
000000
100000
010000
000001
000000
,
000010
000010
000010
000000
010000
000001
010000
000000
,
010000
000100
000010
000000
100000
000100
000001
000000
,
010000
000100
000010
000000
100000
000001
100000
000000
,
010000
000100
000010
000100
100000
000100
000001
000000
,
010000
000100
000010
000000
101000
000000
000101
000000
,
010000
000100
000010
000000
100000
001000
000001
000000
,
000001
001000
100000
000000
100000
001000
000001
000000
,
010000
000100
000010
000000
000001
000000
000001
000000
,
010000
000100
000010
000000
101000
000000
000101
000000
,
100000
000001
000000
000000
000000
000000
001000
000100
000000
000000
000000
000000
100000
000001
000000
000000
,
010000
000100
000010
000100
,
100000
000010
000000
000000
000000
000000
000100
000001
000000
000000
000000
000000
100000
001000
000000
000000
,
000000
000000
000000
000001
100000
000000
000000
000000
,
000010
000010
000010
000000
010000
010000
010000
000000
,
000010
000010
000010
000000
010000
000000
000010
000000
,
000010
000100
010000
000000
010000
010000
010000
000000
,
000010
000010
000010
000000
010000
000000
000010
000000
,
000001
000010
000001
000000
010000
000000
010000
000000
,
000010
000010
000010
000010
010000
000000
000010
000000
,
000010
000010
000010
000000
010000
000100
010000
000000
,
000010
000010
000010
000000
010000
000000
000010
000000
,
100000
000001
000000
000000
000000
000000
000100
000001
000000
000000
000000
000000
001000
000100
000000
000000
,
000000
000000
000000
000000
000000
000000
100000
000001
100000
000001
000000
000000
000000
000000
000000
000000
;

//---------------dance-single - ----------------
#NOTES:
     dance-single:
     :
     Beginner:
     3:
     0.163058,0.196946,0.010667,0.000000,0.000000,107.000000,106.000000,1.000000,0.000000,0.000000,0.000000,0.163058,0.196946,0.010667,0.000000,0.000000,107.000000,106.000000,1.000000,0.000000,0.000000,0.000000:
// measure 0
0000
0000
0000
0000
,  // measure 1
0000
0000
0000
0000
,  // measure 2
0000
0000
0000
0000
,  // measure 3
1000
0000
1000
0000
,  // measure 4
0001
0000
0001
0000
,  // measure 5
1000
0000
1000
0000
,  // measure 6
0001
0000
0001
0000
,  // measure 7
1000
0000
1000
0000
,  // measure 8
0001
0000
1000
0000
,  // measure 9
0010
0000
0001
0000
,  // measure 10
1000
0000
0001
0001
,  // measure 11
0000
0000
1000
1000
,  // measure 12
1000
0000
1000
0000
,  // measure 13
0001
0000
1000
0000
,  // measure 14
1000
0000
1000
0000
,  // measure 15
0001
0001
0001
0001
,  // measure 16
0000
0000
0000
0000
,  // measure 17
0001
0000
0001
0000
,  // measure 18
1000
0000
1000
0000
,  // measure 19
0001
0000
0001
0000
,  // measure 20
1000
0000
1000
0000
,  // measure 21
1000
0000
0001
0000
,  // measure 22
1000
0000
0001
0000
,  // measure 23
0001
0000
0100
0000
,  // measure 24
1000
0000
0100
0000
,  // measure 25
1000
0000
0001
0000
,  // measure 26
0001
0000
0001
0000
,  // measure 27
0001
0000
1000
0000
,  // measure 28
1000
0000
0001
0000
,  // measure 29
1000
0000
0100
0000
,  // measure 30
0001
0000
0100
0000
,  // measure 31
1000
0000
0001
0000
,  // measure 32
0001
0000
1000
0000
,  // measure 33
1000
1000
1000
1000
,  // measure 34
0000
0000
0000
0000
,  // measure 35
1000
0000
0001
0000
,  // measure 36
1000
0000
0001
0000
,  // measure 37
1000
0000
0001
0000
,  // measure 38
1000
0000
0001
0000
,  // measure 39
1000
0000
0001
0000
,  // measure 40
1000
0000
0001
0000
,  // measure 41
1000
0000
0001
0000
,  // measure 42
1000
0000
0001
0000
,  // measure 43
1000
1000
0000
0000
,  // measure 44
0001
0001
0000
0000
,  // measure 45
1000
1000
0000
0000
,  // measure 46
0001
0001
0000
0000
,  // measure 47
1000
1000
1000
0000
,  // measure 48
0001
0001
0001
0000
,  // measure 49
0100
0100
0100
0000
,  // measure 50
0010
0010
0010
0000
,  // measure 51
0100
0100
0100
0100
,  // measure 52
0000
0000
0000
1001
;
