#VERSION:0.83;
#TITLE:MOVIN';
#SUBTITLE:(Loopin' Mix);
#ARTIST:NAKA;
#TITLETRANSLIT:;
#SUBTITLETRANSLIT:;
#ARTISTTRANSLIT:;
#GENRE:;
#ORIGIN:;
#CREDIT:;
#BANNER:;
#BACKGROUND:DDR CD-bg.JPG;
#PREVIEWVID:;
#JACKET:MOVIN' (Loopin' Mix)-jacket.jpg;
#CDIMAGE:;
#DISCIMAGE:;
#LYRICSPATH:;
#CDTITLE:;
#MUSIC:MOVIN' (Loopin' Mix).ogg;
#OFFSET:-7.930000;
#SAMPLESTART:53.481998;
#SAMPLELENGTH:12.000000;
#SELECTABLE:YES;
#BPMS:0.000=129.000;
#STOPS:;
#DELAYS:;
#WARPS:;
#TIMESIGNATURES:0.000=4=4;
#TICKCOUNTS:0.000=4;
#COMBOS:0.000=1;
#SPEEDS:0.000=1.000=0.000=0;
#SCROLLS:0.000=1.000;
#FAKES:;
#LABELS:0.000=Song Start;
#BGCHANGES:;
#KEYSOUNDS:;
#ATTACKS:
;

//---------------dance-double - Copied from----------------
#NOTEDATA:;
#CHARTNAME:Copied from;
#STEPSTYPE:dance-double;
#DESCRIPTION:Copied from;
#CHARTSTYLE:;
#DIFFICULTY:Edit;
#METER:8;
#RADARVALUES:0.512152,0.471489,0.163488,0.000000,0.099261,307.000000,293.000000,14.000000,0.000000,0.000000,0.000000,0.000000,0.000000,0.000000,0.512152,0.471489,0.163488,0.000000,0.099261,307.000000,293.000000,14.000000,0.000000,0.000000,0.000000,0.000000,0.000000,0.000000;
#CREDIT:Copied from;
#NOTES:
00011000
00010000
01000000
00000000
01000000
10000000
00100000
00000000
,
00100000
00010000
00001000
00000000
00001000
00000100
00000001
00000000
,
00000001
00000010
00001000
00000000
00001000
00010000
01000000
00000000
,
10000000
00100000
01000000
00000000
01000000
00001000
00010000
00000000
,
00001000
00000100
00000001
00000100
00001000
00010000
00001000
00001000
,
00010000
01000000
10000000
01000000
00010000
00001000
00011000
00000000
,
00001000
00000010
00000001
00000010
00001000
00010000
00001000
00001000
,
00010000
00100000
10000000
00100000
00010000
00001000
00011000
00000000
,
00001000
01000000
00100000
10000000
00010000
00010000
01000000
00000000
,
00001000
00010000
00001000
00010000
00000100
00000000
00000010
00000000
00000001
00000000
00000001
00000000
00000100
00000000
00000000
00000000
,
00000001
00000000
00000100
00001000
00000000
00000100
00001000
00000000
00010000
00000000
00100000
10000000
00000000
10000000
01000000
00000000
,
01000000
00010000
00001000
00000100
00000001
00000010
00000001
00000100
,
00000101
00000000
00000001
00000010
00000100
00000000
00000100
00010000
,
00001000
00100000
00010000
01000000
00100000
10000000
01000000
00100000
,
00010000
00000000
00010000
10000000
10100000
00000000
00100000
01000000
,
00001000
00010000
00000100
00000010
00000001
00001000
00000010
00000100
,
00000101
00000000
00000001
00000100
00001000
00000000
00010000
01000000
,
10000000
01000000
00010000
00001000
00010000
01000000
10000000
00100000
,
10000000
00000000
10000000
00100000
00010000
00000000
00010000
00001000
,
00011000
00000000
00000000
00000000
,
00000000
00000000
00000000
00010000
00000000
00000000
00001000
00000000
00010000
01000000
00000000
00000000
10000000
00000000
00000000
01000000
00000000
00000000
00100000
00000000
00000000
00001000
00000000
00000000
,
00010000
00000010
00000100
00000001
00000010
00000100
00010000
00001000
,
00100000
00010000
00110000
00000000
00010000
10000000
00100000
01000000
,
00001000
00010000
00000100
00000010
00000001
00001000
00000010
00000100
,
00000001
00001000
00001001
00000000
00000011
00000010
00000100
00010000
,
00001000
00100000
00010000
01000000
00100000
10000000
01000000
00100000
,
00010000
10000000
11000000
00000000
10000000
00100000
01000000
00001000
,
00010000
00000100
00000010
00000001
00000100
00000010
00001000
00000100
,
00000010
00000001
00000100
00000000
00000101
00000001
00000100
00000010
,
00000100
00000000
00001000
00000000
00010000
00000000
01000000
00000000
00100000
00010000
10000000
00000000
00100000
00000000
00010000
00000000
,
00001000
00000100
00000010
00001000
00000100
00000001
00000100
00010000
,
00001000
00000000
00100000
00000000
00010000
00000000
01000000
00000000
00100000
10000000
00010000
00000000
10000000
00000000
01000000
00000000
,
00100000
00010000
01000000
10000000
01000000
00100000
10000000
01000000
,
00010000
00000000
00001000
00000000
00000100
00000000
00000001
00000000
00000010
00000001
00001000
00000000
00000100
00000000
00000010
00000000
,
00000100
00010000
01000000
10000000
00100000
00010000
00001000
00000100
,
00000001
00000000
00000010
00000000
00001000
00000000
00000010
00000000
00000001
00000100
00000010
00000000
00001000
00000000
00000100
00000000
,
00010000
00001000
00100000
00010000
10010000
00000000
10000000
00000000
,
00100000
00000000
00000000
00100000
00000000
00000000
00100000
00000000
00010000
00001000
00010000
00000000
00001000
00000000
00000000
00000000
,
00000100
00000000
00000000
00000100
00000000
00000000
00000100
00000000
00000001
00000000
00000000
00000000
00000010
00000000
00000000
00000000
,
00001000
00000000
00000000
00001000
00000000
00000000
00001000
00000000
00010000
00001000
00010000
00000000
01000000
00000000
00000000
00000000
,
10000000
00000000
00000000
10000000
00000000
00000000
10010000
00000000
00000000
00000000
00000000
00000000
00000000
00000000
00000000
00000000
;

//---------------dance-single - ----------------
#NOTEDATA:;
#CHARTNAME:;
#STEPSTYPE:dance-single;
#DESCRIPTION:;
#CHARTSTYLE:;
#DIFFICULTY:Hard;
#METER:11;
#RADARVALUES:0.452095,0.499661,0.058389,0.070066,0.356171,271.000000,266.000000,5.000000,6.000000,0.000000,0.000000,0.000000,0.000000,0.000000,0.452095,0.499661,0.058389,0.070066,0.356171,271.000000,266.000000,5.000000,6.000000,0.000000,0.000000,0.000000,0.000000,0.000000;
#CREDIT:;
#NOTES:
0000
0000
0000
0000
,
0000
0000
0000
0000
,
0000
0000
1000
0000
0001
0000
0000
0100
0000
0000
0001
0000
1000
0000
0000
0100
,
0000
0000
1000
0000
0001
0000
0000
0100
0000
0000
0001
0000
1000
0000
0000
0100
,
1000
0100
0001
0100
1000
0100
0001
0100
,
1000
0001
1000
0001
0100
0010
0100
0010
,
1000
0001
0100
0001
1000
0100
1000
0001
,
0100
0010
0100
0001
0100
0010
0100
0001
,
1000
0100
0010
0100
1000
0100
0010
0100
,
1000
0010
0100
0010
1000
0010
0100
0010
,
1000
0100
1000
0001
0100
0001
1000
0100
,
1000
0001
0100
0001
1000
0100
1000
0001
,
1000
0000
0110
0000
1000
0001
0100
0010
,
0100
0001
1000
0010
0100
0010
0100
0001
,
0100
0000
1001
0000
0001
0100
0010
1000
,
0010
1000
0100
1000
0010
0100
0001
0100
,
0010
0120
0000
1000
,
0000
0100
0000
0001
,
0000
0100
0000
1030
,
2002
0000
0000
0000
,
3003
0000
0100
0000
0001
1000
0100
0000
1000
0000
0100
0000
1000
0000
0000
1000
,
0000
0000
0001
0000
0100
0000
0000
0001
0000
0000
0001
0000
0100
0000
0000
0100
,
0000
0000
0010
0000
0010
0000
0000
0010
0000
0000
1000
0000
1000
0000
0000
1000
,
0000
0000
0001
0000
0001
0000
0000
0001
0000
0000
0100
0000
0001
0000
0000
0100
,
0000
0000
0010
0000
1000
0000
0000
0100
0000
0000
0010
0000
0001
0000
0000
0100
,
0000
0000
0010
0000
1000
0000
0000
0100
0000
0000
0010
0000
0001
0000
0000
0100
,
0000
0000
0010
0000
1000
0000
0000
0100
0000
0000
0010
0000
0001
0000
0000
0100
,
0000
0000
0010
0000
1000
0000
0000
0100
0000
0000
0010
0000
0001
0000
0000
0100
,
0000
0000
0010
0000
1000
0000
0000
0100
0000
0000
1000
0000
0010
0000
0100
0001
,
0000
0001
0100
0000
0010
0000
0100
0001
0000
0001
1000
0000
1000
0000
0010
0100
,
0000
0100
0001
0000
0001
0000
0100
0010
0000
0010
1000
0000
1000
0000
0100
1000
,
0000
0010
0100
0000
0001
0000
0100
0001
0000
0100
0010
0000
1000
0000
0010
1000
,
0000
0001
1000
0000
0100
0000
1000
0010
0000
0100
0001
0000
0100
0000
0010
0100
,
0000
0001
1000
0000
0100
0000
1000
0010
0000
1000
0010
0000
0100
0000
0001
0100
,
0000
0001
0100
0000
0010
0000
0100
0001
0000
0100
0001
0000
0010
0000
0001
0010
,
0000
0010
0001
0000
1000
0000
0010
0100
0000
0100
0010
0000
1000
0000
0001
1000
,
0000
0100
1000
0000
0001
0000
1000
0001
2000
0000
0000
0000
0100
0000
0000
0000
,
3100
0000
0000
0001
0000
0000
0100
0001
0000
0001
0000
0000
0100
0000
0000
0000
,
0010
0000
0000
1000
0000
0000
0100
0000
0000
1000
0000
0000
0010
0000
0000
0000
,
0100
0000
0000
0001
0000
0000
0100
0010
0000
0010
0000
0000
0100
0000
0000
0000
,
0001
0000
0000
0100
0000
0000
2002
0000
0000
0000
0000
0000
3003
0000
0000
0000
;

//---------------dance-single - ----------------
#NOTEDATA:;
#CHARTNAME:;
#STEPSTYPE:dance-single;
#DESCRIPTION:;
#CHARTSTYLE:;
#DIFFICULTY:Medium;
#METER:7;
#RADARVALUES:0.380361,0.380694,0.116777,0.221877,0.000000,228.000000,218.000000,10.000000,19.000000,0.000000,0.000000,0.000000,0.000000,0.000000,0.380361,0.380694,0.116777,0.221877,0.000000,228.000000,218.000000,10.000000,19.000000,0.000000,0.000000,0.000000,0.000000,0.000000;
#CREDIT:;
#NOTES:
0000
0000
0000
0000
,
0000
0000
0000
0000
,
1000
0100
0001
0100
1000
0100
0001
0000
,
0001
0100
1000
0100
0001
0100
1000
0000
,
1000
0000
0010
0000
0100
0100
0001
0000
,
0100
0000
0010
0000
1000
1000
0100
0000
,
1000
0000
0001
0000
0100
0001
0001
0000
,
1000
0000
0100
0000
1000
1000
0001
0000
,
0100
0000
0010
0000
0100
0001
0001
0000
,
1000
0000
0100
0000
1000
0001
0001
0000
,
0100
0000
0001
0000
1000
0010
0010
0000
,
0100
0000
0001
0000
1000
1000
0010
0000
,
1002
0100
0010
0103
,
2001
0010
0100
3010
,
1002
0010
0100
0013
,
2001
0010
0100
3010
,
1002
1000
0010
0013
,
2100
0100
0001
3001
,
1002
0103
2010
3001
,
0012
0103
2010
3100
,
0000
0001
1000
0001
1000
0100
0001
0100
,
1000
0100
0001
0000
0001
0100
1000
0100
,
0001
0100
1000
0000
1000
0010
0001
0010
,
1000
0010
0001
0000
0001
0010
1000
0010
,
0001
0010
1000
0000
1000
0100
0010
0100
,
1000
0100
0010
0000
0010
0100
1000
0100
,
0010
0100
1000
0000
0001
0100
0010
0100
,
0001
0100
0010
0000
0010
0100
0001
0100
,
0010
0100
0001
0000
1000
0100
0001
0100
,
1000
0100
0001
0000
0001
0100
1000
0100
,
0001
0100
1000
0000
1000
0010
0001
0010
,
1000
0010
0001
0000
0001
0010
1000
0010
,
0001
0010
1000
0000
1000
0100
1000
0100
,
1000
0100
1000
0000
0001
0100
0001
0100
,
0001
0100
0001
0000
0100
0010
0100
0010
,
0100
0010
0100
0000
0010
1000
0010
1000
,
0010
1000
0010
0000
0200
0000
0301
0000
,
0002
0013
0020
0130
,
0200
1300
2000
3010
,
0020
0130
0200
0301
,
0002
0000
1000
2000
0000
0000
3003
0000
;

//---------------dance-single - ----------------
#NOTEDATA:;
#CHARTNAME:;
#STEPSTYPE:dance-single;
#DESCRIPTION:;
#CHARTSTYLE:;
#DIFFICULTY:Easy;
#METER:4;
#RADARVALUES:0.245233,0.237934,0.070066,0.093422,0.000000,147.000000,141.000000,6.000000,8.000000,0.000000,0.000000,0.000000,0.000000,0.000000,0.245233,0.237934,0.070066,0.093422,0.000000,147.000000,141.000000,6.000000,8.000000,0.000000,0.000000,0.000000,0.000000,0.000000;
#CREDIT:;
#NOTES:
0000
0000
0000
0000
,
0000
0000
0000
0000
,
1000
0100
0001
0010
,
1000
0100
0001
0010
,
1000
1000
0100
0010
,
0001
0001
0010
0100
,
1000
1000
0010
0100
,
0001
0001
0100
0010
,
1000
0100
1000
1000
,
0001
0100
0001
0001
,
1000
0010
1000
1000
,
0001
0010
0001
0001
,
1002
0000
0103
0000
,
1000
0001
1000
0001
,
2001
0000
3100
0000
,
0001
1000
0001
1000
,
1002
0000
0103
0000
,
1000
0001
1000
0001
,
2001
0000
3100
0000
,
0001
1000
0001
1000
,
0200
0000
1300
0100
,
0001
0010
1000
0100
,
0001
0010
1000
0100
,
0001
0010
1000
1000
,
1000
1000
1000
0010
,
0001
0100
1000
0010
,
0001
0100
1000
0010
,
0001
0100
1000
1000
,
1000
1000
1000
0100
,
0001
0010
1000
0100
,
0001
0010
1000
0100
,
0001
0010
1000
1000
,
1000
1000
1000
0010
,
0001
0100
1000
0010
,
0001
0100
1000
0010
,
0001
0100
1000
1000
,
1000
1000
1002
0000
,
0100
0100
1000
0000
,
1003
0000
2001
0000
,
0100
0100
0001
0000
,
0001
0001
0002
3003
;

//---------------dance-single - ----------------
#NOTEDATA:;
#CHARTNAME:;
#STEPSTYPE:dance-single;
#DESCRIPTION:;
#CHARTSTYLE:;
#DIFFICULTY:Beginner;
#METER:1;
#RADARVALUES:0.146806,0.165532,0.023355,0.046711,0.000000,88.000000,86.000000,2.000000,4.000000,0.000000,0.000000,0.000000,0.000000,0.000000,0.146806,0.165532,0.023355,0.046711,0.000000,88.000000,86.000000,2.000000,4.000000,0.000000,0.000000,0.000000,0.000000,0.000000;
#CREDIT:;
#NOTES:
0000
0000
0000
0000
,
0000
0000
0000
0000
,
1000
1000
1000
1000
,
2000
0000
3000
0000
,
0001
0000
0001
0000
,
0100
0000
0100
0000
,
0010
0000
0010
0000
,
1000
0000
1000
0000
,
0001
0000
0001
0000
,
0100
0000
0100
0000
,
0010
0000
0010
0000
,
1000
0000
1000
0000
,
1001
0000
0000
0000
,
0100
0000
0100
0000
,
1001
0000
0000
0000
,
0010
0000
0010
0000
,
1000
0000
0000
0000
,
0100
0000
0000
0000
,
0010
0000
0000
0000
,
0002
0000
0000
0000
,
0003
0000
0100
0100
,
0100
0000
0010
0010
,
0010
0000
1000
1000
,
1000
0000
0001
0001
,
0001
0000
0100
0100
,
0100
0000
0001
0001
,
0001
0000
0010
0010
,
0010
0000
1000
1000
,
1000
0000
0001
0001
,
0001
0000
1000
1000
,
1000
0000
0010
0010
,
0010
0000
0100
0100
,
0100
0000
0001
0001
,
0001
0000
1000
1000
,
1000
0000
0100
0100
,
0100
0000
1000
1000
,
1000
0000
0010
0000
,
0010
0000
0020
0000
,
0030
0000
0100
0000
,
0100
0000
0100
0000
,
0200
0000
0300
0000
;
