#VERSION:0.83;
#TITLE:MOVE YOUR BODY;
#SUBTITLE:(UK AIRPLAY MIX);
#ARTIST:MAXX;
#TITLETRANSLIT:;
#SUBTITLETRANSLIT:;
#ARTISTTRANSLIT:;
#GENRE:;
#ORIGIN:;
#CREDIT:;
#BANNER:;
#BACKGROUND:DDR CD-bg.JPG;
#PREVIEWVID:;
#JACKET:MOVE YOUR BODY (UK AIRPLAY MIX)-jacket.jpg;
#CDIMAGE:;
#DISCIMAGE:;
#LYRICSPATH:;
#CDTITLE:;
#MUSIC:MOVE YOUR BODY (UK AIRPLAY MIX).ogg;
#OFFSET:-0.840000;
#SAMPLESTART:21.699987;
#SAMPLELENGTH:14.999996;
#SELECTABLE:YES;
#BPMS:0.000=137.960;
#STOPS:;
#DELAYS:;
#WARPS:;
#TIMESIGNATURES:0.000=4=4;
#TICKCOUNTS:0.000=4;
#COMBOS:0.000=1;
#SPEEDS:0.000=1.000=0.000=0;
#SCROLLS:0.000=1.000;
#FAKES:;
#LABELS:0.000=Song Start;
#BGCHANGES:;
#KEYSOUNDS:;
#ATTACKS:
;

//---------------dance-single - ----------------
#NOTEDATA:;
#CHARTNAME:;
#STEPSTYPE:dance-single;
#DESCRIPTION:;
#CHARTSTYLE:;
#DIFFICULTY:Beginner;
#METER:3;
#RADARVALUES:0.157685,0.255006,0.118264,0.098553,0.000000,112.000000,100.000000,12.000000,10.000000,0.000000,0.000000,0.000000,0.000000,0.000000,0.157685,0.255006,0.118264,0.098553,0.000000,112.000000,100.000000,12.000000,10.000000,0.000000,0.000000,0.000000,0.000000,0.000000;
#CREDIT:;
#NOTES:
// measure 0
0000
0000
0000
0000
,  // measure 1
0000
0000
0000
0000
,  // measure 2
0000
0000
0000
0000
,  // measure 3
0000
0000
0000
0000
,  // measure 4
1000
1000
0000
0000
,  // measure 5
1000
1000
0000
0000
,  // measure 6
0001
0001
0000
0000
,  // measure 7
0001
0001
0000
0000
,  // measure 8
0100
0100
0000
0000
,  // measure 9
0100
0100
0000
0000
,  // measure 10
0010
0010
0000
0000
,  // measure 11
0010
0010
0000
0000
,  // measure 12
1000
0000
1000
0000
,  // measure 13
2000
0000
3000
0000
,  // measure 14
0001
0000
0001
0000
,  // measure 15
0002
0000
0003
0000
,  // measure 16
0100
0000
0100
0000
,  // measure 17
0200
0000
0300
0000
,  // measure 18
0010
0000
0010
0000
,  // measure 19
0020
0000
0030
0000
,  // measure 20
1000
1000
1000
1000
,  // measure 21
1000
1000
1000
0000
,  // measure 22
0001
0001
0001
0001
,  // measure 23
0001
0001
0001
0000
,  // measure 24
0100
0100
0100
0100
,  // measure 25
0100
0100
0100
0000
,  // measure 26
0010
0010
0010
0010
,  // measure 27
0010
0010
0010
0000
,  // measure 28
1001
0000
0000
0000
,  // measure 29
1001
0000
0000
0000
,  // measure 30
1001
0000
0000
0000
,  // measure 31
1001
0000
0000
0000
,  // measure 32
0110
0000
0000
0000
,  // measure 33
0110
0000
0000
0000
,  // measure 34
0110
0000
0000
0000
,  // measure 35
0110
0000
0000
0000
,  // measure 36
1000
1000
0000
0000
,  // measure 37
0001
0001
0000
0000
,  // measure 38
0100
0100
0000
0000
,  // measure 39
0010
0010
0000
0000
,  // measure 40
1001
0000
0000
0000
,  // measure 41
1001
0000
0000
0000
,  // measure 42
0110
0000
0000
0000
,  // measure 43
0110
0000
0000
0000
,  // measure 44
2000
0000
3000
0000
,  // measure 45
0002
0000
0003
0000
,  // measure 46
1000
0000
1000
0000
,  // measure 47
2000
0000
3000
0000
,  // measure 48
0001
0000
0001
0000
,  // measure 49
0002
0000
0003
0000
,  // measure 50
0100
0000
0100
0000
,  // measure 51
0200
0000
0300
0000
,  // measure 52
0010
0000
0010
0000
,  // measure 53
0020
0000
0030
0000
,  // measure 54
1000
1000
1000
0000
,  // measure 55
1000
0000
1000
0000
,  // measure 56
0001
0001
0001
0000
,  // measure 57
0001
0000
0001
0000
;

//---------------dance-single - ----------------
#NOTEDATA:;
#CHARTNAME:;
#STEPSTYPE:dance-single;
#DESCRIPTION:;
#CHARTSTYLE:;
#DIFFICULTY:Hard;
#METER:13;
#RADARVALUES:0.567385,0.595015,0.551898,0.157685,0.083770,403.000000,347.000000,56.000000,16.000000,0.000000,0.000000,0.000000,0.000000,0.000000,0.567385,0.595015,0.551898,0.157685,0.083770,403.000000,347.000000,56.000000,16.000000,0.000000,0.000000,0.000000,0.000000,0.000000;
#CREDIT:;
#NOTES:
0000
0000
0000
0000
,
0000
0000
0000
0000
,
0000
0000
0000
0000
,
0000
0000
0000
0000
,
1000
0000
0000
1000
0000
0000
1000
0000
0001
0000
0000
0001
0000
0000
0001
0000
,
0100
0000
0000
0100
0000
0000
0100
0000
0000
0100
0010
0000
0100
0000
0001
0000
,
0010
0000
0000
0010
0000
0000
0010
0000
0001
0000
0000
0001
0000
0000
0001
0000
,
1000
0000
0000
1000
0000
0000
1000
0000
0000
0100
1000
0000
0010
0000
0100
0000
,
0001
0000
0000
1000
0000
0000
0010
0000
0100
0000
0000
0001
0000
0000
1000
0000
,
0100
0000
0000
1000
0000
0000
0010
0000
0000
0010
0100
0000
0100
0000
0001
0000
,
0010
0000
0000
0001
0000
0000
1000
0000
0100
0000
0000
1000
0000
0000
0010
0000
,
0100
0000
0000
0001
0000
0000
1000
0000
0000
0010
0100
0000
0010
0000
0100
0000
,
1001
0100
0010
0100
1001
0100
0010
0100
,
1001
0100
0001
0100
0010
1000
0100
1000
,
1001
1000
0010
0100
1001
0001
0100
0010
,
1001
0100
0001
0010
0001
0100
0010
1000
,
1001
1000
0100
1000
1001
0001
0100
0001
,
1001
0010
1000
0100
1000
0010
0100
0010
,
1001
0100
1000
0010
1001
0100
0001
0010
,
1001
0100
0010
0100
0010
0100
0010
0100
,
1002
0100
0010
0013
,
2001
0010
0100
3100
,
1002
0100
1000
1003
,
2001
0010
0001
3001
,
1002
0100
0100
0013
,
2001
0100
0100
3010
,
1002
0103
2001
3010
,
1002
0000
0000
0000
0103
0000
0000
0000
2001
0000
0000
0000
3010
0000
0000
0010
,
1000
0001
0100
0001
0100
0010
1000
0010
,
1000
0001
0100
0010
0100
0010
1000
0100
,
1000
0010
0100
0010
1000
0001
0100
0001
,
0100
0010
0100
0001
0100
0010
1000
0100
,
1000
0001
0100
0010
0100
0001
1000
0100
,
1000
0010
0100
0001
1000
0100
1000
0001
,
0100
0001
1000
0100
1000
0001
0100
0001
,
1000
0010
0100
0010
0100
0001
0010
0001
,
1001
0000
1001
0000
0000
0101
0000
0101
,
0011
0000
0011
0000
0000
1100
0000
1100
,
1010
0000
1010
0000
0000
1001
0000
1001
,
0101
0000
1010
0000
0000
0110
0000
1001
,
0100
0001
0100
0010
1000
0010
1000
0010
,
0100
0001
0100
0001
0010
0001
0010
0001
,
1000
0100
1000
0100
1000
0100
0010
0001
,
0100
0010
1000
0100
0010
0001
0100
0010
,
1002
0100
0010
0103
,
2001
0100
0010
3100
,
1001
0100
0010
0100
1001
0100
0010
0100
,
1001
0100
0001
0100
0010
1000
0100
1000
,
1001
1000
0010
0100
1001
0001
0100
0010
,
1001
0100
0001
0010
0001
0100
0010
1000
,
1001
1000
0100
1000
1001
0001
0100
0001
,
1001
0010
1000
0100
1000
0010
0100
0010
,
1001
0100
1000
0010
1001
0100
0001
0010
,
1001
0100
0010
0100
0010
0100
0010
0100
,
1002
0100
0010
0013
,
2001
0010
0100
3100
,
1000
0001
0100
0010
,
1001
2002
3003
0000
;

//---------------dance-single - ----------------
#NOTEDATA:;
#CHARTNAME:;
#STEPSTYPE:dance-single;
#DESCRIPTION:;
#CHARTSTYLE:;
#DIFFICULTY:Medium;
#METER:7;
#RADARVALUES:0.363239,0.340009,0.108409,0.068987,0.059132,258.000000,247.000000,11.000000,7.000000,0.000000,0.000000,0.000000,0.000000,0.000000,0.363239,0.340009,0.108409,0.068987,0.059132,258.000000,247.000000,11.000000,7.000000,0.000000,0.000000,0.000000,0.000000,0.000000;
#CREDIT:;
#NOTES:
0000
0000
0000
0000
,
0000
0000
0000
0000
,
0000
0000
0000
0000
,
0000
0000
0000
0000
,
1000
0000
0000
1000
0000
0000
1000
0000
0001
0000
0000
0001
0000
0000
0001
0000
,
0100
0000
0000
0100
0000
0000
0100
0000
0020
0000
0000
0000
0000
0000
0000
0000
,
0130
0000
0000
0100
0000
0000
0100
0000
0001
0000
0000
0001
0000
0000
0001
0000
,
0010
0000
0000
0010
0000
0000
0010
0000
0200
0000
0000
0000
0000
0000
0000
0000
,
1300
0000
0000
0001
0000
0000
0100
0000
0010
0000
0000
1000
0000
0000
0100
0000
,
1000
0000
0000
0001
0000
0000
0100
0000
0020
0000
0000
0000
0000
0000
0000
0000
,
0130
0000
0000
0010
0000
0000
1000
0000
0001
0000
0000
0100
0000
0000
0010
0000
,
0100
0000
0000
0010
0000
0000
1000
0000
0200
0000
0000
0000
0000
0000
0000
0000
,
1300
1000
1000
0000
0001
0001
0001
0000
,
0100
0001
0100
0010
,
0010
0010
0010
0000
0100
0100
0100
0000
,
0010
1000
0100
1000
,
0001
0001
0001
0000
0100
0100
0100
0000
,
0010
1000
0010
0100
,
0010
0010
0010
0000
1000
1000
1000
0000
,
0001
0100
0001
1000
,
1001
0100
0100
0100
,
1001
0100
0100
0100
,
0001
0100
1000
0100
,
0001
0100
1000
0100
,
0001
0001
0110
0001
,
1000
1000
0110
1000
,
0001
1000
0010
0100
,
0001
0100
1000
0010
,
1001
0000
0100
0000
0001
0001
0001
0000
,
0100
0000
0010
0000
1000
1000
1000
0000
,
0100
0000
1000
0000
0010
0010
0010
0000
,
0100
0000
0001
0000
1000
1000
1000
0000
,
0010
0000
0100
0000
0001
0001
0001
0000
,
1000
0000
0100
0000
1000
1000
1000
0000
,
0010
0000
0100
0000
0010
0010
0010
0000
,
0100
0000
0010
0000
0100
0100
0100
0000
,
0001
0000
0100
0000
0000
0010
0000
1000
,
0001
0000
0010
0000
0000
0100
0000
1000
,
0010
0000
0100
0000
0000
0001
0000
1000
,
0100
0000
1000
0000
0000
0010
0000
0100
,
0001
0000
0100
0000
0010
0010
0010
0000
,
1000
0000
0100
0000
1000
1000
1000
0000
,
0001
0000
0100
0000
0010
0010
0010
0000
,
1000
0000
0010
0000
0100
0100
0100
0000
,
1002
0100
0000
0100
,
0000
0010
0000
0010
,
1003
1000
1000
0000
0001
0001
0001
0000
,
0100
0001
0100
0010
,
0010
0010
0010
0000
0100
0100
0100
0000
,
0010
1000
0100
1000
,
0001
0001
0001
0000
0100
0100
0100
0000
,
0010
1000
0010
0100
,
0010
0010
0010
0000
1000
1000
1000
0000
,
0001
0100
0001
1000
,
1001
0100
0100
0100
,
1001
0100
0100
0100
,
1001
0100
0100
0100
,
1001
2002
3003
0000
;

//---------------dance-single - ----------------
#NOTEDATA:;
#CHARTNAME:;
#STEPSTYPE:dance-single;
#DESCRIPTION:;
#CHARTSTYLE:;
#DIFFICULTY:Easy;
#METER:5;
#RADARVALUES:0.306923,0.340009,0.226672,0.325226,0.000000,218.000000,195.000000,23.000000,33.000000,0.000000,0.000000,0.000000,0.000000,0.000000,0.306923,0.340009,0.226672,0.325226,0.000000,218.000000,195.000000,23.000000,33.000000,0.000000,0.000000,0.000000,0.000000,0.000000;
#CREDIT:;
#NOTES:
0000
0000
0000
0000
,
0000
0000
0000
0000
,
0000
0000
0000
0000
,
0000
0000
0000
0000
,
2000
0000
3002
0000
,
0203
0000
0320
0000
,
2030
0000
3200
0000
,
2300
0000
3002
0000
,
0203
0000
0320
0000
,
2030
0000
3002
0000
,
0203
0000
0320
0000
,
0230
0000
0302
0000
,
0103
0101
0100
0101
,
0001
1000
0001
1000
,
1000
1100
1000
1100
,
0010
0100
0010
0100
,
0100
0101
0100
0101
,
0001
1000
0010
1000
,
0010
1010
0010
1010
,
0010
1000
0100
1000
,
0001
0001
1000
1000
,
0001
0100
0010
1000
,
0010
0010
0100
0100
,
0010
0100
0001
1000
,
0100
0100
1000
1000
,
0010
0100
0001
0010
,
0001
0001
0010
0010
,
0100
1000
0010
0100
,
0001
2000
3100
1000
,
0010
0200
0301
0100
,
0010
0020
1030
1000
,
0001
0200
0301
0001
,
0100
0020
1030
0001
,
0100
0002
0013
0001
,
0100
0020
1030
0100
,
1000
2000
3010
0100
,
1001
1001
0100
0100
,
0001
1000
0010
1000
,
1001
1001
1000
0010
,
0100
0001
0100
0010
,
1000
0001
0200
0301
,
1000
0010
0200
0301
,
0001
0010
0200
1300
,
0001
1000
0020
0130
,
1001
0200
0000
0320
,
0000
0230
0000
0301
,
0100
0101
0100
0101
,
0001
1000
0001
1000
,
1000
1100
1000
1100
,
0010
0100
0010
0100
,
0100
0101
0100
0101
,
0001
1000
0010
1000
,
0010
1010
0010
1010
,
0010
1000
0100
1000
,
0001
0001
1000
1000
,
0001
0100
0010
1000
,
0010
0010
0100
0100
,
1001
2002
3003
0000
;
