#VERSION:0.83;
#TITLE:MELANCHOLY VISION;
#SUBTITLE:;
#ARTIST:DE-SIRE;
#TITLETRANSLIT:;
#SUBTITLETRANSLIT:;
#ARTISTTRANSLIT:;
#GENRE:;
#ORIGIN:;
#CREDIT:;
#BANNER:Melancholy Vision.png;
#BACKGROUND:Melancholy Vision-bg.png;
#PREVIEWVID:;
#JACKET:Melancholy Vision-jacket.png;
#CDIMAGE:;
#DISCIMAGE:;
#LYRICSPATH:;
#CDTITLE:;
#MUSIC:Melancholy Vision.ogg;
#OFFSET:-0.080000;
#SAMPLESTART:33.820011;
#SAMPLELENGTH:12.000000;
#SELECTABLE:YES;
#BPMS:0.000=128.020,
71.500=256.040;
#STOPS:;
#DELAYS:;
#WARPS:;
#TIMESIGNATURES:0.000=4=4;
#TICKCOUNTS:0.000=4;
#COMBOS:0.000=1;
#SPEEDS:0.000=1.000=0.000=0;
#SCROLLS:0.000=1.000;
#FAKES:;
#LABELS:0.000=Song Start;
#BGCHANGES:;
#KEYSOUNDS:;
#ATTACKS:
;

//---------------dance-single - ----------------
#NOTEDATA:;
#CHARTNAME:;
#STEPSTYPE:dance-single;
#DESCRIPTION:;
#CHARTSTYLE:;
#DIFFICULTY:Hard;
#METER:17;
#RADARVALUES:0.897794,1.354743,0.180774,0.000000,0.622076,591.000000,574.000000,17.000000,0.000000,0.000000,0.000000,0.000000,0.000000,0.000000,0.897794,1.354743,0.180774,0.000000,0.622076,591.000000,574.000000,17.000000,0.000000,0.000000,0.000000,0.000000,0.000000,0.000000;
#CREDIT:;
#NOTES:
// measure 0
0000
0000
0000
0000
,  // measure 1
0000
0000
0000
0000
,  // measure 2
0000
0000
0000
0000
,  // measure 3
0000
0000
0000
0000
,  // measure 4
1000
0100
0001
1000
0010
0001
1000
0100
0001
1000
0010
0001
,  // measure 5
1000
0100
0001
1000
0010
0001
1000
0100
0001
1000
0010
0001
,  // measure 6
1000
0100
0010
0001
0010
0100
1000
0100
0010
0001
0010
0100
,  // measure 7
1000
0010
0100
0001
0100
0010
1000
0010
0100
0001
0100
0010
,  // measure 8
1000
0100
1000
0001
0100
0001
1000
0010
1000
0001
0010
0001
,  // measure 9
1000
0010
0100
0001
0100
0010
1000
0010
0100
0001
0100
0010
,  // measure 10
1000
1000
0010
0010
0100
0100
0001
0001
0010
0010
0001
0001
,  // measure 11
0100
0100
0010
0010
1000
1000
0100
0100
1000
1000
0010
0010
,  // measure 12
0100
0001
0100
0010
1000
0010
1000
0100
1000
0010
0100
0001
,  // measure 13
0100
0010
1000
0100
0010
0100
1000
0010
0100
0001
0100
0010
,  // measure 14
0100
1000
0100
0010
1000
0100
0010
0100
1000
0010
0100
0001
,  // measure 15
1000
0100
0010
0001
0100
0010
1000
0100
0010
0001
0100
0010
,  // measure 16
1000
0100
1000
0100
0010
0100
0010
0100
1000
0001
1000
0001
0100
0001
0100
0001
,  // measure 17
0100
0010
0100
0010
1000
0010
1000
0010
1000
0100
1000
0100
1000
0010
1000
0000
,  // measure 18
0000
1000
0100
0010
0001
0100
0010
1000
,  // measure 19
0100
0010
0001
0100
0010
1000
0001
0100
,  // measure 20
0000
0010
1000
0001
0100
0010
1000
0001
,  // measure 21
0100
0010
1000
0010
0100
0010
0001
0010
,  // measure 22
0000
1000
0100
0010
0100
1000
0010
0100
,  // measure 23
0010
1000
0100
0010
0100
1000
0010
0100
,  // measure 24
0000
0001
0100
0010
0100
0001
0010
0100
,  // measure 25
0010
0001
0100
0010
0100
0001
0010
0100
,  // measure 26
0000
1000
0100
0001
1000
0010
0001
1000
,  // measure 27
0100
0001
1000
0010
0001
1000
0100
0001
,  // measure 28
0000
0001
0100
0010
0001
0100
0010
0001
,  // measure 29
0100
0010
0001
0100
0010
0001
0100
0010
,  // measure 30
0000
1000
0100
1000
0100
0010
0001
0010
,  // measure 31
0001
0100
0001
0100
0001
1000
0010
1000
,  // measure 32
0010
1000
0100
0010
0001
1000
0100
0010
,  // measure 33
0001
1000
0100
0010
0001
1000
0100
0010
,  // measure 34
0001
0000
0100
0001
0100
0001
0100
0000
0000
0000
0010
1000
0010
1000
0010
0000
,  // measure 35
0000
0000
1000
0001
1000
0001
0100
0000
0000
0000
0010
0000
0100
0000
0001
0000
,  // measure 36
0100
0010
1000
0100
1000
0010
0100
0010
,  // measure 37
0100
0001
1000
0001
1000
0001
0100
0001
,  // measure 38
0100
0001
1000
0001
1000
0001
0010
0001
,  // measure 39
0010
0001
0100
0010
1000
0100
1000
0010
,  // measure 40
1000
0100
1000
0100
1000
0010
0100
0010
,  // measure 41
0100
0001
0010
0001
0100
0010
0100
0010
,  // measure 42
1000
0100
1000
0100
1000
0010
0100
0001
,  // measure 43
0100
0001
0010
0001
0100
0010
1000
0100
,  // measure 44
0010
0001
1000
0100
0010
0001
1000
0100
,  // measure 45
0010
0001
1000
0001
0100
0010
1000
0001
,  // measure 46
0100
0010
1000
0001
0100
0010
1000
0100
,  // measure 47
0010
0001
0100
0010
1000
0100
0010
0001
,  // measure 48
0100
0010
0000
0000
0010
0000
0000
0010
,  // measure 49
0000
0100
0000
0010
0000
1000
0000
0100
,  // measure 50
0000
1000
0000
0000
1000
0000
0000
1000
,  // measure 51
0000
0001
0000
0000
0000
0100
0010
0100
,  // measure 52
0010
1000
0000
0000
0001
0000
0000
0001
,  // measure 53
0000
0100
0000
0100
0000
0100
0000
0100
,  // measure 54
0000
0001
0000
0000
1000
0000
0010
0000
,  // measure 55
1000
0001
0010
0001
0100
0001
0000
0010
,  // measure 56
0000
0100
0000
0000
1000
0000
0000
1000
,  // measure 57
0000
1001
0000
0100
0000
1001
0000
0000
,  // measure 58
0000
0101
0000
0000
0010
0000
0000
1100
,  // measure 59
0000
1000
0000
0000
0000
0001
0100
0001
,  // measure 60
0100
0010
0000
0000
1000
0000
0000
0100
,  // measure 61
0000
1000
0000
1100
0000
1001
0000
1100
,  // measure 62
0000
0001
0000
0000
0101
0000
0011
0000
,  // measure 63
0001
0010
0100
1000
0100
0010
0000
1001
,  // measure 64
0000
1000
0001
1000
0001
1000
0001
1000
,  // measure 65
0001
1000
0001
1000
0001
1000
0000
0000
,  // measure 66
1001
0000
0100
0010
0100
0010
0100
0010
,  // measure 67
0100
0010
0100
0010
0100
0010
0000
0000
,  // measure 68
1000
0010
1000
0010
1000
0010
1000
0010
,  // measure 69
1000
0010
1000
0010
1000
0010
0000
0000
,  // measure 70
0100
0001
0100
0001
0100
0001
0100
0001
,  // measure 71
0100
0001
0100
0000
0001
0100
0000
0110
,  // measure 72
0000
1001
0000
0100
0000
0001
0000
0100
,  // measure 73
0000
1001
0000
0100
0000
1000
0000
0100
,  // measure 74
0000
1001
0000
0100
0000
0001
0000
0100
,  // measure 75
0000
1001
0000
0100
0000
1000
0000
0100
,  // measure 76
0000
1000
0010
1000
0010
0100
0001
0100
,  // measure 77
0001
0010
0001
0010
0001
1000
0100
1000
,  // measure 78
0100
1000
0010
0100
0001
1000
0010
0100
,  // measure 79
0001
1000
0100
0010
0001
1001
0000
0000
;

//---------------dance-single - ----------------
#NOTEDATA:;
#CHARTNAME:;
#STEPSTYPE:dance-single;
#DESCRIPTION:;
#CHARTSTYLE:;
#DIFFICULTY:Medium;
#METER:12;
#RADARVALUES:0.546880,0.762043,0.170140,0.000000,0.260527,360.000000,344.000000,16.000000,0.000000,0.000000,0.000000,0.000000,0.000000,0.000000,0.546880,0.762043,0.170140,0.000000,0.260527,360.000000,344.000000,16.000000,0.000000,0.000000,0.000000,0.000000,0.000000,0.000000;
#CREDIT:;
#NOTES:
0000
0000
0000
0000
,
0000
0000
0000
0000
,
0000
0000
0000
0000
,
0000
0000
0000
0000
,
1000
0000
0001
1000
0000
0001
1000
0000
0001
1000
0000
0100
,
1000
0000
0100
1000
0000
0100
1000
0000
0100
1000
0000
0010
,
1000
0000
0010
0001
0000
0010
1000
0000
0010
0001
0000
0010
,
1000
0000
0100
0001
0000
0100
1000
0000
0100
0001
0000
0100
,
1000
0000
1000
0001
0000
0001
1000
0000
1000
0001
0000
0001
,
1000
0000
0100
1000
0000
0010
0100
0000
0001
0100
0000
0010
,
1000
0000
0010
0100
0000
0100
0001
0000
0010
0001
0000
0001
,
0100
0000
0010
1000
0000
1000
0100
0000
0100
1000
0100
1000
,
0100
0000
1000
0001
0000
0100
0010
0000
0100
0001
0000
1000
,
0100
0000
1000
0100
0000
0100
1000
0000
0010
0100
0000
0001
,
0100
0000
0100
0010
0000
0100
0010
0000
1000
0010
0000
0010
,
1000
0000
0010
0100
0000
0010
1000
0000
1000
0001
0000
0010
,
0001
0010
1000
0100
,
0001
0000
1000
0000
1000
0001
1000
0001
,
0000
1000
0000
0010
0000
0100
0000
1000
,
0000
0010
0000
0100
0000
1000
0000
0100
,
0000
0010
0000
0001
0000
0010
0000
0001
,
0000
0010
0000
1000
0000
1000
0000
0010
,
0000
1000
0000
0010
0000
1000
0000
0100
,
0000
1000
0000
0010
0000
1000
0000
0100
,
0000
0001
0000
0010
0000
0001
0000
0100
,
0000
0001
0000
0010
0000
0001
0000
0100
,
0000
1000
0000
0001
0000
0010
0000
1000
,
0000
0001
0000
0010
0000
1000
0000
0001
,
0000
0001
0000
0010
0000
0100
0000
0001
,
0000
0010
0000
0100
0000
0001
0000
0010
,
0000
1000
0000
1000
0000
0010
0000
0010
,
0000
0100
0000
0100
0000
0001
0000
0001
,
0000
1000
0000
0010
0000
0100
0000
0001
,
0000
1000
0000
0010
0000
0100
0000
0001
,
0000
0100
0010
0100
0000
0010
0100
0010
,
0000
1000
0001
0100
0000
0010
0000
0001
,
0000
0010
0000
0100
0000
0010
0000
0010
,
0000
1000
0000
0001
0000
1000
0000
0001
,
0000
0100
0000
0010
0000
0100
0000
0010
,
0000
1000
0000
0010
0000
0100
0000
0010
,
0000
0100
0000
0001
0000
0010
0000
0100
,
0000
1000
0000
0001
0000
0010
0000
0100
,
0000
1000
0000
0100
0000
0010
0000
0001
,
0000
1000
0000
0001
0000
0010
0000
0100
,
0000
0001
0000
0100
0000
0001
0000
0100
,
0000
0001
0000
1000
0000
0010
0000
1000
,
0000
0010
0000
0001
0000
0010
0000
0100
,
0000
0001
0000
0010
0000
0100
0000
0001
,
0000
0010
0000
0000
0010
0000
0000
0010
,
0000
0100
0000
0010
0000
1000
0000
0100
,
0000
1000
0000
0000
1000
0000
0000
1000
,
0000
0001
0000
0000
0000
0100
0000
0100
,
0000
1000
0000
0000
0001
0000
0000
0001
,
0000
0100
0000
0100
0000
0100
0000
0100
,
0000
0001
0000
0000
1000
0000
0010
0000
,
1000
0001
0000
0100
0000
0001
0000
0010
,
0000
0100
0000
0000
1000
0000
0000
1000
,
0000
0001
0000
0100
0000
0001
0000
0000
,
0000
0101
0000
0000
0010
0000
0000
1100
,
0000
1000
0000
0000
0000
0001
0100
0001
,
0000
0101
0000
0000
1100
0000
0000
0100
,
0000
1000
0000
1000
0000
1000
0000
1000
,
0000
0001
0000
0000
0011
0000
0011
0000
,
0001
0010
0000
0001
0000
0010
0000
1001
,
0000
1000
0000
1000
0000
1000
0000
1000
,
0000
1000
0000
1000
0000
1001
0000
0000
,
0000
0000
0000
0010
0000
0010
0000
0010
,
0000
0010
0000
0010
0000
0110
0000
0000
,
0000
0001
0000
0001
0000
0001
0000
0001
,
0000
0001
0000
0001
0000
1001
0000
0000
,
0000
0100
0000
0100
0000
0100
0000
0100
,
0000
0100
0000
0100
0000
0110
0000
0000
,
0000
1001
0000
0100
0000
0001
0000
0100
,
0000
1001
0000
0100
0000
1000
0000
0100
,
0000
1001
0000
0100
0000
0001
0000
0100
,
0000
1001
0000
0100
0000
1000
0000
0100
,
0000
1000
0000
1000
0000
0100
0000
0100
,
0000
0010
0000
0010
0000
0001
0000
0001
,
0000
1000
0000
0010
0000
0100
0000
0001
,
0000
1000
0000
0001
0000
1001
0000
0000
;

//---------------dance-single - ----------------
#NOTEDATA:;
#CHARTNAME:;
#STEPSTYPE:dance-single;
#DESCRIPTION:;
#CHARTSTYLE:;
#DIFFICULTY:Easy;
#METER:8;
#RADARVALUES:0.405602,0.592700,0.425351,0.000000,0.000000,267.000000,227.000000,40.000000,0.000000,0.000000,0.000000,0.000000,0.000000,0.000000,0.405602,0.592700,0.425351,0.000000,0.000000,267.000000,227.000000,40.000000,0.000000,0.000000,0.000000,0.000000,0.000000,0.000000;
#CREDIT:;
#NOTES:
0000
0000
0000
0000
,
0000
0000
0000
0000
,
0000
0000
0000
0000
,
0000
0000
0000
0000
,
1001
1000
0110
1000
,
1001
0001
0110
0001
,
1001
1000
0110
0001
,
1001
1000
0110
0001
,
1001
0001
0110
1000
,
1001
1000
0110
0100
,
1001
0100
1001
0001
,
0110
1000
0110
1000
,
1001
0001
0110
0001
,
1001
0100
0110
0100
,
1001
0010
0110
0010
,
1001
0100
1001
0001
,
0110
0010
0110
0100
,
1001
1000
0110
0000
,
0000
1001
0000
0000
0000
0100
0000
0000
,
0000
0010
0000
0000
0000
1000
0000
0000
,
0000
0010
0000
0000
0000
0010
0000
0000
,
0000
0010
0000
0000
0000
1000
0000
0000
,
0000
1000
0000
0000
0000
1000
0000
0000
,
0000
1000
0000
0000
0000
1000
0000
0000
,
0000
0001
0000
0000
0000
0001
0000
0000
,
0000
0001
0000
0000
0000
0001
0000
0000
,
0000
1000
0000
0000
0000
0010
0000
0000
,
0000
0001
0000
0000
0000
1000
0000
0000
,
0000
0001
0000
0000
0000
0100
0000
0000
,
0000
0010
0000
0000
0000
0001
0000
0000
,
0000
1000
0000
1000
0000
0010
0000
0010
,
0000
0100
0000
0100
0000
0001
0000
0001
,
0000
1001
0000
0000
0000
0000
0000
0000
,
0000
0110
0000
0000
0000
0000
0000
0000
,
0000
0100
0010
0100
0000
0010
0100
0010
,
0000
1000
0000
0100
0000
0010
0000
0001
,
0000
0010
0000
0100
0000
0010
0000
0010
,
0000
1000
0000
0001
0000
1000
0000
0001
,
0000
0100
0000
0010
0000
0100
0000
0010
,
0000
1000
0000
0010
0000
0100
0000
0010
,
0000
0100
0000
0001
0000
0010
0000
0100
,
0000
1000
0000
0001
0000
0010
0000
0100
,
0000
1000
0000
0100
0000
0010
0000
0001
,
0000
1000
0000
0001
0000
0010
0000
0100
,
0000
0001
0000
0100
0000
1000
0000
0100
,
0000
0001
0000
0001
0000
0010
0000
1000
,
0000
0010
0000
0001
0000
0010
0000
0100
,
0000
0001
0000
0010
0000
0100
0000
0001
,
0000
0010
0000
0000
0010
0000
0000
0010
,
0000
0100
0000
0010
0000
1000
0000
0100
,
0000
1000
0000
0000
1000
0000
0000
1000
,
0000
0001
0000
0000
0000
0000
0000
0000
,
0000
0001
0000
0000
0001
0000
0000
0001
,
0000
0100
0000
0100
0000
0100
0000
0000
,
0000
0001
0000
0000
1000
0000
0010
0000
,
0000
0001
0000
0100
0000
0001
0000
0010
,
0000
0100
0000
0000
1000
0000
0000
1000
,
0000
0001
0000
0100
0000
0001
0000
0000
,
0000
0001
0000
0000
0010
0000
0000
0100
,
0000
1000
0000
0000
0000
0001
0000
0001
,
0000
0001
0000
0000
1100
0000
0000
0100
,
0000
1000
0000
0001
0000
1000
0000
0000
,
0000
0001
0000
0000
0001
0000
0010
0000
,
0000
0010
0000
0001
0000
0010
0000
0001
,
0000
1000
0000
0000
0000
1000
0000
0000
,
0000
1000
0000
0000
0000
1001
0000
0000
,
0000
0000
0000
0000
0000
0010
0000
0000
,
0000
0010
0000
0000
0000
0110
0000
0000
,
0000
0001
0000
0000
0000
0001
0000
0000
,
0000
0001
0000
0000
0000
1001
0000
0000
,
0000
0100
0000
0000
0000
0100
0000
0000
,
0000
0100
0000
0000
0000
0110
0000
0000
,
0000
1001
0000
0000
0000
0001
0000
0000
,
0000
1001
0000
0000
0000
1000
0000
0000
,
0000
1001
0000
0000
0000
0001
0000
0000
,
0000
1001
0000
0000
0000
1000
0000
0000
,
0000
1000
0000
0000
0000
0100
0000
0000
,
0000
0010
0000
0000
0000
0001
0000
0000
,
0000
1000
0000
0000
0000
0001
0000
0000
,
0000
0100
0000
0000
0000
0010
0000
0000
;

//---------------dance-single - ----------------
#NOTEDATA:;
#CHARTNAME:;
#STEPSTYPE:dance-single;
#DESCRIPTION:;
#CHARTSTYLE:;
#DIFFICULTY:Beginner;
#METER:5;
#RADARVALUES:0.186851,0.254014,0.021268,0.000000,0.000000,123.000000,121.000000,2.000000,0.000000,0.000000,0.000000,0.000000,0.000000,0.000000,0.186851,0.254014,0.021268,0.000000,0.000000,123.000000,121.000000,2.000000,0.000000,0.000000,0.000000,0.000000,0.000000,0.000000;
#CREDIT:;
#NOTES:
0000
0000
0000
0000
,
0000
0000
0000
0000
,
0000
0000
0000
0000
,
0000
0000
0000
0000
,
1000
0000
0010
0000
,
0001
0000
0100
0000
,
0001
0000
0100
0000
,
1000
0000
0100
0000
,
0001
0000
0010
0000
,
1000
0000
0010
0000
,
1000
0000
1000
0000
,
0010
0000
0010
0000
,
0100
0000
0100
0000
,
0001
0000
0001
0000
,
1000
0000
0010
0000
,
0001
0000
0100
0000
,
0010
0000
0100
0000
,
0001
0000
1000
0000
,
0000
0000
0000
0000
,
0000
0010
0000
0000
0000
0000
0000
0000
,
0000
0010
0000
0000
0000
0000
0000
0000
,
0000
0010
0000
0000
0000
0000
0000
0000
,
0000
1000
0000
0000
0000
0000
0000
0000
,
0000
1000
0000
0000
0000
0000
0000
0000
,
0000
0001
0000
0000
0000
0000
0000
0000
,
0000
0001
0000
0000
0000
0000
0000
0000
,
0000
1000
0000
0000
0000
0000
0000
0000
,
0000
0001
0000
0000
0000
0000
0000
0000
,
0000
0001
0000
0000
0000
0000
0000
0000
,
0000
0010
0000
0000
0000
0000
0000
0000
,
0000
1000
0000
0000
0000
0010
0000
0000
,
0000
0100
0000
0000
0000
0001
0000
0000
,
0000
1001
0000
0000
0000
0000
0000
0000
,
0000
0110
0000
0000
0000
0000
0000
0000
,
0000
0100
0000
0100
0000
0100
0000
0000
,
0000
0010
0000
0000
0000
0010
0000
0000
,
0000
0010
0000
0000
0000
1000
0000
0000
,
0000
1000
0000
0000
0000
1000
0000
0000
,
0000
0001
0000
0000
0000
0001
0000
0000
,
0000
0001
0000
0000
0000
0100
0000
0000
,
0000
0100
0000
0000
0000
0100
0000
0000
,
0000
1000
0000
0000
0000
0010
0000
0000
,
0000
1000
0000
0000
0000
0010
0000
0000
,
0000
0100
0000
0000
0000
0001
0000
0000
,
0000
0100
0000
0000
0000
0001
0000
0000
,
0000
1000
0000
0000
0000
0010
0000
0000
,
0000
0100
0000
0000
0000
0001
0000
0000
,
0000
1000
0000
0000
0000
0010
0000
0000
,
0000
0100
0000
0000
0000
0000
0000
0010
,
0000
0000
0000
0010
0000
0000
0000
0000
,
0000
1000
0000
0000
0000
0000
0000
1000
,
0000
0000
0000
0000
,
0000
0001
0000
0000
0000
0000
0000
0001
,
0000
0000
0000
0100
0000
0000
0000
0000
,
0000
0001
0000
0000
0000
0000
0000
0000
,
0000
0001
0000
0000
0000
0001
0000
0000
,
0000
0100
0000
0000
0000
0000
0000
1000
,
0000
0000
0000
0000
0000
0001
0000
0000
,
0000
0001
0000
0000
0000
0000
0000
0000
,
0000
1000
0000
0000
0000
0001
0000
0000
,
0000
0001
0000
0000
0000
0000
0000
0100
,
0000
0000
0000
0001
0000
0000
0000
0000
,
0000
0001
0000
0000
0000
0000
0000
0000
,
0000
1000
0000
0000
0000
1000
0000
0000
,
0000
1000
0000
0000
0000
1000
0000
0000
,
0000
1000
0000
0000
0000
1000
0000
0000
,
0000
0000
0000
0000
0000
0010
0000
0000
,
0000
0010
0000
0000
0000
0000
0000
0000
,
0000
0001
0000
0000
0000
0001
0000
0000
,
0000
0001
0000
0000
0000
0000
0000
0000
,
0000
0100
0000
0000
0000
0100
0000
0000
,
0000
0100
0000
0000
0000
0000
0000
0000
,
0000
0000
0000
0000
0000
0001
0000
0000
,
0000
0000
0000
0000
0000
1000
0000
0000
,
0000
0000
0000
0000
0000
0001
0000
0000
,
0000
0000
0000
0000
0000
1000
0000
0000
,
0000
1000
0000
0000
0000
0100
0000
0000
,
0000
0010
0000
0000
0000
0001
0000
0000
,
0000
1000
0000
0000
0000
0001
0000
0000
,
0000
0100
0000
0000
0000
0010
0000
0000
;
