#TITLE:MAXX TO THE XXXIMUM;
#SUBTITLE:β;
#ARTIST:MEGASPHERE;
#TITLETRANSLIT:;
#SUBTITLETRANSLIT:BETA;
#ARTISTTRANSLIT:;
#GENRE:;
#CREDIT:;
#BANNER:MAXX TO THE XXXIUM-bn.png;
#BACKGROUND:MAXX TO THE XXXIUM-bg.png;
#LYRICSPATH:;
#CDTITLE:;
#MUSIC:MAXX TO THE XXXIUM.ogg;
#OFFSET:-0.006000;
#SAMPLESTART:82.099983;
#SAMPLELENGTH:12.000000;
#SELECTABLE:YES;
#BPMS:0.000000=95.000000
,32.000000=379.998993
,296.000000=95.000000
,328.000000=379.998993
;
#STOPS:
;
#BGCHANGES:
;
#KEYSOUNDS:;
#ATTACKS:;

//---------------dance-single - ----------------
#NOTES:
     dance-single:
     :
     Hard:
     17:
     0.732316,1.782160,0.504854,0.475728,0.165049,528.000000,476.000000,52.000000,49.000000,0.000000,0.000000,0.732316,1.782160,0.504854,0.475728,0.165049,528.000000,476.000000,52.000000,49.000000,0.000000,0.000000:
// measure 0
0000
0000
0000
0000
,  // measure 1
0000
0000
0000
0000
,  // measure 2
0000
0000
0000
0000
,  // measure 3
0000
0000
0000
0000
,  // measure 4
2000
3000
0000
0000
0000
0000
0000
0000
0002
0003
0000
0000
0000
0000
0000
0000
,  // measure 5
0020
0030
0000
0000
0000
0000
0000
0000
0200
0300
0000
0000
0000
0000
0000
0000
,  // measure 6
2000
3000
0000
0000
0000
0000
0000
0000
0020
0030
0000
0000
0000
0000
0000
0000
,  // measure 7
0002
0000
0000
0000
,  // measure 8
0003
0000
0000
0000
,  // measure 9
0000
0000
0000
0000
,  // measure 10
1010
0000
0001
0101
,  // measure 11
0000
1000
0100
1100
,  // measure 12
0101
0000
0000
1000
0100
0000
1001
0000
,  // measure 13
0000
1000
0100
0000
0010
0001
0010
0001
,  // measure 14
0010
0000
0100
1100
,  // measure 15
0000
0001
0100
0101
,  // measure 16
1100
0000
0001
0011
,  // measure 17
0101
1100
1010
0000
,  // measure 18
0110
0000
1000
1010
,  // measure 19
0000
0000
0001
0000
0100
0000
0010
1000
,  // measure 20
0001
0000
1000
1001
,  // measure 21
0000
0000
1100
0011
,  // measure 22
0101
0000
1000
1001
,  // measure 23
0000
0110
0000
0000
,  // measure 24
1010
0000
0001
1001
,  // measure 25
1000
0000
0100
0000
0010
0000
0001
1000
,  // measure 26
0001
0011
0000
1010
,  // measure 27
0000
0000
1100
0000
,  // measure 28
0010
0000
0100
1000
0001
0000
0001
0000
,  // measure 29
0011
1001
1010
1000
,  // measure 30
0001
0000
1000
1100
,  // measure 31
0000
0000
0000
0000
0001
0000
0010
0100
,  // measure 32
1000
0001
1000
0001
1000
0010
1000
0010
,  // measure 33
0100
0001
0100
0001
1000
0100
1000
0001
,  // measure 34
0020
0000
0030
0020
,  // measure 35
0000
0030
1001
0000
,  // measure 36
0100
1000
0100
1000
,  // measure 37
0010
0100
0001
1000
,  // measure 38
0100
0010
0100
0010
0001
1000
0001
1000
,  // measure 39
0010
1000
0001
0100
0001
1000
0100
1000
,  // measure 40
0001
0011
1000
1010
,  // measure 41
0100
0101
1000
0110
,  // measure 42
0101
1000
0100
0002
,  // measure 43
0103
0010
0002
1003
,  // measure 44
0010
0000
0100
0001
1000
0000
0100
0000
,  // measure 45
0010
0010
0001
2000
,  // measure 46
3100
1000
0001
1000
,  // measure 47
0010
1000
0010
1000
0010
0100
0001
0010
,  // measure 48
0100
0010
0001
1000
,  // measure 49
0100
0000
0020
0001
1030
0000
0020
1000
,  // measure 50
0031
0100
1000
0100
,  // measure 51
0010
1000
0001
0001
,  // measure 52
0200
0320
2030
3200
,  // measure 53
2300
0000
3002
0000
0023
0000
0130
1000
,  // measure 54
0010
1000
0001
0100
0010
0000
1000
0010
,  // measure 55
0100
0100
2002
3003
,  // measure 56
0220
0000
0330
0000
1000
0001
1000
0000
,  // measure 57
0100
0200
0310
0000
,  // measure 58
0001
1000
0001
1000
0001
0000
0010
0000
,  // measure 59
0100
1000
0010
0100
0001
0000
1000
0000
,  // measure 60
0010
0100
0010
0100
0010
0000
1000
0000
,  // measure 61
0001
0100
0010
0010
,  // measure 62
1000
0100
1000
0100
1000
0000
0001
0010
,  // measure 63
0001
0010
0001
0000
0010
0100
1000
0010
,  // measure 64
0200
0000
0000
0000
0301
0100
0002
0000
,  // measure 65
0003
0000
1000
0100
2000
0000
3010
0000
,  // measure 66
0200
0000
0010
0000
,  // measure 67
1000
0000
0001
0000
,  // measure 68
0310
1000
0100
1000
,  // measure 69
0001
0010
0100
1000
,  // measure 70
0100
0010
0100
1000
0100
0010
0001
0100
,  // measure 71
0001
1000
0010
0100
1000
0100
0010
0100
,  // measure 72
0001
0000
0001
0000
0001
0000
1000
0000
1000
0000
1000
0000
,  // measure 73
0010
0000
0100
0000
0001
0000
2001
0000
0000
0000
0000
0000
,  // measure 74
3020
0030
0200
0300
,  // measure 75
0002
0003
2000
3000
,  // measure 76
0200
0300
0020
0030
,  // measure 77
0002
0003
2000
3000
,  // measure 78
0000
0000
0100
0000
0000
0010
0000
0010
0001
0000
0100
0000
0000
0010
0000
0010
1000
0000
0100
0000
0000
0010
0000
0010
0001
0000
1000
0000
0100
0000
1000
0000
,  // measure 79
0001
0000
0100
0000
0000
0010
0000
0010
1000
0000
0001
0000
0000
0010
0000
0010
0001
0000
1000
0000
0000
0100
0000
0100
1000
0000
0001
0000
0010
0000
0100
0000
,  // measure 80
2200
0000
0000
3300
0000
0000
0000
0000
,  // measure 81
0001
0000
0001
0000
0000
1000
0000
0100
1000
0000
1000
0000
0000
0001
0000
0100
0001
0000
0000
0000
0000
0000
0000
0000
0000
0000
0000
0000
0000
0000
0000
0000
,  // measure 82
1010
0100
0001
0011
,  // measure 83
0100
0000
1000
0000
1010
0000
0100
0001
,  // measure 84
1000
0000
0100
0010
0001
0000
0100
0010
,  // measure 85
1000
0000
0001
0100
0001
0100
0010
1000
,  // measure 86
0100
0010
0001
1001
,  // measure 87
1000
0000
0010
0000
0110
0000
1000
0100
,  // measure 88
1000
0100
0010
0001
0010
0001
0100
0001
,  // measure 89
1000
0010
1000
0100
1000
0001
0010
0100
,  // measure 90
1000
0001
0100
0110
,  // measure 91
0001
0000
1000
0000
0110
0000
0001
0010
,  // measure 92
0100
0000
0100
1000
0001
0000
1000
0010
,  // measure 93
0001
0000
0010
1000
0010
1000
0001
0100
,  // measure 94
0010
1000
0100
1100
,  // measure 95
0010
0000
0001
0000
0101
0000
1000
0100
,  // measure 96
1000
0010
0100
0001
0010
0001
1000
0100
,  // measure 97
0001
0100
0010
0100
1000
0010
0100
0001
,  // measure 98
1000
0010
0100
0001
,  // measure 99
0010
0000
0100
0000
1000
0010
0100
0001
,  // measure 100
1000
0010
0100
0010
,  // measure 101
0001
0000
0010
0000
0100
0010
0100
0010
,  // measure 102
0100
1000
0100
0010
,  // measure 103
1000
0000
0100
0000
0001
0000
0100
0010
,  // measure 104
0100
1000
0100
0010
0100
0001
0100
0010
,  // measure 105
0001
1000
0010
0100
0001
1000
0100
1000
,  // measure 106
2002
0000
3003
2020
,  // measure 107
0000
3030
0000
0000
,  // measure 108
0000
0000
0000
0000
,  // measure 109
0000
0000
0000
0000
,  // measure 110
2002
0000
3003
0022
,  // measure 111
0000
0033
0000
0000
;

//---------------dance-single - ----------------
#NOTES:
     dance-single:
     :
     Medium:
     13:
     0.481276,0.648058,0.417476,0.291262,0.029126,347.000000,304.000000,43.000000,30.000000,0.000000,0.000000,0.481276,0.648058,0.417476,0.291262,0.029126,347.000000,304.000000,43.000000,30.000000,0.000000,0.000000:
// measure 0
0000
0000
0000
0000
,  // measure 1
0000
0000
0000
0000
,  // measure 2
0000
0000
0000
0000
,  // measure 3
0000
0000
0000
0000
,  // measure 4
2000
3000
0000
0000
0000
0000
0000
0000
0002
0003
0000
0000
0000
0000
0000
0000
,  // measure 5
0020
0030
0000
0000
0000
0000
0000
0000
0200
0300
0000
0000
0000
0000
0000
0000
,  // measure 6
2000
3000
0000
0000
0000
0000
0000
0000
0020
0030
0000
0000
0000
0000
0000
0000
,  // measure 7
0002
0000
0000
0000
,  // measure 8
0003
0000
0000
0000
,  // measure 9
0000
0000
0000
0000
,  // measure 10
1010
0000
0000
1100
,  // measure 11
0000
0000
0000
0001
,  // measure 12
0001
0000
0010
0100
,  // measure 13
0000
0010
0100
1000
,  // measure 14
0011
0000
0000
0101
,  // measure 15
0000
0000
0000
1000
,  // measure 16
1000
0000
0010
0100
,  // measure 17
0100
0100
0100
0000
,  // measure 18
1001
0000
0000
0110
,  // measure 19
0000
0000
0000
0001
,  // measure 20
1001
0000
0000
1001
,  // measure 21
0000
0000
1000
1000
,  // measure 22
1010
0000
0000
0011
,  // measure 23
0000
0200
0000
0000
,  // measure 24
0310
0000
0000
0101
,  // measure 25
0000
0000
1100
0000
,  // measure 26
0001
0001
0000
0101
,  // measure 27
0000
0000
1000
0000
,  // measure 28
0010
1000
0010
0100
,  // measure 29
0010
1000
0100
1000
,  // measure 30
1001
0000
0000
0011
,  // measure 31
0000
0000
0200
0000
,  // measure 32
0310
0000
0001
0000
,  // measure 33
0100
0000
1000
0001
,  // measure 34
1001
0000
0000
1001
,  // measure 35
0000
0000
0000
0000
,  // measure 36
0010
0100
0001
1000
,  // measure 37
0100
0010
0001
1000
,  // measure 38
1100
0000
0000
0011
,  // measure 39
0000
0000
0000
0000
,  // measure 40
0001
0001
1000
1000
,  // measure 41
0010
0010
0100
0100
,  // measure 42
0001
0100
1000
0200
,  // measure 43
0310
0100
0002
0103
,  // measure 44
0010
1000
0100
1000
,  // measure 45
0001
0010
1000
0020
,  // measure 46
0031
1000
0100
1000
,  // measure 47
0001
0001
1000
1000
,  // measure 48
0010
0100
0001
1000
,  // measure 49
0010
2000
3001
0200
,  // measure 50
0301
1000
0100
1000
,  // measure 51
0001
0010
0100
1000
,  // measure 52
0100
0001
0100
0010
,  // measure 53
0100
1000
0010
0100
,  // measure 54
0100
0001
1000
0100
,  // measure 55
0010
0010
0100
0000
,  // measure 56
1001
0000
1000
1000
,  // measure 57
0100
0010
0002
0003
,  // measure 58
0100
0100
0010
1000
,  // measure 59
0100
0100
0010
0001
,  // measure 60
1000
1000
0001
0010
,  // measure 61
0100
1000
1001
1001
,  // measure 62
1000
0100
0001
1000
,  // measure 63
0100
0001
1000
1000
,  // measure 64
0101
0000
1000
1100
,  // measure 65
0000
0001
0011
0000
,  // measure 66
0110
0000
1100
0000
,  // measure 67
0110
0000
0101
0000
,  // measure 68
1000
0100
0001
0100
,  // measure 69
1000
0010
0100
0001
,  // measure 70
1000
1000
0010
0010
,  // measure 71
0100
0100
0001
0001
,  // measure 72
0010
0000
0100
0000
1000
0000
0100
0000
0010
0000
0001
0000
,  // measure 73
0100
0000
0001
0000
1000
0000
0020
0000
0000
0000
0000
0000
,  // measure 74
0230
0000
0000
0000
,  // measure 75
2300
0000
0000
0000
,  // measure 76
3200
0000
0000
0000
,  // measure 77
0302
0000
0000
0000
,  // measure 78
1003
1000
1000
0000
,  // measure 79
0001
0001
0001
0000
,  // measure 80
0220
0000
0000
0330
,  // measure 81
1000
0100
0001
0000
,  // measure 82
1001
0010
0100
1001
,  // measure 83
0000
0000
1000
0100
,  // measure 84
0010
0001
0001
1000
,  // measure 85
1000
0010
0010
0100
,  // measure 86
1001
0010
0100
1001
,  // measure 87
0000
0000
0001
0100
,  // measure 88
0100
0010
0010
1000
,  // measure 89
0001
1000
0100
0100
,  // measure 90
1001
0100
0010
1001
,  // measure 91
0000
0000
0001
1000
,  // measure 92
1000
0100
0100
0010
,  // measure 93
0010
0001
0100
0010
,  // measure 94
0110
0001
1000
0110
,  // measure 95
0000
0000
1000
0100
,  // measure 96
0100
0010
0001
0100
,  // measure 97
0010
1000
0001
0001
,  // measure 98
1010
0010
1000
0010
,  // measure 99
1000
0001
1000
0001
,  // measure 100
1000
0100
1000
0100
,  // measure 101
0010
0001
0100
0010
,  // measure 102
0001
0100
0001
0100
,  // measure 103
0010
1000
0010
1000
,  // measure 104
0001
0010
0100
1000
,  // measure 105
0010
0100
0001
1000
,  // measure 106
2020
0000
3030
2002
,  // measure 107
0000
3003
0000
0000
,  // measure 108
0000
0000
0000
0000
,  // measure 109
0000
0000
0000
0000
,  // measure 110
0022
0000
0033
2002
,  // measure 111
0000
3003
0000
0000
;

//---------------dance-single - ----------------
#NOTES:
     dance-single:
     :
     Easy:
     10:
     0.357836,0.486044,0.291262,0.165049,0.000000,258.000000,228.000000,30.000000,17.000000,0.000000,0.000000,0.357836,0.486044,0.291262,0.165049,0.000000,258.000000,228.000000,30.000000,17.000000,0.000000,0.000000:
// measure 0
0000
0000
0000
0000
,  // measure 1
0000
0000
0000
0000
,  // measure 2
0000
0000
0000
0000
,  // measure 3
0000
0000
0000
0000
,  // measure 4
1000
0000
0001
0000
,  // measure 5
0010
0000
0100
0000
,  // measure 6
1000
0000
0001
0000
,  // measure 7
0100
0000
0000
0000
,  // measure 8
0000
0000
0000
0000
,  // measure 9
0000
0000
0000
0000
,  // measure 10
1001
0000
0000
1001
,  // measure 11
0000
0000
0000
0000
,  // measure 12
0001
0000
0001
0000
,  // measure 13
0001
0000
0000
0000
,  // measure 14
1001
0000
0000
1001
,  // measure 15
0000
0000
0000
0000
,  // measure 16
1000
0000
0100
0000
,  // measure 17
0010
0000
0000
0000
,  // measure 18
1001
0000
0000
1001
,  // measure 19
0000
0000
0000
0000
,  // measure 20
0001
0000
0010
0000
,  // measure 21
0100
0000
1000
0000
,  // measure 22
1001
0000
0000
1001
,  // measure 23
0000
0000
0000
0000
,  // measure 24
0100
0000
0001
0000
,  // measure 25
1000
0000
0010
0000
,  // measure 26
0110
0000
0000
0110
,  // measure 27
0000
0000
0000
0000
,  // measure 28
1000
0000
0010
0000
,  // measure 29
0100
0000
0001
0000
,  // measure 30
1100
0000
0000
0101
,  // measure 31
0000
0000
0000
0000
,  // measure 32
1000
0000
0100
0000
,  // measure 33
0010
0000
0001
0000
,  // measure 34
1001
0000
0000
1001
,  // measure 35
0000
0000
0000
0000
,  // measure 36
0001
0100
0001
0100
,  // measure 37
0001
0000
1000
0000
,  // measure 38
0100
0000
0010
0000
,  // measure 39
0001
0000
0100
0000
,  // measure 40
0020
0000
1030
0000
,  // measure 41
0200
0000
0310
0000
,  // measure 42
0001
0100
0001
0100
,  // measure 43
0001
0100
0001
0000
,  // measure 44
1000
0100
1000
0100
,  // measure 45
1000
0100
1000
0000
,  // measure 46
0010
0000
0100
0000
,  // measure 47
0001
1000
0001
0000
,  // measure 48
0010
0000
0100
0000
,  // measure 49
0010
0001
0010
0001
,  // measure 50
0010
0000
0100
0000
,  // measure 51
1000
0001
1000
0000
,  // measure 52
0010
0000
0100
0000
,  // measure 53
0001
1000
0010
1000
,  // measure 54
0001
0000
0100
0000
,  // measure 55
0010
0000
1000
0000
,  // measure 56
1100
0000
0101
0000
,  // measure 57
1001
0000
0011
0000
,  // measure 58
0100
0010
0001
0010
,  // measure 59
0100
0010
0001
0000
,  // measure 60
0010
0001
0010
0001
,  // measure 61
0010
0001
0010
0000
,  // measure 62
0100
1000
0010
1000
,  // measure 63
0100
1000
0010
0000
,  // measure 64
1000
0010
1000
0010
,  // measure 65
1000
0010
1000
0000
,  // measure 66
0001
0000
0001
0000
,  // measure 67
0001
0000
0001
0000
,  // measure 68
0100
0001
0100
0000
,  // measure 69
0010
1000
0010
0000
,  // measure 70
1000
0000
0100
0000
,  // measure 71
0010
0000
0001
0000
,  // measure 72
2000
0000
3002
0000
,  // measure 73
0203
0300
2002
3003
,  // measure 74
0220
0000
0000
0000
,  // measure 75
0000
0000
0000
0000
,  // measure 76
0330
0000
0000
0000
,  // measure 77
0000
0000
0000
0000
,  // measure 78
1000
1000
1000
0000
,  // measure 79
0001
0001
0001
0000
,  // measure 80
0010
0100
1000
0000
,  // measure 81
0010
0100
0001
0000
,  // measure 82
1000
0100
0010
0001
,  // measure 83
0000
0000
0000
0000
,  // measure 84
0101
0000
1100
0000
,  // measure 85
0010
1000
0100
0000
,  // measure 86
1000
0010
0100
0001
,  // measure 87
0000
0000
0000
0000
,  // measure 88
1100
0000
0011
0000
,  // measure 89
0001
0100
0001
0000
,  // measure 90
1000
0010
0100
0001
,  // measure 91
0000
0000
0000
0000
,  // measure 92
1100
0000
0011
0000
,  // measure 93
0100
0010
0001
0000
,  // measure 94
1000
0100
0010
0100
,  // measure 95
0000
0000
1000
0000
,  // measure 96
0001
0000
0100
0000
,  // measure 97
1000
0000
0010
0000
,  // measure 98
0100
0001
0100
0001
,  // measure 99
0100
0001
0100
0000
,  // measure 100
0010
1000
0010
1000
,  // measure 101
0010
1000
0010
0000
,  // measure 102
1000
0100
1000
0100
,  // measure 103
0010
0100
0010
0000
,  // measure 104
0001
0010
0001
0010
,  // measure 105
0100
0010
0001
0000
,  // measure 106
2002
0000
3003
0202
,  // measure 107
0000
0303
0000
0000
,  // measure 108
0000
0000
0000
0000
,  // measure 109
0000
0000
0000
0000
,  // measure 110
2002
0000
3003
2200
,  // measure 111
0000
3300
0000
0000
;

//---------------dance-single - Copied from----------------
#NOTES:
     dance-single:
     Copied from:
     Beginner:
     5:
     0.202497,0.322573,0.165049,0.038835,0.000000,146.000000,129.000000,17.000000,4.000000,0.000000,0.000000,0.202497,0.322573,0.165049,0.038835,0.000000,146.000000,129.000000,17.000000,4.000000,0.000000,0.000000:
// measure 0
0000
0000
0000
0000
,  // measure 1
0000
0000
0000
0000
,  // measure 2
0000
0000
0000
0000
,  // measure 3
0000
0000
0000
0000
,  // measure 4
1000
0000
0001
0000
,  // measure 5
0100
0000
0010
0000
,  // measure 6
1000
0000
0100
0000
,  // measure 7
0001
0000
0000
0000
,  // measure 8
0000
0000
0000
0000
,  // measure 9
0000
0000
0000
0000
,  // measure 10
1000
0000
0000
1000
,  // measure 11
0000
0000
0000
0000
,  // measure 12
0010
0000
0000
0000
,  // measure 13
0010
0000
0000
0000
,  // measure 14
0001
0000
0000
0001
,  // measure 15
0000
0000
0000
0000
,  // measure 16
0010
0000
0000
0000
,  // measure 17
0010
0000
0000
0000
,  // measure 18
1000
0000
0000
1000
,  // measure 19
0000
0000
0000
0000
,  // measure 20
0100
0000
0000
0000
,  // measure 21
0100
0000
0000
0000
,  // measure 22
0001
0000
0000
0001
,  // measure 23
0000
0000
0000
0000
,  // measure 24
0100
0000
0000
0000
,  // measure 25
0100
0000
0000
0000
,  // measure 26
0010
0000
0000
0010
,  // measure 27
0000
0000
0000
0000
,  // measure 28
1000
0000
0001
0000
,  // measure 29
1000
0000
0000
0000
,  // measure 30
0100
0000
0000
0100
,  // measure 31
0000
0000
0000
0000
,  // measure 32
0001
0000
1000
0000
,  // measure 33
0001
0000
0000
0000
,  // measure 34
0100
0000
0000
0100
,  // measure 35
0000
0000
0000
0000
,  // measure 36
0010
0000
0010
0000
,  // measure 37
0010
0000
0000
0000
,  // measure 38
0100
0000
0000
0100
,  // measure 39
0000
0000
0000
0000
,  // measure 40
0001
0000
1000
0000
,  // measure 41
0001
0000
0000
0000
,  // measure 42
1000
0000
0100
0000
,  // measure 43
1000
0000
0100
0000
,  // measure 44
0001
0000
0100
0000
,  // measure 45
0001
0000
0100
0000
,  // measure 46
1000
0000
0100
0000
,  // measure 47
0001
0000
0100
0000
,  // measure 48
1000
0000
0010
0000
,  // measure 49
0100
0000
0000
0000
,  // measure 50
0001
0000
0010
0000
,  // measure 51
0001
0000
0000
0000
,  // measure 52
1000
0000
0010
0000
,  // measure 53
1000
0000
0000
0000
,  // measure 54
0100
0000
0100
0000
,  // measure 55
0100
0000
0000
0000
,  // measure 56
0010
0000
0001
0000
,  // measure 57
0200
0000
0000
0300
,  // measure 58
0010
0000
0010
0000
,  // measure 59
0010
0000
0000
0000
,  // measure 60
0100
0000
0100
0000
,  // measure 61
0100
0000
0000
0000
,  // measure 62
0001
0000
1000
0000
,  // measure 63
0001
0000
0000
0000
,  // measure 64
1000
0000
0001
0000
,  // measure 65
1000
0000
0000
0000
,  // measure 66
0100
0000
0100
0000
,  // measure 67
0100
0000
0100
0000
,  // measure 68
0010
0000
0010
0000
,  // measure 69
0010
0000
0010
0000
,  // measure 70
0001
0000
0100
0000
,  // measure 71
0010
0000
1000
0000
,  // measure 72
0100
0000
0100
0000
,  // measure 73
0100
0000
1001
0000
,  // measure 74
0020
0000
0000
0000
,  // measure 75
0000
0000
0000
0000
,  // measure 76
0030
0000
0000
0000
,  // measure 77
0000
0000
0000
0000
,  // measure 78
1000
0000
1000
0000
,  // measure 79
0001
0000
0001
0000
,  // measure 80
0220
0000
0000
0330
,  // measure 81
1000
0000
0001
0000
,  // measure 82
0101
0000
0000
0101
,  // measure 83
0000
0000
0000
0000
,  // measure 84
0000
0000
0000
0000
,  // measure 85
0000
0000
0000
0000
,  // measure 86
1100
0000
0000
1100
,  // measure 87
0000
0000
0000
0000
,  // measure 88
0000
0000
0000
0000
,  // measure 89
0000
0000
0000
0000
,  // measure 90
0110
0000
0000
0110
,  // measure 91
0000
0000
0000
0000
,  // measure 92
0000
0000
0000
0000
,  // measure 93
0000
0000
0000
0000
,  // measure 94
0011
0000
0000
0101
,  // measure 95
0000
0000
0000
0000
,  // measure 96
0000
0000
0000
0000
,  // measure 97
0000
0000
0000
0000
,  // measure 98
1001
0000
0000
1000
,  // measure 99
0000
0000
0000
0000
,  // measure 100
0010
0000
0100
0000
,  // measure 101
0010
0000
0000
0000
,  // measure 102
1001
0000
0000
1001
,  // measure 103
0000
0000
0000
0000
,  // measure 104
1000
0000
0010
0000
,  // measure 105
0100
0000
0001
0000
,  // measure 106
0101
0000
0000
0101
,  // measure 107
0000
0000
0000
0000
,  // measure 108
0000
0000
0000
0000
,  // measure 109
0000
0000
0000
0000
,  // measure 110
1100
0000
0000
1100
;
