#TITLE:чен JAPAN;
#SUBTITLE:(K.O.G G3 Mix);
#ARTIST:RE-VENGE;
#TITLETRANSLIT:MATSURI JAPAN;
#SUBTITLETRANSLIT:;
#ARTISTTRANSLIT:;
#GENRE:Hardcore;
#CREDIT:;
#BANNER:MATSURI JAPAN (K.O.G G3 Mix).png;
#BACKGROUND:MATSURI JAPAN (K.O.G G3 Mix)-bg.png;
#LYRICSPATH:;
#CDTITLE:;
#MUSIC:MATSURI JAPAN (K.O.G G3 Mix).ogg;
#OFFSET:-0.012782;
#SAMPLESTART:54.660000;
#SAMPLELENGTH:15.000000;
#SELECTABLE:YES;
#DISPLAYBPM:180.000000;
#BPMS:0.000000=178.817993
,4.000000=180.000000
;
#STOPS:
;
#BGCHANGES:;
#KEYSOUNDS:;
#ATTACKS:;

//---------------dance-single - ----------------
#NOTES:
     dance-single:
     :
     Hard:
     10:
     0.506020,0.605780,0.574401,0.042548,0.127645,333.000000,279.000000,54.000000,4.000000,0.000000,0.000000,0.506020,0.605780,0.574401,0.042548,0.127645,333.000000,279.000000,54.000000,4.000000,0.000000,0.000000:
0000
0000
0000
0000
,
0000
0000
0000
0000
,
0000
0000
0000
0000
,
0010
1000
0001
0010
,
0010
0001
1000
0010
,
0101
0000
0000
0001
0100
0000
0000
1000
0100
0000
0000
1000
0100
0000
0000
0001
,
0100
0000
0000
0001
0100
0000
0000
1000
0100
0000
0000
1000
0100
0000
0000
0000
,
0010
1000
0001
0010
,
0010
0001
1000
0010
,
0101
0000
0000
0001
0100
0000
0000
1000
0100
0000
0000
1000
0100
0000
0000
0001
,
0100
0000
0000
0001
0100
0000
0000
1000
0100
0000
0000
1000
0100
0000
0000
0000
,
0010
1000
0100
0000
0001
0000
0101
0000
,
0010
0001
0100
0000
1100
0000
1100
0000
,
0010
1000
0100
0000
0001
0000
0101
0000
,
0010
0001
0100
0000
1100
0000
1100
0000
,
0010
1000
0100
0000
0001
0000
0101
0000
,
0010
1000
0001
0010
,
0010
0001
0100
0000
1100
0000
1100
0000
,
0010
0001
1000
0010
,
0101
0000
0000
1000
0100
0000
0000
0001
0100
0000
0000
1000
0100
0000
0000
0000
,
0010
0001
1000
0010
,
1001
0000
0000
1000
0001
0000
0000
0001
1000
0000
0000
1000
0001
0000
0000
0000
,
0010
0001
1000
0010
,
0010
0100
0001
0000
1100
0000
0000
0000
,
0010
0100
1000
0000
0101
0000
0000
0000
,
0010
0100
0001
0000
1100
0000
0000
0000
,
0010
0100
1000
0000
0101
0000
0000
0000
,
0010
0101
0010
1100
,
0010
0101
0010
1100
,
0010
0101
0010
1100
,
0010
0101
1100
0101
,
1001
0000
0000
0000
0100
0000
0001
0100
0000
0000
0001
0000
0000
0000
1001
0000
,
0000
0000
1000
0100
0000
0000
1000
0100
0000
0000
0000
1001
0000
0000
0000
0000
,
0010
0001
1000
0010
,
0010
1000
0001
0010
,
0010
0001
1000
0010
,
0010
1000
0001
0010
,
1100
0101
1100
0101
,
2002
0000
0000
0000
,
0000
0000
0000
0000
,
0000
0000
0000
3003
,
0011
1000
0100
1100
,
0001
1001
0100
0001
,
0010
0001
1000
0010
,
0010
1000
0001
0010
,
1100
0010
0100
1100
,
1000
1001
1000
0010
,
0010
1000
0001
0010
,
0010
0001
1000
0010
,
1001
0010
0100
1001
,
1000
1001
0001
0100
,
0101
1000
1100
0001
,
0010
0001
1000
0010
,
0010
1100
0001
1100
,
0100
1100
1000
1100
,
0010
0101
1000
0101
,
0100
0101
0001
0101
,
1000
0000
1000
0000
0001
0100
1000
0000
,
0001
0000
0001
0000
1000
0100
0001
0000
,
1000
0000
1000
0000
0001
0100
1000
0000
,
0001
0000
0001
0000
1000
0100
0001
0000
,
1000
0010
0100
0010
,
0100
0010
0100
0001
,
1000
0010
0100
0010
,
0100
0001
1000
0001
,
2000
0001
0010
3100
,
0002
1000
0010
0103
,
1001
0000
0000
0000
;

//---------------dance-double - ----------------
#NOTES:
     dance-double:
     :
     Hard:
     10:
     0.457393,0.641414,0.404208,0.053185,0.095733,301.000000,263.000000,38.000000,5.000000,0.000000,0.000000,0.457393,0.641414,0.404208,0.053185,0.095733,301.000000,263.000000,38.000000,5.000000,0.000000,0.000000:
00000000
00000000
00000000
00000000
,
00000000
00000000
00000000
00000000
,
00000000
00000000
00000000
00000000
,
00000010
00000001
00000010
00001000
,
00000010
00000001
00000010
00001000
,
00000101
00000000
00000000
00000100
00001000
00000000
00000000
00001000
00010000
00000000
00000000
00010000
01000000
00000000
00000000
10000000
,
01000000
00000000
00000000
10000000
01000000
00000000
00000000
00010000
01000000
00000000
00000000
00010000
01000000
00000000
00000000
00000000
,
00100000
10000000
00100000
00010000
,
00100000
10000000
00100000
00010000
,
11000000
00000000
00000000
01000000
00010000
00000000
00000000
00010000
00001000
00000000
00000000
00001000
00000100
00000000
00000000
00000001
,
00000100
00000000
00000000
00000001
00000100
00000000
00000000
00001000
00000100
00000000
00000000
00001000
00000100
00000000
00000000
00000000
,
00000011
00001001
00001100
00001001
,
00000110
00001000
00010000
01000000
,
11000000
10010000
00110000
10010000
,
01100000
00010000
00001000
00000100
,
00001000
00000100
00001000
00020000
,
00100000
00001000
00100000
00031000
,
00010000
01000000
00010000
00002000
,
00000010
00010000
00000010
00013000
,
01000000
00010000
00001000
00000100
,
00000010
00000001
00000010
00001000
,
00000100
00001000
00010000
01000000
,
00100000
10000000
00100000
00010000
,
10000000
01000000
00100000
01000000
,
10000000
01000000
00100000
01000000
,
00010000
01000000
00010000
01000000
,
00010000
00001000
00000100
00000001
,
00001000
00000001
00000100
00000001
,
00001000
00000001
00000100
00000001
,
00000010
00001000
00000010
00001000
,
00010000
00100000
10000000
01000000
,
10010000
00000000
00000000
00000000
10000000
00000000
01000000
10000000
00000000
00000000
01000000
00000000
00000000
00000000
00010000
00000000
,
00000000
00000000
00001000
00010000
00000000
00000000
00001000
00000100
00000000
00000000
00000000
00000001
00000000
00000000
00000000
00000000
,
00001001
00000100
00001000
00000100
,
00000010
00000001
00000010
00001000
,
00000010
00000001
00000010
00001000
,
00000010
00001000
00010000
00100000
,
10000000
10000000
01000000
02000000
,
00020000
00000000
00000000
00000000
,
00000000
00000000
00000000
00000000
,
00000000
00000000
00000000
03030000
,
10000000
10010000
10000000
10010000
,
01000000
00010000
00001000
00000100
,
00000010
00000001
00000010
00001000
,
00000010
00000001
00000010
00001000
,
00000001
00001001
00000001
00001001
,
00000100
00001000
00010000
01000000
,
00100000
10000000
00100000
00010000
,
00100000
10000000
00100000
00010000
,
10000000
01000000
00010000
00001000
,
00010010
00011000
00010010
00011000
,
00101000
00011000
00101000
00021000
,
00100000
00001000
00100000
00031000
,
00010010
00011000
00010010
00011000
,
00000100
00000001
00000100
00001000
,
00000010
00000100
00000001
00000010
,
00000100
00000001
00000100
00001000
,
00000010
00000001
00000010
00001000
,
00000101
00000101
00001000
00010000
,
11000000
11000000
00010000
01000000
,
11000000
11000000
00010000
00001000
,
00000101
00000101
00001000
00000100
,
00000001
00000010
00000100
00000010
,
00000100
00000010
00001000
00010000
,
00100000
10000000
00010000
10000000
,
00100000
10000000
00010000
10000000
,
00100000
10000000
01000000
10000000
,
00010000
00000000
00000000
00000000
;

//---------------dance-single - ----------------
#NOTES:
     dance-single:
     :
     Challenge:
     13:
     0.702046,0.753901,0.170193,0.265926,0.850964,462.000000,446.000000,16.000000,25.000000,0.000000,0.000000,0.702046,0.753901,0.170193,0.265926,0.850964,462.000000,446.000000,16.000000,25.000000,0.000000,0.000000:
0000
0000
0000
0000
,
0000
0000
0000
0000
,
0000
0000
0000
0000
,
1000
0000
1000
0010
0000
0010
0100
0000
0100
0001
0000
0001
,
1000
0000
1000
0010
0000
0010
0100
0000
0100
0001
0000
0001
,
1000
0000
0010
1000
0000
0001
1000
0000
0100
1000
0000
0001
,
1000
0000
0010
0001
0000
1000
0001
0000
0100
0001
0000
1000
,
0001
0000
0001
0010
0000
0010
0100
0000
0100
1000
0000
1000
,
0001
0000
0001
0010
0000
0010
0100
0000
0100
1000
0000
1000
,
0001
0000
0010
0001
0000
1000
0001
0000
0100
0001
0000
1000
,
0001
0000
0100
0010
0000
0100
0010
0000
1000
0001
1000
0001
1000
0000
0100
0000
,
1000
0010
0001
0010
1000
0100
0010
0001
,
1000
0001
1000
0000
0010
0000
0100
0000
0001
0000
1000
0000
0100
0010
0100
0000
,
1000
0100
0010
0001
1000
0100
0010
0001
,
0010
0100
0010
0000
0001
0000
1000
0000
0010
0000
0100
0000
0001
0100
0001
0000
,
1000
0010
0100
0010
1000
0001
0010
0001
,
1000
0001
1000
0000
0100
0000
0010
0000
0001
0000
1000
0000
0100
0010
0100
0000
,
1000
0010
0100
0010
1000
0001
0100
0010
,
1000
0001
1000
0000
0100
0000
0010
0000
0001
0000
1000
0000
0001
0100
0001
0000
,
1000
0000
1000
0010
0000
0010
0001
0000
0001
0010
0000
0010
,
1000
1100
0001
1100
,
0001
0000
0001
0010
0000
0010
1000
0000
1000
0010
0000
0010
,
0001
1100
0001
1100
,
0012
0100
1000
0010
,
1003
0000
0000
0001
1000
0001
2000
0000
0000
3010
0000
0000
,
2010
0100
0001
0010
,
3001
0000
0000
1000
0001
1000
0002
0000
0000
0013
0000
0000
,
2000
0100
0001
3020
,
0130
0002
0013
1000
,
1100
0001
0101
1000
,
1001
0002
0203
0320
,
1030
0000
0000
0100
0000
0100
0010
0000
0001
0000
0000
1001
,
0000
0000
1000
0010
0000
0010
0100
0000
0000
1000
0000
1000
,
0001
0000
0001
0100
0000
0100
0010
0000
0010
1000
0000
1000
,
0200
0320
0032
2003
,
3020
0230
0302
0023
,
0130
0000
0010
0000
0000
0000
0001
1000
0001
0000
0100
0000
0010
0000
0000
0000
,
1001
1100
1001
0101
,
0020
0000
0000
0100
,
0130
0000
0000
0000
0000
0001
2000
0000
0000
0002
0000
0000
,
0000
0000
3003
0010
,
1001
0000
1000
0100
0000
0100
0001
0000
0001
1000
0000
1000
,
0010
0000
0010
0001
0000
0001
0100
0000
0100
1000
0000
1000
,
0001
0000
0001
0010
0000
0010
1000
0000
1000
0001
0000
0001
,
0010
0000
0010
0100
0000
0100
0001
0000
0001
0100
0000
0100
,
1000
0000
1000
0001
0000
0001
0100
0000
0100
1000
0000
1000
,
0100
0000
0100
0001
0000
0001
1000
0000
1000
0010
0000
0010
,
1000
0000
1000
0100
0000
0100
0010
0000
0010
0001
0000
0001
,
1000
0000
1000
0100
0000
0100
0010
0000
0010
0001
0000
0001
,
0100
0000
0010
1000
0000
0001
0010
0000
0001
1000
0000
0100
,
1000
0000
0001
0100
0000
0001
1000
0000
0001
0100
0000
0010
,
0001
0000
1000
0100
0000
0010
0001
0000
1000
0010
0000
0100
,
0001
0000
0001
0010
0000
0010
0100
0000
0100
1000
0000
1000
,
0001
0000
0001
0100
0000
0000
1000
0000
1000
0100
0000
0000
,
0001
0000
0001
0100
0000
0000
1000
0000
1000
0100
0000
0000
,
0001
0000
0001
0010
0000
0000
1000
0000
1000
0010
0000
0000
,
0001
0000
0001
0010
0000
0000
1000
0000
1000
0010
0000
0000
,
1001
0000
1000
0100
0000
0100
0001
0000
0001
0100
0000
0100
,
1000
0000
1000
0001
0000
0001
0010
0000
0010
0001
0000
0001
,
0100
0000
0100
1000
0000
1000
0100
0000
0100
0010
0000
0010
,
1000
0000
1000
0001
0000
0001
0100
0000
0100
0001
0000
0001
,
1000
0000
1000
0001
0000
0001
0100
0000
0100
0001
0000
0001
,
1000
0000
1000
0001
0000
0001
0100
0000
0100
0001
0000
0001
,
0010
0000
0010
0100
0000
0100
1000
0000
1000
0010
0000
0010
,
0200
0000
0301
0010
0000
0100
1000
0000
0001
0100
0000
0020
,
1000
0030
0100
0010
0000
0001
1000
0000
0010
0200
0000
0301
,
0010
0000
0100
1000
0000
0001
0100
0000
1000
0100
0000
0001
,
0020
0000
0030
0000
;

//---------------dance-single - ----------------
#NOTES:
     dance-single:
     :
     Medium:
     7:
     0.331268,0.498878,0.180830,0.159556,0.000000,218.000000,201.000000,17.000000,15.000000,0.000000,0.000000,0.331268,0.498878,0.180830,0.159556,0.000000,218.000000,201.000000,17.000000,15.000000,0.000000,0.000000:
0000
0000
0000
0000
,
0000
0000
0000
0000
,
0000
0000
0000
0000
,
0000
0000
0000
0000
,
0000
0000
0000
0000
,
0000
0000
0000
0000
,
0000
0000
0000
0000
,
1000
0010
0100
0001
,
1000
0010
0100
0002
,
2000
0000
0000
0000
,
3003
0000
0000
0000
,
0001
0001
1000
1000
,
0001
0001
0010
0100
,
1000
1000
0001
0001
,
1000
1010
0001
1010
,
0001
0100
0010
0100
,
0001
0011
0001
0011
,
0100
1000
0010
0100
,
0010
0010
0100
0100
,
0010
1000
0100
1000
,
1001
1001
1001
1001
,
0001
0010
0100
0010
,
1001
1001
1001
1001
,
0200
0000
0000
0000
,
0000
0320
0230
0000
,
0000
0000
0002
0000
,
0000
0300
0023
0000
,
0000
0130
0000
1000
,
0000
0010
0000
0100
,
0000
0001
0010
0100
,
1000
0010
0100
0001
,
1000
1000
0001
0001
,
1000
0001
1000
0000
,
0001
0100
0010
1000
,
0100
0100
0010
0010
,
0001
0100
0001
0000
1000
0000
0100
0000
,
0010
0010
1000
0001
,
1000
0100
0010
0001
,
0200
0000
0000
0010
,
0020
0000
0000
0000
,
0330
0000
0000
0000
,
1000
0001
1000
0000
0100
0000
0010
0000
,
0001
0100
0010
1000
,
0100
0100
0010
0010
,
0001
0001
1000
1000
,
0001
0100
0001
0000
1000
0000
1000
0000
,
0010
0010
0100
0100
,
0001
0001
0010
0010
,
0100
0100
1000
1000
,
0011
0100
0010
0001
,
0100
0010
1010
0100
,
1000
0010
0110
1000
,
0001
0010
0100
1000
,
0001
0010
0100
1000
,
0001
0001
1000
1000
,
0100
0010
0001
0100
,
0010
1000
0010
0000
0100
0000
0001
0000
,
0020
0000
0100
0000
0100
0030
0000
0000
,
0002
0000
0100
0000
0100
0003
0000
0000
,
1000
0000
2100
0000
0100
3000
0000
0000
,
0001
0010
0010
0000
,
1000
0010
0100
0000
,
0001
0010
0100
0000
,
2000
0100
3001
0000
,
0002
0100
1003
0000
,
0010
0100
0020
0000
,
0100
0000
0130
0000
,
0110
0000
0000
0000
;

//---------------dance-single - ----------------
#NOTES:
     dance-single:
     :
     Easy:
     5:
     0.208182,0.320707,0.063822,0.170193,0.000000,137.000000,131.000000,6.000000,16.000000,0.000000,0.000000,0.208182,0.320707,0.063822,0.170193,0.000000,137.000000,131.000000,6.000000,16.000000,0.000000,0.000000:
0000
0000
0000
0000
,
0000
0000
0000
0000
,
0000
0000
0000
0000
,
0000
0000
0000
0000
,
0000
0000
0000
0000
,
0001
0000
0001
0000
,
1000
0000
1000
0000
,
0100
0000
0100
0000
,
0010
0000
0010
0000
,
0001
0000
0100
0000
,
1000
0000
0010
0000
,
1001
1000
1000
0000
,
0001
0001
0001
0000
,
0010
0010
0010
0000
,
0100
0100
0100
0000
,
1000
1000
0001
0000
,
1000
0010
1000
0010
,
0100
0100
0100
0000
,
0001
0010
0001
0010
,
0100
0100
0100
0100
,
0200
0000
0300
0000
,
0010
0010
0010
0010
,
0020
0000
0030
0000
,
0002
0000
0000
0000
,
0003
0000
0000
0000
,
2000
0000
0000
0000
,
3000
0000
0000
0000
,
0020
0000
0030
0000
,
0020
0000
0030
0000
,
0200
0000
0300
0000
,
0200
0000
0300
0000
,
1001
0000
0000
0000
,
0001
0000
1000
0000
,
0000
0000
0000
0000
,
0100
0000
0010
0000
,
0000
0000
0000
0000
,
1000
0000
0100
0000
,
0000
0000
0000
0000
,
2002
0000
0000
0000
,
0000
0000
0000
0000
,
3003
0000
0000
0000
,
0010
0010
0010
0000
,
0100
0100
0100
0000
,
0001
0001
0001
0000
,
1000
1000
1000
0000
,
0100
0010
0001
0000
,
0100
0010
1000
0000
,
0100
1000
0001
0000
,
0100
0001
1000
0000
,
0010
0010
0010
0010
,
0010
0010
0020
0030
,
0100
0100
0100
0100
,
0100
0100
0200
0300
,
0010
0010
0010
0000
,
1000
1000
1000
0000
,
0100
0100
0100
0000
,
0001
0001
0001
0000
,
0020
0000
0030
0000
,
0200
0000
0300
0000
,
2000
0000
3000
0000
,
0002
0000
0003
0000
,
0100
0000
0100
0000
,
0010
0000
0010
0000
,
1000
0000
1000
0000
,
0001
0001
0001
0000
,
1000
1000
1000
0000
,
0110
0000
0110
0000
,
0110
0000
0000
0000
;

//---------------dance-single - ----------------
#NOTES:
     dance-single:
     :
     Beginner:
     2:
     0.115488,0.178171,0.074459,0.106371,0.000000,76.000000,69.000000,7.000000,10.000000,0.000000,0.000000,0.115488,0.178171,0.074459,0.106371,0.000000,76.000000,69.000000,7.000000,10.000000,0.000000,0.000000:
0000
0000
0000
0000
,
0000
0000
0000
0000
,
0000
0000
0000
0000
,
1000
0000
0000
0000
,
1000
0000
0000
0000
,
0001
0000
0000
0000
,
0001
0000
0000
0000
,
0020
0000
0030
0000
,
0200
0000
0300
0000
,
0020
0000
0000
0000
,
0030
0000
0000
0000
,
1001
0000
0000
0000
,
1000
0000
0000
0000
,
0001
0000
0000
0000
,
0001
0000
0000
0000
,
0100
0000
0000
0000
,
0110
0000
0000
0000
,
0010
0000
0000
0000
,
0110
0000
0000
0000
,
1000
0000
1000
0000
,
1000
0000
0000
0000
,
0001
0000
0001
0000
,
0001
0000
0000
0000
,
0020
0000
0000
0000
,
0030
0000
0000
0000
,
0200
0000
0000
0000
,
0300
0000
0000
0000
,
2000
0000
3000
0000
,
0002
0000
0003
0000
,
0200
0000
0300
0000
,
0020
0000
0030
0000
,
1001
0000
0000
0000
,
1000
0000
1000
0000
,
0000
0000
0000
0000
,
0001
0000
0001
0000
,
0000
0000
0000
0000
,
0010
0000
0010
0000
,
0000
0000
0000
0000
,
0110
0000
0000
0000
,
0000
0000
0000
0000
,
0000
0000
0000
0000
,
0001
0000
0100
0000
,
1000
0000
0000
0000
,
1000
0000
0100
0000
,
0001
0000
0000
0000
,
1000
0000
0010
0000
,
0001
0000
0000
0000
,
0001
0000
0010
0000
,
1000
0000
0000
0000
,
0000
0000
0100
0000
,
0000
0000
0100
0000
,
0000
0000
0010
0000
,
0000
0000
0010
0000
,
0000
0001
0000
0001
,
0000
1000
0000
1000
,
0000
0010
0000
0010
,
0000
0200
0000
0300
,
0010
0000
0000
0000
,
0010
0000
0000
0000
,
0010
0000
0000
0000
,
0010
0000
0000
0000
,
1001
0000
0000
0000
,
1000
0000
0000
0000
,
0001
0000
0000
0000
,
0010
0000
0000
0000
,
0100
0000
0000
0000
,
0010
0000
0000
0000
,
1001
0000
0000
0000
;
