#VERSION:0.83;
#TITLE:Lucky Star;
#SUBTITLE:;
#ARTIST:MIRADEY;
#TITLETRANSLIT:;
#SUBTITLETRANSLIT:;
#ARTISTTRANSLIT:;
#GENRE:;
#ORIGIN:;
#CREDIT:;
#BANNER:;
#BACKGROUND:DDR CD-bg.JPG;
#PREVIEWVID:;
#JACKET:Lucky Star-jacket.jpg;
#CDIMAGE:;
#DISCIMAGE:;
#LYRICSPATH:;
#CDTITLE:;
#MUSIC:Lucky Star Miradey.ogg;
#OFFSET:-0.120000;
#SAMPLESTART:67.580002;
#SAMPLELENGTH:15.000004;
#SELECTABLE:YES;
#BPMS:0.000=128.000;
#STOPS:;
#DELAYS:;
#WARPS:;
#TIMESIGNATURES:0.000=4=4;
#TICKCOUNTS:0.000=4;
#COMBOS:0.000=1;
#SPEEDS:0.000=1.000=0.000=0;
#SCROLLS:0.000=1.000;
#FAKES:;
#LABELS:0.000=Song Start;
#BGCHANGES:;
#KEYSOUNDS:;
#ATTACKS:
;

//---------------dance-single - ----------------
#NOTEDATA:;
#CHARTNAME:;
#STEPSTYPE:dance-single;
#DESCRIPTION:;
#CHARTSTYLE:;
#DIFFICULTY:Hard;
#METER:9;
#RADARVALUES:0.338792,0.395257,0.098814,0.142732,0.087835,216.000000,207.000000,9.000000,13.000000,0.000000,0.000000,0.000000,0.000000,0.000000,0.338792,0.395257,0.098814,0.142732,0.087835,216.000000,207.000000,9.000000,13.000000,0.000000,0.000000,0.000000,0.000000,0.000000;
#CREDIT:;
#NOTES:
0000
0000
0000
0000
,
0000
0000
0000
0000
,
0000
0000
0000
0000
,
0000
0000
0000
0000
,
1000
0000
0000
1000
0000
0000
1000
0000
0000
1000
0000
0000
1000
0000
0000
0000
,
0001
0000
0000
0001
0000
0000
0001
0000
0000
0001
0000
0000
0001
0000
0000
0000
,
0100
0010
0100
0001
0100
0010
1000
0100
,
2002
0000
0000
3003
,
0100
0000
0001
0000
0100
0010
1000
0000
,
0100
0000
1000
0000
0010
0100
0001
0000
,
1000
0000
0100
0000
0010
0001
0100
0000
,
0010
0100
0001
1000
0010
0100
0001
1000
,
1001
0100
0001
0100
,
0010
1000
0100
1000
,
0010
0100
0001
0100
,
0010
1000
0100
1000
,
0001
0100
0001
1000
,
0100
1000
0001
0100
,
0010
1000
0100
0001
,
0010
0000
0000
1000
0000
0000
1000
0001
1000
0001
0100
0010
,
1000
0101
1000
0010
,
0100
0001
1000
0001
,
0100
0010
1000
0001
,
1000
1000
0001
0001
,
1002
0000
0000
1000
0000
0000
1000
0000
0000
1000
0000
0000
1003
0000
0000
0000
,
2001
0000
0000
0001
0000
0000
0001
0000
0000
0001
0000
0000
3001
0000
0000
0000
,
0120
0000
0000
0100
0000
0000
0100
0000
0000
0100
0000
0000
0130
0000
0000
0000
,
0210
0000
0000
0010
0000
0000
0010
0000
0000
0010
0000
0000
0310
0000
0000
0000
,
1001
0000
0100
0000
0001
0100
0001
0100
,
0010
0000
1000
0000
0100
1000
0100
0000
,
0010
0000
0100
0000
0001
0100
0010
1000
,
0100
0000
1000
0000
0010
0100
0001
0000
,
1000
0000
0001
0000
0100
0001
0100
0010
,
1000
0000
0100
0000
1000
0010
0100
0000
,
0001
0000
1000
0000
1000
0100
0001
0010
,
1000
0000
0100
0000
0001
0100
1000
0000
,
1001
0000
0001
0000
0100
0010
0100
0000
,
0010
0000
1000
0000
0100
1000
0100
0000
,
1000
0000
0010
0000
0100
0001
0010
0000
,
0001
0000
0100
1000
0010
1000
0100
1000
,
0010
0000
0100
0000
0001
0010
0001
0000
,
0100
0000
0010
0000
1000
0100
0010
0000
,
0001
0000
0100
0001
0200
0000
0000
0000
,
0000
0000
0010
0010
0000
0010
0000
0020
,
0000
0000
0000
0330
,
2000
0002
0000
0000
0000
0000
3003
0000
,
0100
0001
0010
1000
0200
2000
0300
0000
,
0002
0000
0000
0000
,
3003
0000
0000
0000
;

//---------------dance-single - ----------------
#NOTEDATA:;
#CHARTNAME:;
#STEPSTYPE:dance-single;
#DESCRIPTION:;
#CHARTSTYLE:;
#DIFFICULTY:Medium;
#METER:7;
#RADARVALUES:0.280758,0.368906,0.131752,0.131752,0.043917,179.000000,167.000000,12.000000,12.000000,0.000000,0.000000,0.000000,0.000000,0.000000,0.280758,0.368906,0.131752,0.131752,0.043917,179.000000,167.000000,12.000000,12.000000,0.000000,0.000000,0.000000,0.000000,0.000000;
#CREDIT:;
#NOTES:
0000
0000
0000
0000
,
0000
0000
0000
0000
,
0000
0000
0000
0000
,
0000
0000
0000
0000
,
1000
0000
0000
1000
0000
0000
2000
0000
0000
0000
0000
0000
3000
0000
0000
0000
,
0001
0000
0000
0001
0000
0000
0002
0000
0000
0000
0000
0000
0003
0000
0000
0000
,
1000
0000
1000
0000
0001
0100
0001
0100
,
0020
0000
0000
0030
,
0110
0000
0001
0000
0100
0010
1000
0100
,
1000
0000
0100
0000
1000
0010
0100
0001
,
0100
0000
0010
0000
0100
0001
0100
0001
,
0010
0000
0001
0000
0100
0010
1000
0100
,
1000
1000
0001
0001
,
0100
0100
0010
0010
,
1000
0010
0100
0001
,
1000
0100
1000
0001
,
0100
0010
0100
0001
,
1000
0010
1000
0001
,
1000
0100
0001
0100
,
1000
0000
0000
0100
0000
0000
0001
0000
0000
0100
1000
0100
,
1000
1001
0001
0100
,
0010
1000
0100
1000
,
0001
0100
0010
0100
,
0001
1000
0100
1000
,
0010
0000
0000
0010
0000
0000
0020
0000
0000
0000
0000
0000
0030
0000
0000
0000
,
0100
0000
0000
0100
0000
0000
0200
0000
0000
0000
0000
0000
0300
0000
0000
0000
,
0001
0000
0000
0001
0000
0000
0002
0000
0000
0000
0000
0000
0003
0000
0000
0000
,
1000
0000
0000
1000
0000
0000
2000
0000
0000
0000
0000
0000
3000
0000
0000
0000
,
1001
0100
0100
0010
,
1000
0001
0100
0100
,
0001
0100
0010
1000
,
0100
1000
0001
0100
,
0001
1000
0100
0010
,
0001
0100
0010
1000
,
0100
0010
0001
0100
,
0001
0010
1000
0100
,
0001
0101
0001
0101
,
0001
1000
0100
1000
,
1000
1100
1000
1100
,
1000
0010
0100
0001
,
0001
0101
0001
0101
,
0001
1000
0010
1000
,
1000
1100
1000
1100
,
1000
0010
0100
0001
,
2002
0000
0000
3000
,
0000
0200
0000
0000
0000
0003
0000
0000
,
0020
0000
0000
0300
0000
0000
0000
0000
,
2000
0000
0000
0000
,
3030
0000
0000
0000
;

//---------------dance-single - ----------------
#NOTEDATA:;
#CHARTNAME:;
#STEPSTYPE:dance-single;
#DESCRIPTION:;
#CHARTSTYLE:;
#DIFFICULTY:Easy;
#METER:2;
#RADARVALUES:0.149006,0.237154,0.010979,0.318401,0.000000,95.000000,94.000000,1.000000,29.000000,0.000000,0.000000,0.000000,0.000000,0.000000,0.149006,0.237154,0.010979,0.318401,0.000000,95.000000,94.000000,1.000000,29.000000,0.000000,0.000000,0.000000,0.000000,0.000000;
#CREDIT:;
#NOTES:
// measure 0
0000
0000
0000
0000
,  // measure 1
0000
0000
0000
0000
,  // measure 2
0000
0000
0000
0000
,  // measure 3
0000
0000
0000
0000
,  // measure 4
2000
0000
0000
0000
,  // measure 5
3002
0000
0000
0000
,  // measure 6
0203
0000
0000
0000
,  // measure 7
0320
0000
0000
0000
,  // measure 8
1030
1000
2000
0000
,  // measure 9
3010
0010
0020
0000
,  // measure 10
0130
0100
0200
0000
,  // measure 11
0301
0001
0002
0000
,  // measure 12
2003
3000
1000
1000
,  // measure 13
0200
0300
0100
0100
,  // measure 14
0020
0030
0010
0010
,  // measure 15
0002
0003
0001
0001
,  // measure 16
0100
0010
0100
0010
,  // measure 17
0100
0010
0100
0010
,  // measure 18
0200
0000
0000
0300
,  // measure 19
0010
0010
0020
0030
,  // measure 20
2000
0000
0000
3000
,  // measure 21
1000
0000
1000
0000
,  // measure 22
0002
0000
0000
0003
,  // measure 23
0001
0000
0001
0000
,  // measure 24
0200
0000
0000
0300
,  // measure 25
0100
0000
0100
0000
,  // measure 26
0020
0000
0000
0030
,  // measure 27
0010
0000
0010
0000
,  // measure 28
0001
0001
0000
0000
,  // measure 29
1000
1000
0000
0000
,  // measure 30
0001
0001
0000
0000
,  // measure 31
1000
1000
0000
0000
,  // measure 32
0010
0010
0000
0000
,  // measure 33
0100
0100
0000
0000
,  // measure 34
0010
0010
0000
0000
,  // measure 35
0100
0100
0000
0000
,  // measure 36
0010
0010
0020
0000
,  // measure 37
1030
1000
2000
0000
,  // measure 38
3001
0001
0002
0000
,  // measure 39
0103
0100
0200
0000
,  // measure 40
0301
0001
0002
0000
,  // measure 41
0013
0010
0020
0000
,  // measure 42
0130
0100
0200
0000
,  // measure 43
1300
1000
2000
0000
,  // measure 44
0002
0000
0000
0000
,  // measure 45
0000
0000
3003
0000
,  // measure 46
0220
0000
0000
0000
,  // measure 47
0000
0000
0000
0000
,  // measure 48
0330
0000
0000
0000
;

//---------------dance-single - ----------------
#NOTEDATA:;
#CHARTNAME:;
#STEPSTYPE:dance-single;
#DESCRIPTION:;
#CHARTSTYLE:;
#DIFFICULTY:Beginner;
#METER:1;
#RADARVALUES:0.116068,0.154809,0.021959,0.153711,0.000000,74.000000,72.000000,2.000000,14.000000,0.000000,0.000000,0.000000,0.000000,0.000000,0.116068,0.154809,0.021959,0.153711,0.000000,74.000000,72.000000,2.000000,14.000000,0.000000,0.000000,0.000000,0.000000,0.000000;
#CREDIT:;
#NOTES:
// measure 0
0000
0000
0000
0000
,  // measure 1
0000
0000
0000
0000
,  // measure 2
0000
0000
0000
0000
,  // measure 3
0000
0000
0000
0000
,  // measure 4
1000
0000
0000
0000
,  // measure 5
0001
0000
0000
0000
,  // measure 6
0100
0000
0000
0000
,  // measure 7
0010
0000
0000
0000
,  // measure 8
1000
1000
0000
0000
,  // measure 9
0010
0010
0000
0000
,  // measure 10
0100
0100
0000
0000
,  // measure 11
0001
0001
0000
0000
,  // measure 12
2000
3000
1000
0000
,  // measure 13
0200
0300
0100
0000
,  // measure 14
0020
0030
0010
0000
,  // measure 15
0002
0003
0001
0000
,  // measure 16
0100
0000
0100
0000
,  // measure 17
0100
0000
0100
0000
,  // measure 18
0200
0000
0300
0000
,  // measure 19
0020
0000
0030
0000
,  // measure 20
2000
0000
0000
3000
,  // measure 21
1000
0000
1000
0000
,  // measure 22
0002
0000
0000
0003
,  // measure 23
0001
0000
0001
0000
,  // measure 24
0200
0000
0000
0300
,  // measure 25
0100
0000
0100
0000
,  // measure 26
0020
0000
0000
0030
,  // measure 27
0010
0000
0010
0000
,  // measure 28
0001
0001
0000
0000
,  // measure 29
1000
1000
0000
0000
,  // measure 30
0001
0001
0000
0000
,  // measure 31
1000
1000
0000
0000
,  // measure 32
0010
0010
0000
0000
,  // measure 33
0100
0100
0000
0000
,  // measure 34
0010
0010
0000
0000
,  // measure 35
0100
0100
0000
0000
,  // measure 36
0010
0010
0000
0000
,  // measure 37
1000
1000
0000
0000
,  // measure 38
0001
0001
0000
0000
,  // measure 39
0100
0100
0000
0000
,  // measure 40
0001
0001
0000
0000
,  // measure 41
0010
0010
0000
0000
,  // measure 42
0100
0100
0000
0000
,  // measure 43
1000
1000
0000
0000
,  // measure 44
2002
0000
0000
0000
,  // measure 45
3003
0000
0000
0000
,  // measure 46
0220
0000
0000
0000
,  // measure 47
0330
0000
0000
0000
;
