#VERSION:0.83;
#TITLE:Look To The Sky;
#SUBTITLE:(Trance Mix);
#ARTIST:System S.F. feat. Anna;
#TITLETRANSLIT:;
#SUBTITLETRANSLIT:;
#ARTISTTRANSLIT:;
#GENRE:Trance;
#ORIGIN:;
#CREDIT:;
#BANNER:Look To The Sky (Future Trance Mix).png;
#BACKGROUND:Look To The Sky (Future Trance Mix)-bg.png;
#PREVIEWVID:;
#JACKET:Look To The Sky (Trance Mix)-jacket.png;
#CDIMAGE:;
#DISCIMAGE:;
#LYRICSPATH:;
#CDTITLE:;
#MUSIC:Look To The Sky (Future Trance Mix).ogg;
#OFFSET:-0.053446;
#SAMPLESTART:34.339958;
#SAMPLELENGTH:12.000000;
#SELECTABLE:YES;
#DISPLAYBPM:140.000000;
#BPMS:0.000=140.000;
#STOPS:;
#DELAYS:;
#WARPS:;
#TIMESIGNATURES:0.000=4=4;
#TICKCOUNTS:0.000=4;
#COMBOS:0.000=1;
#SPEEDS:0.000=1.000=0.000=0;
#SCROLLS:0.000=1.000;
#FAKES:;
#LABELS:0.000=Song Start;
#BGCHANGES:;
#KEYSOUNDS:;
#ATTACKS:
;

//---------------dance-single - ----------------
#NOTEDATA:;
#CHARTNAME:;
#STEPSTYPE:dance-single;
#DESCRIPTION:;
#CHARTSTYLE:;
#DIFFICULTY:Hard;
#METER:11;
#RADARVALUES:0.422534,0.501495,0.401407,0.126760,0.047535,280.000000,242.000000,38.000000,12.000000,0.000000,0.000000,0.000000,0.000000,0.000000,0.422534,0.501495,0.401407,0.126760,0.047535,280.000000,242.000000,38.000000,12.000000,0.000000,0.000000,0.000000,0.000000,0.000000;
#CREDIT:;
#DISPLAYBPM:140.000000;
#NOTES:
0000
0000
0000
0000
,
0000
0000
0000
0000
,
0000
0000
0000
0000
,
0000
0000
0000
0010
,
0200
0010
0010
0010
,
0010
0310
0001
1000
,
0001
0000
0002
2000
0000
0000
0000
0000
,
0000
0000
0000
3003
,
0020
0100
0100
0100
,
0100
0130
1000
0001
,
1000
0000
1000
0002
0000
1000
0000
1000
,
0000
1000
0000
1000
0000
1000
0003
1000
,
0020
0100
0100
0100
,
0100
0130
1000
0001
,
1000
0000
1000
0002
0000
1000
0000
1000
,
0000
1000
0000
1000
1000
1000
1003
1000
,
0010
0000
0000
0000
0000
0000
0000
0000
1000
0100
1000
0100
0000
0000
0000
0000
,
0010
0000
0000
0000
0000
0000
0000
0000
0010
0001
0010
0001
0000
0000
0000
0000
,
0001
0000
0000
0000
0000
0000
0000
0000
0010
1000
0010
1000
0000
0000
0000
0000
,
1010
1001
0101
0110
,
1000
0000
0101
0000
0001
0000
0100
0001
,
1000
0001
0100
0000
1100
0000
0101
0000
,
1000
0000
0101
0000
1000
0001
0100
0000
,
0001
1000
0001
0010
0100
1000
0010
0000
,
0010
0100
0010
0000
0001
0000
0001
1000
,
0001
1000
0100
0000
0001
0000
1000
0000
,
0001
0000
1100
0000
1000
0001
0100
0000
,
1000
0001
1000
0000
1000
0001
1000
0000
,
0001
0000
1100
0000
0001
0000
0001
1000
,
0001
1000
0100
0000
0101
0000
1100
0000
,
0001
0000
1100
0000
0001
1000
0100
0000
,
1000
0001
0010
0100
1000
0001
1000
0000
,
1000
0001
1000
0000
1000
0010
1000
0001
,
1000
0001
0100
0000
1000
0000
0001
0000
,
1000
0000
0101
0000
1000
0001
0100
0000
,
0010
0100
0001
1000
0010
0100
0001
0000
,
0012
1000
0010
0000
0100
0000
0103
0000
,
2100
0001
0100
0000
0010
0000
3010
0000
,
1010
1001
0101
0110
,
1001
0110
1001
0110
,
2010
0001
0010
0000
0100
0000
3100
0000
,
0100
0000
1000
0000
0100
0000
0000
0000
0010
0000
1000
0100
0000
0000
0000
0000
,
0010
1000
0001
1000
0100
0010
0001
0000
,
0001
0010
0100
1000
0001
0010
0100
0000
,
2010
0001
0010
0000
0100
0000
3100
0000
,
0102
1000
0100
0000
0010
0000
0013
0000
,
0011
1001
1100
0110
,
1001
0110
1001
0110
,
0010
0000
0100
0000
0010
0000
0000
0000
1000
0000
0001
1000
0000
0000
0000
0000
,
1000
0000
0100
0000
1000
0000
0000
0000
0001
0000
0100
0001
0000
0000
0000
0000
,
0010
1100
0010
0101
,
1000
0100
0001
0100
,
1001
0100
0100
0100
;

//---------------dance-double - ----------------
#NOTEDATA:;
#CHARTNAME:;
#STEPSTYPE:dance-double;
#DESCRIPTION:;
#CHARTSTYLE:;
#DIFFICULTY:Hard;
#METER:11;
#RADARVALUES:0.418007,0.501495,0.390844,0.126760,0.047535,277.000000,240.000000,37.000000,12.000000,0.000000,0.000000,0.000000,0.000000,0.000000,0.418007,0.501495,0.390844,0.126760,0.047535,277.000000,240.000000,37.000000,12.000000,0.000000,0.000000,0.000000,0.000000,0.000000;
#CREDIT:;
#DISPLAYBPM:140.000000;
#NOTES:
00000000
00000000
00000000
00000000
,
00000000
00000000
00000000
00000000
,
00000000
00000000
00000000
00000000
,
00000000
00000000
00000000
00000010
,
00000200
00000010
00000010
00000010
,
00000010
00000310
00000001
00001000
,
01000000
00200000
02000000
00000000
,
00000000
00000000
00000000
03300000
,
00020000
00001000
00001000
00001000
,
00001000
00031000
00000100
00000010
,
00001000
00000000
00001000
00000002
00000000
00000100
00000000
00000100
,
00000000
00000100
00000000
00000100
00000000
00000100
00000003
00000100
,
00002000
00010000
00010000
00010000
,
00010000
00013000
00100000
01000000
,
00010000
00000000
00010000
20000000
00000000
00010000
00000000
00010000
,
00000000
00010000
00000000
00010000
00010000
00010000
30010000
00010000
,
01000000
00000000
00000000
00000000
00000000
00000000
00000000
00000000
00010000
01000000
00010000
01000000
00000000
00000000
00000000
00000000
,
00001000
00000000
00000000
00000000
00000000
00000000
00000000
00000000
00000010
00000001
00000010
00000001
00000000
00000000
00000000
00000000
,
00000001
00000000
00000000
00000000
00000100
00000000
00000000
00000000
00000010
00001000
00000010
00001000
00000000
00000000
00000000
00000000
,
00001100
00001010
00011000
01000000
,
00100000
01010000
10000000
00100000
,
01000000
00100000
01000000
00000000
01010000
00000000
11000000
00000000
,
00100000
00000000
10010000
00000000
00100000
01000000
00001000
00000000
,
00000010
00000100
00000010
00000100
00001000
00000001
00000100
00000000
,
00000010
00010000
01000000
00000000
10000000
00000000
10000000
00010000
,
01000000
00100000
01000000
00000000
00010000
00000000
00000010
00000000
,
00000001
00000000
00001100
00000000
00000010
00000100
00000001
00000000
,
00001000
00000001
00001000
00000000
00001000
00000001
00001000
00000000
,
00000010
00000000
00001100
00000000
00010000
00000000
00010000
00100000
,
01000000
00100000
01000000
00000000
01010000
00000000
11000000
00000000
,
00100000
00000000
10010000
00000000
00100000
00001000
00000100
00000000
,
00000001
00001000
00000001
00000000
00000001
00001000
00000001
00000000
,
00000100
00000010
00010000
00000000
00010000
00100000
01000000
00100000
,
10000000
00010000
10000000
00000000
01000000
00000000
00100000
00000000
,
00010000
00000000
11000000
00000000
00010000
10000000
01000000
00000000
,
00010000
00001000
00000100
00000001
00001000
00000100
00000010
00000000
,
00000012
00001000
00000010
00000000
00000100
00000000
00000103
00000000
,
00002100
00000001
00000100
00000000
00000010
00000000
00003010
00000000
,
00010010
00011000
00110000
01100000
,
10010000
01100000
10010000
01100000
,
01020000
10000000
01000000
00000000
00100000
00000000
00130000
00000000
,
00001000
00000000
00000100
00000000
00000001
00000000
00000000
00000000
00001000
00000000
00000001
00001000
00000000
00000000
00000000
00000000
,
00000010
00001000
00000001
00001000
00000100
00000010
00000001
00000000
,
00000001
00000100
00000010
00000000
00000010
00010000
01000000
00000000
,
00120000
10000000
00100000
00000000
01000000
00000000
01030000
00000000
,
20100000
00010000
00100000
00000000
01000000
00000000
31000000
00000000
,
00110000
00011000
00001010
00000110
,
00001001
00000110
00001001
00000110
,
00000010
00000000
00001000
00000000
00000010
00000000
00000000
00000000
00010000
00000000
00001000
00010000
00000000
00000000
00000000
00000000
,
01000000
00000000
00100000
00000000
01000000
00000000
00000000
00000000
10000000
00000000
00010000
10000000
00000000
00000000
00000000
00000000
,
00100000
11000000
00100000
01010000
,
00100000
00001000
00000100
00000001
,
00000110
00000001
00000001
00000001
;

//---------------dance-single - ----------------
#NOTEDATA:;
#CHARTNAME:;
#STEPSTYPE:dance-single;
#DESCRIPTION:;
#CHARTSTYLE:;
#DIFFICULTY:Challenge;
#METER:12;
#RADARVALUES:0.416498,0.557216,0.116197,0.211267,0.237675,276.000000,265.000000,11.000000,20.000000,0.000000,0.000000,0.000000,0.000000,0.000000,0.416498,0.557216,0.116197,0.211267,0.237675,276.000000,265.000000,11.000000,20.000000,0.000000,0.000000,0.000000,0.000000,0.000000;
#CREDIT:;
#DISPLAYBPM:140.000000;
#NOTES:
// measure 0
0000
0000
0000
0000
,  // measure 1
0000
0000
0000
0000
,  // measure 2
0000
0000
0000
0000
,  // measure 3
0000
0000
0000
0000
,  // measure 4
0001
0000
0100
0000
0001
0100
0000
0010
0100
0000
0001
0100
0000
0000
0010
0000
,  // measure 5
0010
0000
1000
0000
0100
0010
0000
0100
1000
0000
0100
0010
0000
0000
0100
0000
,  // measure 6
0100
0000
1000
0000
0001
0010
0000
0001
1000
0000
0001
0010
0000
0000
0100
0000
,  // measure 7
1000
0000
1000
0000
0001
0100
0000
0100
0001
0000
0001
1000
0000
0000
0100
0000
,  // measure 8
2002
0000
0000
0000
,  // measure 9
0000
0000
0003
0000
0020
0030
0002
0003
,  // measure 10
0200
0000
0300
0002
0000
0003
0200
0000
,  // measure 11
0000
0000
0300
3002
,  // measure 12
0200
0000
0000
0000
,  // measure 13
0000
0000
0300
0000
0020
0030
2000
3000
,  // measure 14
0200
0300
0000
2000
0000
0000
0000
0000
,  // measure 15
0000
0000
0000
3003
,  // measure 16
0110
0000
0000
0000
0000
0000
0000
0000
1000
0100
1000
0100
0000
0000
0000
0000
,  // measure 17
0010
0000
0000
0000
0000
0000
0000
0000
0001
0100
0001
0100
0000
0000
0000
0000
,  // measure 18
0010
0000
0000
0000
0000
0000
0000
0000
1000
0001
1000
0001
0000
0000
0000
0000
,  // measure 19
2000
3100
0002
0103
,  // measure 20
1000
0000
0010
0000
0100
0000
0000
0000
0001
0000
0000
0001
0000
0000
0010
0000
,  // measure 21
0100
0000
0010
0000
0001
0000
0000
0000
1000
0000
0000
1000
0000
0000
0100
0000
,  // measure 22
0001
0000
0100
0000
1000
0000
0000
0000
0100
0000
0000
0010
0000
0000
0001
0000
,  // measure 23
0100
0000
0001
0000
1000
0000
0000
0000
0010
0000
0010
0100
0000
0000
0010
0000
,  // measure 24
1000
0000
0001
0000
0010
0000
0000
0000
0100
0000
0000
0010
0000
0000
0001
0000
,  // measure 25
1000
0000
0100
0000
0001
0000
0000
0000
0100
0000
0000
0010
0000
0000
0001
0000
,  // measure 26
1000
0000
0100
0000
1000
0000
0000
0000
0001
0000
0000
0001
0000
0000
1000
0000
,  // measure 27
0010
0000
0100
0000
0001
0000
0000
0000
1000
0000
0010
0100
0000
0000
0010
0000
,  // measure 28
1000
0000
0001
0000
0010
0000
0000
0000
0100
0000
0000
1000
0000
0000
0100
0000
,  // measure 29
0010
0000
0001
0000
1000
0000
0000
0000
0010
0000
0000
0010
0000
0000
0100
0000
,  // measure 30
0001
0000
1000
0000
0100
0000
0000
0000
0010
0000
0000
0010
0000
0000
0001
0000
,  // measure 31
1000
0000
0100
0000
0010
0000
0000
0000
0100
0000
1000
0001
0000
0000
0100
0000
,  // measure 32
0010
0000
1000
0000
0100
0000
0000
0000
1000
0000
0000
0001
0000
0000
0010
0000
,  // measure 33
0100
0000
0010
0000
0001
0000
0000
0000
0100
0000
0010
1000
0000
0000
0010
0000
,  // measure 34
0100
0000
0001
0000
1000
0000
0000
0000
0100
0000
0000
0010
0000
0000
0001
0000
,  // measure 35
1000
0000
0100
0000
1000
0000
0000
0000
0001
0000
0100
0010
0000
0000
1000
0000
,  // measure 36
0100
0000
0010
0001
0100
0000
0010
1000
,  // measure 37
0100
0000
0010
0001
0100
0000
0010
1000
,  // measure 38
0100
0011
1010
0101
,  // measure 39
1100
0000
0000
0000
1001
0000
0000
0000
1000
0000
0001
1000
0000
0000
0000
0000
,  // measure 40
0010
0000
1000
0000
0001
0000
0000
0000
0100
0000
0100
0010
0000
0000
0000
0000
,  // measure 41
1000
0000
0001
0000
0010
0000
0000
0000
0100
0000
0100
0010
0000
0000
0000
0000
,  // measure 42
0001
0000
1000
0000
0100
0000
0000
0000
0010
0000
0001
1000
0000
0000
0000
0000
,  // measure 43
0010
0000
0100
0000
0001
0000
0000
0000
1000
0000
0010
0100
0000
0000
0000
0000
,  // measure 44
2010
3100
0012
0103
,  // measure 45
2001
3100
1002
0103
,  // measure 46
1000
0010
0001
0000
0001
0010
1000
0000
,  // measure 47
0001
0000
0010
0000
0100
0000
1000
0000
0001
0000
0010
0100
0000
0000
0000
0000
,  // measure 48
0010
0000
0001
0000
0100
0000
0000
0000
0010
0000
1000
0001
0000
0000
0000
0000
,  // measure 49
0100
0000
0010
0000
1000
0000
0000
0000
0100
0000
0100
1000
0000
0000
0000
0000
,  // measure 50
0001
0000
0010
0000
0100
0000
0000
0000
0010
0000
0001
1000
0000
0000
0000
0000
,  // measure 51
0001
0000
0010
0000
0100
0000
1000
0000
0010
0000
1000
0001
0000
0100
0001
0000
,  // measure 52
2000
0010
0001
3100
;

//---------------dance-single - ----------------
#NOTEDATA:;
#CHARTNAME:;
#STEPSTYPE:dance-single;
#DESCRIPTION:;
#CHARTSTYLE:;
#DIFFICULTY:Medium;
#METER:7;
#RADARVALUES:0.294265,0.390051,0.179577,0.475350,0.000000,195.000000,178.000000,17.000000,45.000000,0.000000,0.000000,0.000000,0.000000,0.000000,0.294265,0.390051,0.179577,0.475350,0.000000,195.000000,178.000000,17.000000,45.000000,0.000000,0.000000,0.000000,0.000000,0.000000;
#CREDIT:;
#DISPLAYBPM:140.000000;
#NOTES:
0000
0000
0000
0000
,
0000
0000
0000
0000
,
0000
0000
0000
0000
,
0000
0000
0000
1000
,
2000
0000
0000
0000
,
0000
0000
3200
0320
,
0032
0000
0000
0200
0000
0000
0000
0000
,
0000
0000
0000
0303
,
0020
0000
0000
0000
,
0000
0000
2030
3200
,
0320
0000
0000
0032
0000
0000
0200
0000
,
0000
0000
0003
0302
,
0023
0000
0000
0000
,
0000
0000
0230
2300
,
3002
0000
0000
0020
0000
0000
0000
0000
,
0000
0000
0000
0033
,
2001
0100
0001
0100
,
3002
0100
1000
0100
,
2003
0010
0001
3010
,
0002
0013
2000
3100
,
1001
0000
1000
0001
0100
0000
0001
1000
,
0100
0010
0010
0001
,
1000
0000
0010
0100
0001
0000
0010
0100
,
1000
0001
1000
0100
,
0100
0000
0010
0001
1000
0000
0010
0100
,
0001
1000
0010
0100
,
0100
0000
0001
0010
0100
0000
1000
0100
,
0010
0001
1000
0100
,
0100
0000
0010
0001
1000
0000
0010
0100
,
0001
0100
1010
0100
,
0011
1000
0101
0001
,
1000
0100
1000
0001
0000
0001
0000
0000
,
1000
1010
0001
0011
,
1000
0110
0001
1010
,
0100
1001
0010
0011
,
0001
0100
0001
1000
0000
0010
0000
0000
,
2000
3100
0002
0103
,
2000
3100
0002
0103
,
0010
2002
3003
0010
,
1001
0000
0100
0001
1000
0000
0100
0000
,
0020
0031
2000
3010
,
0002
0103
0020
1030
,
0100
0000
2002
0000
3003
0000
1000
0100
,
0020
0100
0130
0000
,
0002
0010
1000
0100
,
2003
0010
0001
3100
,
1002
0103
2001
3100
,
0001
0010
0100
0000
1000
0100
0010
0000
,
0002
0100
1000
0010
,
2003
0100
0001
0010
,
3001
2002
3003
0100
,
0020
1000
0230
0001
,
0310
0010
0010
0010
;

//---------------dance-single - ----------------
#NOTEDATA:;
#CHARTNAME:;
#STEPSTYPE:dance-single;
#DESCRIPTION:;
#CHARTSTYLE:;
#DIFFICULTY:Easy;
#METER:5;
#RADARVALUES:0.176559,0.278608,0.073943,0.348590,0.000000,117.000000,110.000000,7.000000,33.000000,0.000000,0.000000,0.000000,0.000000,0.000000,0.176559,0.278608,0.073943,0.348590,0.000000,117.000000,110.000000,7.000000,33.000000,0.000000,0.000000,0.000000,0.000000,0.000000;
#CREDIT:;
#DISPLAYBPM:140.000000;
#NOTES:
0000
0000
0000
0000
,
0000
0000
0000
0000
,
0000
0000
0000
0000
,
0000
0000
0000
0000
,
0002
0000
0000
0000
,
0000
0003
1000
0010
,
0200
0000
0000
0000
,
0000
0000
0000
0300
,
0020
0000
0000
0000
,
0000
0030
1000
0100
,
0020
0000
0000
0000
,
0000
0000
0030
0002
,
2000
0000
0000
0000
,
0000
3003
0100
1000
,
0002
0000
0020
0000
,
0000
0000
0000
0033
,
2001
0000
0000
0000
,
3002
0000
0000
0000
,
0023
0000
0000
0000
,
0230
0000
0000
0000
,
1300
1000
0010
0010
,
0100
0100
0001
0000
,
1000
1000
0001
0001
,
0010
0100
1000
0000
,
0001
0001
0100
0100
,
0010
1000
0001
0000
,
1000
1000
0010
0010
,
0100
0001
0010
0000
,
0100
0100
0010
0001
,
1000
0000
1000
0000
,
0001
0010
0100
1000
,
0001
0000
0001
0000
,
0100
0010
1000
0100
,
0010
0000
0010
0000
,
0001
0100
0010
1000
,
0001
0000
1000
0000
,
0110
0000
0101
0000
,
1001
0000
1100
0000
,
0110
0020
0000
0031
,
0200
0000
0000
0300
,
0020
0030
2000
3000
,
0200
0300
0002
0003
,
1000
0100
0010
0002
,
2000
0000
3003
0000
,
0020
0030
0200
0300
,
0002
0003
0020
0030
,
0200
2000
3300
0001
,
0002
0000
0003
0000
,
2000
3000
0020
0030
,
0200
0300
0002
0003
,
1000
0100
0020
0030
,
0200
0010
0010
0310
,
0110
0100
0100
0100
;

//---------------dance-single - ----------------
#NOTEDATA:;
#CHARTNAME:;
#STEPSTYPE:dance-single;
#DESCRIPTION:;
#CHARTSTYLE:;
#DIFFICULTY:Beginner;
#METER:2;
#RADARVALUES:0.114688,0.274647,0.116197,0.073943,0.000000,76.000000,65.000000,11.000000,7.000000,0.000000,0.000000,0.000000,0.000000,0.000000,0.114688,0.274647,0.116197,0.073943,0.000000,76.000000,65.000000,11.000000,7.000000,0.000000,0.000000,0.000000,0.000000,0.000000;
#CREDIT:;
#DISPLAYBPM:140.000000;
#NOTES:
0000
0000
0000
0000
,
0000
0000
0000
0000
,
0000
0000
0000
0000
,
0000
0000
0000
0000
,
2000
0000
0000
0000
,
3000
0000
0000
0000
,
0002
0000
0000
0000
,
0003
0000
0000
0000
,
0020
0000
0000
0000
,
0000
0000
0000
0000
,
0030
0000
0000
0000
,
0000
0000
0000
0000
,
0200
0000
0000
0000
,
0000
0000
0000
0000
,
0300
0000
0000
0000
,
0000
0000
0000
0000
,
1001
0000
0000
0000
,
0000
0000
0000
0000
,
1000
0000
0000
0000
,
0001
0000
0000
0000
,
0110
0000
0100
0000
,
0010
0000
0010
0000
,
1000
0000
1000
0000
,
0001
0000
1000
0000
,
0001
0000
0001
0000
,
0010
0000
0010
0000
,
0100
0000
0100
0000
,
1000
0000
0001
0000
,
1000
0000
0010
0000
,
0001
0000
0100
0000
,
1000
0000
0010
0000
,
1001
0000
0000
0000
,
0001
0000
0010
0000
,
1000
0000
0100
0000
,
0001
0000
0010
0000
,
1001
0000
0000
0000
,
0001
0000
0001
0000
,
0001
0000
0001
0000
,
1000
0000
1000
0000
,
2000
0000
3000
0000
,
0010
0000
0010
0000
,
0100
0000
0100
0000
,
0020
0030
0000
0000
,
0200
0000
0300
0000
,
0001
0000
0001
0000
,
1000
0000
1000
0000
,
0100
0000
0100
0000
,
0110
0000
0000
0000
,
1001
0000
0110
0000
,
1001
0000
0110
0000
,
1001
0000
0000
0000
,
0100
0000
0010
0000
,
1001
0000
0000
0000
;
