#VERSION:0.83;
#TITLE:Let's Go Dee Jay;
#SUBTITLE:;
#ARTIST:Nuage;
#TITLETRANSLIT:;
#SUBTITLETRANSLIT:;
#ARTISTTRANSLIT:;
#GENRE:;
#ORIGIN:;
#CREDIT:;
#BANNER:;
#BACKGROUND:DDR CD-bg.JPG;
#PREVIEWVID:;
#JACKET:Let's Go Dee Jay-jacket.jpg;
#CDIMAGE:;
#DISCIMAGE:;
#LYRICSPATH:;
#CDTITLE:;
#MUSIC:Let's Go Dee Jay.mp3;
#OFFSET:-0.030002;
#SAMPLESTART:45.360104;
#SAMPLELENGTH:12.500000;
#SELECTABLE:YES;
#BPMS:0.000=148.000;
#STOPS:;
#DELAYS:;
#WARPS:;
#TIMESIGNATURES:0.000=4=4;
#TICKCOUNTS:0.000=4;
#COMBOS:0.000=1;
#SPEEDS:0.000=1.000=0.000=0;
#SCROLLS:0.000=1.000;
#FAKES:;
#LABELS:0.000=Song Start;
#BGCHANGES:;
#KEYSOUNDS:;
#ATTACKS:
;

//---------------dance-single - ----------------
#NOTEDATA:;
#CHARTNAME:;
#STEPSTYPE:dance-single;
#DESCRIPTION:;
#CHARTSTYLE:;
#DIFFICULTY:Hard;
#METER:13;
#RADARVALUES:0.659023,0.824031,0.152598,0.070430,0.363888,393.000000,380.000000,13.000000,6.000000,0.000000,0.000000,0.000000,0.000000,0.000000,0.659023,0.824031,0.152598,0.070430,0.363888,393.000000,380.000000,13.000000,6.000000,0.000000,0.000000,0.000000,0.000000,0.000000;
#CREDIT:;
#NOTES:
0000
0000
0000
0000
,
0000
0000
0000
0000
,
0000
0000
0000
0000
,
0000
0000
0000
0000
,
1000
0000
0000
0000
0010
0000
0100
0001
0100
0000
0000
0000
0010
0000
0000
0000
,
1000
0000
0001
0100
0000
0001
0100
0000
0001
0000
0010
0000
0001
0000
1000
0000
,
0100
0000
1000
0100
0000
0001
0100
0000
1000
0100
0001
0100
1000
0100
0001
0100
,
1000
0000
1000
0010
0000
0100
0001
0000
0100
0000
0010
0100
0000
0001
0100
0000
,
1001
0000
0000
0000
0010
0000
0100
0010
0100
0000
0000
0000
0001
0000
0000
0000
,
1000
0000
0001
0100
0000
0001
0100
0000
0010
0000
0000
0000
1000
0000
0100
0000
,
1000
0000
0001
0010
0000
0001
0010
0000
0001
0100
0010
1000
0100
1000
0010
0100
,
0001
0000
1000
0001
0000
0100
0001
0000
0010
0001
0010
0001
0100
0010
0100
0010
,
1000
0000
1000
0001
0100
0010
0100
0001
,
1000
0100
0010
0100
1000
0010
0100
0010
,
1000
0001
0100
0001
0100
0010
0100
0001
,
0010
0001
1000
0100
1000
0010
0100
0001
,
0100
0010
1000
0100
1000
0001
0100
0001
,
0010
0001
1000
0100
1000
0010
0100
0001
,
1000
0010
1000
0010
0100
0001
0100
0010
,
0000
0000
0100
0000
0000
0000
0001
0000
0000
0000
1000
0000
0001
1000
0001
1000
,
0010
0100
0001
0100
0010
1000
0100
1000
,
0010
0100
0001
0100
0010
1000
0100
1000
,
0010
0100
0001
0100
0001
0010
0001
1000
,
0010
1000
0100
1000
0010
0100
0001
0100
,
0010
1000
0100
1000
0010
0100
0001
0100
,
0010
1000
0100
1000
0001
0010
0001
0100
,
0010
1000
1000
0001
0001
0100
0010
0100
,
0000
1010
0000
0101
0000
2010
0000
0000
,
3100
0000
0100
0000
1000
0002
0000
0000
,
0103
0000
0010
0000
0100
0000
0010
0000
1000
0000
1000
0100
0000
0010
0001
0000
,
0100
0001
0100
0010
1000
0100
1000
0001
,
0100
0010
1000
0100
1000
0001
0100
0010
,
0100
0000
0001
0000
0001
0020
0000
0000
,
0031
0000
0100
0000
0010
0000
1000
0000
0100
0000
1000
0010
0000
0100
0002
0000
,
0000
1003
0010
0100
0010
1000
0100
1000
,
0000
1001
0000
0101
0001
0010
0001
0010
,
0100
0000
1000
0000
0010
0200
0000
0000
,
0310
0000
1000
0000
0100
0000
1000
0000
0001
0000
1000
0001
0000
0100
0010
0000
,
1000
0100
1000
0010
1000
0100
1000
0010
,
0100
0001
0100
0010
0100
0001
0100
0010
,
1000
0000
0101
0000
0011
2100
0000
0000
,
3010
0000
0100
0000
0001
0000
0100
0000
0010
0000
1000
0010
0000
0100
0010
0000
,
1000
0001
0010
0001
0001
0001
0001
0100
,
0000
0010
0000
0100
0000
1001
0000
0000
,
1000
0000
0000
0000
0010
0000
0100
0001
0100
0000
0000
0000
0010
0000
0000
0000
,
1000
0000
0001
0100
0000
0001
0100
0000
0001
0000
0010
0000
0001
0000
1000
0000
,
0100
0000
1000
0100
0000
0001
0100
0000
1000
0100
0001
0100
1000
0100
0001
0100
,
1000
0101
1010
1001
,
1000
0000
0000
0000
0010
0000
0100
0010
0100
0000
0000
0000
0001
0000
0000
0000
,
1000
0000
0001
0100
0000
0001
0100
0000
0010
0000
0000
0000
1000
0000
0100
0000
,
1000
0000
0001
0010
0000
0001
0010
0000
0001
0100
0010
1000
0100
1000
0010
0100
,
0001
0000
1000
0001
0000
0100
0001
0000
0010
0001
0010
0001
0100
0010
0100
0010
,
1000
0000
0000
0000
;

//---------------dance-single - ----------------
#NOTEDATA:;
#CHARTNAME:;
#STEPSTYPE:dance-single;
#DESCRIPTION:;
#CHARTSTYLE:;
#DIFFICULTY:Medium;
#METER:7;
#RADARVALUES:0.414195,0.518834,0.176075,0.117383,0.011738,247.000000,232.000000,15.000000,10.000000,0.000000,0.000000,0.000000,0.000000,0.000000,0.414195,0.518834,0.176075,0.117383,0.011738,247.000000,232.000000,15.000000,10.000000,0.000000,0.000000,0.000000,0.000000,0.000000;
#CREDIT:;
#NOTES:
// measure 0
0000
0000
0000
0000
,  // measure 1
0000
0000
0000
0000
,  // measure 2
0000
0000
0000
0000
,  // measure 3
0000
0000
0000
0000
,  // measure 4
1002
0100
0010
0100
,  // measure 5
0100
0010
0013
0100
,  // measure 6
2001
0001
0100
0100
,  // measure 7
0010
0100
0010
3100
,  // measure 8
1002
0010
1000
0010
,  // measure 9
0100
0100
0100
1003
,  // measure 10
2001
0000
0000
0001
0000
0000
0001
0000
3001
0000
0100
0000
0010
0000
0000
0000
,  // measure 11
1001
0110
1001
0110
,  // measure 12
1000
0001
1000
0000
0100
0010
0100
0000
,  // measure 13
1000
0100
0010
0000
1000
0010
0100
0000
,  // measure 14
1000
0001
0100
0000
0100
0010
0100
0000
,  // measure 15
0010
0001
1000
0000
1000
0010
0100
0000
,  // measure 16
0100
0010
1000
0000
1000
0001
0100
0000
,  // measure 17
0010
0001
1000
0000
1000
0010
0100
0000
,  // measure 18
1000
0010
1000
0000
0100
0001
0100
0010
,  // measure 19
0000
0100
0000
0001
0000
1000
0001
0000
,  // measure 20
0001
0100
0001
0000
0010
1000
0100
0000
,  // measure 21
0010
0100
0001
0000
0010
1000
0100
0000
,  // measure 22
0010
0100
0001
0000
0001
0010
0001
0000
,  // measure 23
0010
1000
0100
0000
0010
0100
0001
0000
,  // measure 24
0010
1000
0100
0000
0010
0100
0001
0000
,  // measure 25
0010
1000
0100
0000
0001
0010
0001
0000
,  // measure 26
0010
0001
1000
0000
0001
0100
0010
0100
,  // measure 27
0000
1010
0000
0101
0000
2020
0000
3030
,  // measure 28
1000
0000
0001
0000
0100
0010
0000
0000
,  // measure 29
1000
0001
0100
0010
0000
0000
0000
0000
,  // measure 30
1000
0100
0001
0010
,  // measure 31
1000
0100
0001
0010
,  // measure 32
1000
0000
0100
0000
0010
0001
0000
0000
,  // measure 33
1000
0100
0010
0001
0000
0000
0000
0000
,  // measure 34
0001
0100
1000
0010
,  // measure 35
0001
0100
1000
0010
,  // measure 36
0001
0000
0100
0000
0010
1000
0000
0000
,  // measure 37
0001
0100
0010
1000
0000
0000
0000
0000
,  // measure 38
0001
0100
1000
0100
,  // measure 39
0001
0010
1000
0010
,  // measure 40
0001
0000
0001
0000
1000
1000
0000
0000
,  // measure 41
0010
0010
0100
0100
0000
0000
0000
0000
,  // measure 42
0001
0010
1000
0010
,  // measure 43
0001
0000
0100
1000
0000
0100
0001
0000
,  // measure 44
1002
0100
0010
0100
,  // measure 45
0100
0010
0013
0100
,  // measure 46
2001
0001
0100
0100
,  // measure 47
0010
0100
0010
3100
,  // measure 48
1002
0010
1000
0010
,  // measure 49
0100
0100
0100
1003
,  // measure 50
2001
0000
0000
0001
0000
0000
0001
0000
3001
0000
0100
0000
0010
0000
1000
0000
,  // measure 51
0001
1000
0001
1000
0100
1000
0001
1000
,  // measure 52
0100
0000
0000
0000
;

//---------------dance-single - ----------------
#NOTEDATA:;
#CHARTNAME:;
#STEPSTYPE:dance-single;
#DESCRIPTION:;
#CHARTSTYLE:;
#DIFFICULTY:Easy;
#METER:3;
#RADARVALUES:0.157629,0.183118,0.011738,0.211290,0.000000,94.000000,93.000000,1.000000,18.000000,0.000000,0.000000,0.000000,0.000000,0.000000,0.157629,0.183118,0.011738,0.211290,0.000000,94.000000,93.000000,1.000000,18.000000,0.000000,0.000000,0.000000,0.000000,0.000000;
#CREDIT:;
#NOTES:
0000
0000
0000
0000
,
0000
0000
0000
0000
,
0000
0000
0000
0000
,
0000
0000
0000
0000
,
2000
3000
1000
0000
,
2000
3000
1000
0000
,
0002
0003
0001
0000
,
0002
0003
0001
0000
,
0200
0300
0100
0000
,
0020
0030
0010
0000
,
0200
0300
0100
0000
,
0020
0030
0010
0010
,
0010
0000
1000
0000
,
1000
0000
1000
0000
,
0001
0000
0001
0000
,
0100
0000
0001
0000
,
0100
0000
0010
0000
,
1000
0000
0100
0000
,
1000
0000
0001
0000
,
0100
0000
0010
0010
,
0010
0000
0000
0000
,
0010
0000
0000
0000
,
0010
0000
0000
0000
,
0010
0000
0000
0000
,
0001
0000
0100
0000
,
1000
0000
0100
0000
,
0001
0000
0100
0000
,
0020
0000
0000
0030
,
0020
0000
0000
0030
,
0010
0010
0010
0000
,
0010
0000
0010
0000
,
0010
0000
0010
0000
,
0200
0000
0000
0300
,
0100
0100
0100
0000
,
0100
0000
0100
0000
,
0100
0000
0100
0000
,
0002
0000
0000
0003
,
0001
0001
0001
0000
,
0001
0000
0001
0000
,
0001
0000
0001
0000
,
2000
0000
0000
3000
,
1000
1000
1000
0000
,
1000
0000
1000
0000
,
2000
0000
0000
3000
,
1000
0000
0001
0000
,
1000
0000
0001
0000
,
0100
0000
0010
0000
,
0100
0000
0010
0000
,
2000
3000
1000
0000
,
0002
0003
0001
0000
,
0200
0300
0100
0000
,
0020
0030
0010
0000
,
1001
0000
0000
0000
;

//---------------dance-single - ----------------
#NOTEDATA:;
#CHARTNAME:;
#STEPSTYPE:dance-single;
#DESCRIPTION:;
#CHARTSTYLE:;
#DIFFICULTY:Beginner;
#METER:1;
#RADARVALUES:0.142537,0.181357,0.000000,0.117383,0.000000,85.000000,85.000000,0.000000,10.000000,0.000000,0.000000,0.000000,0.000000,0.000000,0.142537,0.181357,0.000000,0.117383,0.000000,85.000000,85.000000,0.000000,10.000000,0.000000,0.000000,0.000000,0.000000,0.000000;
#CREDIT:;
#NOTES:
0000
0000
0000
0000
,
0000
0000
0000
0000
,
0000
0000
0000
0000
,
0000
0000
0000
0000
,
1000
0000
1000
0000
,
1000
0000
1000
0000
,
0001
0000
0001
0000
,
0001
0000
0001
0000
,
0100
0000
0100
0000
,
0010
0000
0010
0000
,
0100
0000
0100
0000
,
0010
0000
0010
0000
,
0010
0000
1000
0000
,
1000
0000
1000
0000
,
0001
0000
0001
0000
,
0100
0000
0001
0000
,
0100
0000
0010
0000
,
1000
0000
0100
0000
,
1000
0000
0001
0000
,
0100
0000
0010
0000
,
0100
0000
0000
0000
,
0100
0000
0000
0000
,
0100
0000
0000
0000
,
0100
0000
0000
0000
,
0001
0000
0100
0000
,
1000
0000
0100
0000
,
0001
0000
0200
0000
,
0000
0000
0300
0000
,
0020
0000
0000
0030
,
0010
0010
0010
0000
,
0010
0000
0010
0000
,
0010
0000
0010
0000
,
0200
0000
0000
0300
,
0100
0100
0100
0000
,
0100
0000
0100
0000
,
0100
0000
0100
0000
,
0002
0000
0000
0003
,
0001
0001
0001
0000
,
0001
0000
0001
0000
,
0001
0000
0001
0000
,
2000
0000
0000
3000
,
1000
1000
1000
0000
,
1000
0000
1000
0000
,
2000
0000
0000
3000
,
1000
0000
0001
0000
,
1000
0000
0001
0000
,
0100
0000
0010
0000
,
0100
0000
0010
0000
,
2000
0000
3000
0000
,
0002
0000
0003
0000
,
0200
0000
0300
0000
,
0020
0000
0030
0000
;
