#TITLE:Let The Rhythm Drop;
#SUBTITLE:;
#ARTIST:B.B.C.;
#TITLETRANSLIT:;
#SUBTITLETRANSLIT:;
#ARTISTTRANSLIT:;
#GENRE:;
#CREDIT:;
#BANNER:;
#BACKGROUND:;
#LYRICSPATH:;
#CDTITLE:;
#MUSIC:B.B.C._-_Let_The_Rhythm_Drop.ogg;
#OFFSET:-0.580000;
#SAMPLESTART:14.200003;
#SAMPLELENGTH:12.000000;
#SELECTABLE:YES;
#BPMS:0.000000=135.120224
;
#STOPS:
;
#BGCHANGES:;
#KEYSOUNDS:;
#ATTACKS:;

//---------------dance-single - ----------------
#NOTES:
     dance-single:
     :
     Hard:
     13:
     0.584393,0.707359,0.094402,0.000000,0.477254,390.000000,381.000000,9.000000,0.000000,0.000000,0.000000,0.584393,0.707359,0.094402,0.000000,0.477254,390.000000,381.000000,9.000000,0.000000,0.000000,0.000000:
0000
0000
0000
0000
,
0000
0000
0000
0000
,
0000
0000
0000
0000
,
0000
0000
0000
0100
,
0100
0100
0010
0100
,
0100
0100
0010
0100
,
0100
0100
0010
0100
,
1001
0000
0000
0000
1001
0000
0000
0000
0010
0100
0000
0001
1000
0001
1000
0001
,
0100
0000
0000
0001
0100
0000
0000
0001
0100
0000
0000
0001
0100
0000
0000
0010
,
1000
0000
0000
0010
1000
0000
0000
0010
1000
0000
0000
0010
1000
0000
0000
1000
,
0100
0000
0000
0100
0010
0000
0000
0010
0001
0000
0000
0001
0100
0000
0000
0100
,
0010
0000
0000
0010
1000
0000
0000
1000
0001
0000
0000
0001
0100
0000
0000
0100
,
0010
0000
0000
0010
1000
0000
0000
1000
0100
0000
0000
0100
0010
0000
0000
0010
,
0100
0000
0000
0100
1000
0000
0000
1000
0010
0000
0000
0010
0100
0000
0000
0100
,
0001
0000
0000
0001
0010
0000
0000
0010
0001
0000
0000
0001
0100
0000
0000
0100
,
0010
0000
0000
0010
1000
0000
0000
1000
0001
0100
0000
0001
0100
0001
0100
0001
,
0100
0010
1000
0100
1000
0010
0100
0001
,
0100
0010
1000
0100
1000
0010
0100
0001
,
0100
0010
1000
0100
0010
0001
0100
0010
,
1000
0100
0010
0001
0100
0010
1000
0010
,
0100
0001
0100
0010
0010
1000
0001
0100
,
0010
0100
0001
0010
0001
0100
0010
0100
,
0001
1000
0100
1000
0001
0100
0100
0010
,
1000
0100
0010
0100
1000
0010
0100
0010
,
1000
0001
0100
0010
0100
0001
0010
0100
,
0010
0001
0100
0010
1000
0100
0010
0001
,
0100
0010
0100
0001
0100
0010
0100
0001
,
1000
0010
0100
0010
1000
0010
0100
0010
,
1000
0100
0010
0100
1000
0100
0010
0100
,
1000
0010
0100
0001
0100
0010
0100
0001
,
0010
0001
1000
0001
0010
0001
1000
1000
,
0010
1000
0001
1000
0010
1000
0001
0001
,
1000
0000
0000
1000
0100
1000
0100
1000
0100
0000
0000
0100
0010
0001
0010
0001
,
0010
0000
0000
0010
0001
0100
0001
0100
0001
0000
0000
0001
1000
0100
1000
0100
,
1000
0000
0000
1000
0010
0100
0010
0100
0010
0000
0000
0010
1000
0100
1000
0100
,
1000
0000
0000
0010
0100
0001
0100
0001
0100
0001
0000
0100
0001
1000
0001
1000
,
0100
0000
0000
0100
1000
0000
0000
1000
0010
0000
0000
0010
0100
0000
0000
0100
,
0001
0000
0000
0001
0010
0000
0000
0010
0001
0000
0000
0001
1000
0000
0000
1000
,
0100
0000
0000
0100
1000
0000
0000
1000
0010
0000
0000
0010
0100
0000
0000
0100
,
0001
0000
0000
0001
0010
0000
0000
0010
0001
0000
0000
0001
0100
0000
0000
0100
,
0010
0000
0000
0010
1000
0000
0000
1000
0100
0000
0000
0100
0010
0000
0000
0010
,
0100
0000
0000
0100
1000
0000
0000
1000
0001
0000
0000
0001
0100
0000
0000
0100
,
0010
0000
0000
0010
1000
0000
0000
1000
0001
0000
0000
0001
0100
0000
0000
0100
,
0010
0100
0010
0100
0010
0100
1001
0000
,
1100
0000
0100
0000
1000
0100
1000
0000
,
0101
0000
0001
0000
0100
0001
0100
0000
,
1010
0000
1000
0000
0010
1000
0010
0000
,
0011
0000
0001
0000
0010
0001
0010
0000
,
0001
1000
0001
1000
0001
1000
0001
1000
,
0010
0100
0010
0100
0010
0100
0010
0100
,
0001
0010
0100
1000
0001
0010
0100
1000
,
0001
0010
0100
1000
0001
1000
1001
1001
;

//---------------dance-single - ----------------
#NOTES:
     dance-single:
     :
     Medium:
     9:
     0.434549,0.434249,0.104891,0.000000,0.146848,290.000000,280.000000,10.000000,0.000000,0.000000,0.000000,0.434549,0.434249,0.104891,0.000000,0.146848,290.000000,280.000000,10.000000,0.000000,0.000000,0.000000:
0000
0000
0000
0000
,
0000
0000
0000
0000
,
0000
0000
0000
0000
,
0000
0000
0000
1000
,
1000
1000
0001
1000
,
1000
1000
0001
1000
,
1000
1000
0001
0100
,
1001
0000
1001
0000
1000
0001
1000
0001
,
0100
0000
0000
0000
0100
0000
0000
0000
0100
0000
0000
0001
0100
0000
0000
0010
,
1000
0000
0000
0000
1000
0000
0000
0000
1000
0000
0000
0010
1000
0000
0000
1000
,
0100
0000
0000
0000
0010
0000
0000
0000
0001
0000
0000
0001
0100
0000
0000
0100
,
0010
0000
0000
0000
1000
0000
0000
0000
0001
0000
0000
0001
0100
0000
0000
0100
,
0010
0000
0000
0000
1000
0000
0000
0000
0100
0000
0000
0100
0010
0000
0000
0010
,
0100
0000
0000
0000
1000
0000
0000
0000
0010
0000
0000
0010
0100
0000
0000
0100
,
0001
0000
0000
0000
0010
0000
0000
0000
0001
0000
0000
0001
0100
0000
0000
0100
,
0010
0000
1000
0000
0001
0001
0100
0100
,
0100
0010
1000
0000
1000
0010
0100
0000
,
0100
0010
1000
0000
1000
0010
0100
0000
,
0100
0010
1000
0000
0010
0001
0100
0000
,
1000
0100
0010
0000
0100
0010
1000
0000
,
0100
0001
0100
0000
0010
1000
0001
0000
,
0010
0100
0001
0000
0001
0100
0010
0000
,
0001
1000
0100
0000
0001
0100
0100
0000
,
1000
0100
0010
0000
1000
0010
0100
0000
,
1000
0001
0100
0000
0100
0001
0010
0000
,
0010
0001
0100
0000
1000
0100
0010
0000
,
0100
0010
0100
0000
0100
0010
0100
0000
,
1000
0010
0100
0000
1000
0010
0100
0000
,
1000
0100
0010
0000
1000
0100
0010
0000
,
1000
0010
0100
0000
0100
0010
0100
0000
,
0010
0001
1000
0000
0010
0001
1000
0000
,
0010
1000
0001
0000
0010
1000
0001
0000
,
1000
0000
0100
0100
0100
0000
0010
0010
,
0010
0000
0001
0001
0001
0000
1000
1000
,
1000
0000
0010
0010
0010
0000
1000
1000
,
1000
0000
0100
0100
0100
0000
0001
0001
,
0100
0000
0000
0000
1000
0000
0000
0000
0010
0000
0000
0010
0100
0000
0000
0100
,
0001
0000
0000
0000
0010
0000
0000
0000
0001
0000
0000
0001
1000
0000
0000
1000
,
0100
0000
0000
0000
1000
0000
0000
0000
0010
0000
0000
0010
0100
0000
0000
0100
,
0001
0000
0000
0000
0010
0000
0000
0000
0001
0000
0000
0001
0100
0000
0000
0100
,
0010
0000
0000
0000
1000
0000
0000
0000
0100
0000
0000
0100
0010
0000
0000
0010
,
0100
0000
0000
0000
1000
0000
0000
0000
0001
0000
0000
0001
0100
0000
0000
0100
,
0010
0000
0000
0000
1000
0000
0000
0000
0001
0000
0000
0001
0100
0000
0000
0100
,
0010
0100
0010
0100
0010
0100
0010
0000
,
1001
0000
0100
0000
1000
0100
1000
0000
,
0101
0000
0001
0000
0100
0001
0100
0000
,
1010
0000
1000
0000
0010
1000
0010
0000
,
0011
0000
0001
0000
0010
0001
0010
0000
,
0001
1000
0001
1000
0001
0000
1001
0000
,
0010
0100
0010
0100
0010
0000
0110
0000
,
0001
0010
0100
1000
0001
0000
0110
0000
,
1000
0100
0010
0001
1000
0000
1001
0000
;

//---------------dance-single - ----------------
#NOTES:
     dance-single:
     :
     Easy:
     6:
     0.307181,0.352827,0.125869,0.000000,0.000000,205.000000,193.000000,12.000000,0.000000,0.000000,0.000000,0.307181,0.352827,0.125869,0.000000,0.000000,205.000000,193.000000,12.000000,0.000000,0.000000,0.000000:
0000
0000
0000
0000
,
0000
0000
0000
0000
,
0000
0000
0000
0000
,
0000
0000
0000
0100
,
0100
0100
0010
0100
,
0100
0100
0010
0100
,
0100
0100
0010
0100
,
1001
1001
1001
1001
,
0100
0100
0100
0100
,
1000
1000
1000
1000
,
0100
0010
0001
0100
,
0010
1000
0001
0100
,
0010
1000
0100
0010
,
0100
1000
0010
0100
,
0001
0010
0001
0100
,
0010
1000
0001
0100
,
0100
1000
0001
0100
,
0100
1000
0001
0100
,
0100
1000
0010
0001
,
1000
0010
0100
1000
,
0100
0100
0010
0001
,
1000
0001
1000
0010
,
0001
0100
0001
0100
,
1000
0010
1000
0100
,
1000
0100
0100
0010
,
0010
0001
1000
0010
,
0100
0100
0100
0100
,
0001
0100
1000
0100
,
1000
0010
1000
0010
,
1000
0100
0001
0001
,
0010
1000
0010
1000
,
0010
0001
0010
0001
,
1000
0100
0100
0010
,
0010
0001
0001
1000
,
1000
0010
0010
1000
,
1000
0100
0100
0001
,
0100
1000
0010
0100
,
0001
0010
0001
1000
,
0100
1000
0010
0100
,
0001
0010
0001
0100
,
0010
1000
0100
0010
,
0100
1000
0001
0100
,
0010
1000
0001
0100
,
0010
0010
0010
0010
,
1001
0100
1000
1000
,
0101
0001
0100
0100
,
1010
1000
0010
0010
,
0011
0001
0010
0010
,
0001
0001
0001
1001
,
0010
0010
0010
0110
,
0001
0100
0001
0110
,
1000
0010
1000
1001
;

//---------------dance-single - ----------------
#NOTES:
     dance-single:
     :
     Beginner:
     3:
     0.158835,0.189984,0.020978,0.000000,0.000000,106.000000,104.000000,2.000000,0.000000,0.000000,0.000000,0.158835,0.189984,0.020978,0.000000,0.000000,106.000000,104.000000,2.000000,0.000000,0.000000,0.000000:
// measure 0
0000
0000
0000
0000
,  // measure 1
0000
0000
0000
0000
,  // measure 2
0000
0000
0000
0000
,  // measure 3
0000
0000
0000
1000
,  // measure 4
1000
1000
0000
1000
,  // measure 5
1000
1000
0000
1000
,  // measure 6
1000
1000
0000
0000
,  // measure 7
0001
0001
0001
0001
,  // measure 8
0001
0000
0100
0000
,  // measure 9
1000
0000
1000
0000
,  // measure 10
0100
0000
0001
0000
,  // measure 11
0010
0000
0001
0000
,  // measure 12
0010
0000
0100
0000
,  // measure 13
0100
0000
0010
0000
,  // measure 14
0001
0000
0001
0000
,  // measure 15
0010
0000
0001
0000
,  // measure 16
0100
0000
0001
0000
,  // measure 17
0100
0000
0001
0000
,  // measure 18
0100
0000
0010
0000
,  // measure 19
1000
0000
0100
0000
,  // measure 20
0100
0000
0010
0000
,  // measure 21
1000
0000
1000
0000
,  // measure 22
0001
0000
0001
0000
,  // measure 23
1000
0000
1000
0000
,  // measure 24
1000
0000
0100
0000
,  // measure 25
0010
0000
1000
0000
,  // measure 26
0100
0000
0100
0000
,  // measure 27
0001
0000
1000
0000
,  // measure 28
1000
0000
1000
0000
,  // measure 29
1000
0000
0001
0000
,  // measure 30
0010
0000
0010
0000
,  // measure 31
0010
0000
0010
0000
,  // measure 32
1000
0000
0100
0000
,  // measure 33
0010
0000
0001
0000
,  // measure 34
1000
0000
0010
0000
,  // measure 35
1000
0000
0100
0000
,  // measure 36
0100
0000
0010
0000
,  // measure 37
0001
0000
0001
0000
,  // measure 38
0100
0000
0010
0000
,  // measure 39
0001
0000
0001
0000
,  // measure 40
0010
0000
0100
0000
,  // measure 41
0100
0000
0001
0000
,  // measure 42
0010
0000
0001
0000
,  // measure 43
0010
0010
0010
0010
,  // measure 44
0010
0000
1000
0000
,  // measure 45
0001
0000
0100
0000
,  // measure 46
1000
0000
0010
0000
,  // measure 47
0001
0000
0010
0000
,  // measure 48
0001
0000
0001
0000
,  // measure 49
0010
0000
0010
0000
,  // measure 50
0001
0000
0001
0000
,  // measure 51
1000
0000
1001
1001
;
