#VERSION:0.83;
#TITLE:LOVE TOXIC;
#SUBTITLE:~quiet passion~;
#ARTIST:FACTOR-X;
#TITLETRANSLIT:;
#SUBTITLETRANSLIT:;
#ARTISTTRANSLIT:;
#GENRE:;
#ORIGIN:;
#CREDIT:;
#BANNER:Love Toxic ~quiet passion~.png;
#BACKGROUND:Love Toxic ~quiet passion~-bg.png;
#PREVIEWVID:;
#JACKET:Love Toxic ~quiet passion~-jacket.png;
#CDIMAGE:;
#DISCIMAGE:;
#LYRICSPATH:;
#CDTITLE:;
#MUSIC:Love Toxic ~quiet passion~.ogg;
#OFFSET:-0.080000;
#SAMPLESTART:53.399937;
#SAMPLELENGTH:12.000000;
#SELECTABLE:YES;
#BPMS:0.000=90.000,
76.000=180.021;
#STOPS:;
#DELAYS:;
#WARPS:;
#TIMESIGNATURES:0.000=4=4;
#TICKCOUNTS:0.000=4;
#COMBOS:0.000=1;
#SPEEDS:0.000=1.000=0.000=0;
#SCROLLS:0.000=1.000;
#FAKES:;
#LABELS:0.000=Song Start;
#BGCHANGES:;
#KEYSOUNDS:;
#ATTACKS:
;

//---------------dance-single - ----------------
#NOTEDATA:;
#CHARTNAME:;
#STEPSTYPE:dance-single;
#DESCRIPTION:;
#CHARTSTYLE:;
#DIFFICULTY:Hard;
#METER:13;
#RADARVALUES:0.576538,0.843873,0.245267,0.000000,0.445941,362.000000,340.000000,22.000000,0.000000,0.000000,0.000000,0.000000,0.000000,0.000000,0.576538,0.843873,0.245267,0.000000,0.445941,362.000000,340.000000,22.000000,0.000000,0.000000,0.000000,0.000000,0.000000,0.000000;
#CREDIT:;
#NOTES:
0000
0000
0000
0000
,
0000
0000
0000
0000
,
1000
0000
0000
0100
1000
0000
0000
0000
0001
0000
0000
0100
0001
0000
0000
0000
,
1000
0000
0000
0100
1000
0000
0000
0000
0001
0000
0000
0100
0001
0000
0000
0000
,
1000
0000
0000
0010
1000
0000
0000
0100
1000
0000
0000
0010
0100
0000
0000
0100
,
0001
0000
0000
0001
0100
0000
0000
0100
0001
0000
0000
0001
1000
0000
0000
0001
,
1000
0000
0000
0010
1000
0000
0000
0100
1000
0000
0000
1000
0001
0000
0000
0001
,
0100
0000
0000
0010
0100
0000
0000
0100
0010
0000
0000
0100
0010
0000
0000
0010
,
1000
0000
0000
1000
0001
0000
0000
0001
0100
0000
0000
0100
0010
0000
0000
0010
,
1000
0000
0000
0001
0100
0000
0000
0010
1000
0000
0000
0001
1000
0000
0000
1000
,
0001
0100
0010
1000
0100
1000
0010
0100
0001
0000
0000
0000
0001
0000
0000
0000
,
1000
0100
0010
0100
1000
0010
0100
0010
1000
0000
0000
0000
1000
0000
0000
0000
,
0001
0010
0100
1000
1000
0100
0010
0001
0001
0010
0100
1000
1000
0100
0010
0001
,
0001
1000
0010
0100
0001
1000
0010
0100
0001
0010
0100
1000
0001
0010
0100
1000
,
1000
0100
1000
0100
1000
0000
1000
0000
0001
0100
0001
0100
0001
0000
0001
0000
,
1000
0010
1000
0010
1000
0000
1000
0000
0001
0010
0001
0010
0001
0000
0001
0000
,
1000
0100
1000
0010
1000
0000
0001
0000
0100
0001
0010
0001
0100
0000
0010
0000
,
1000
0100
0010
0100
1000
0010
0100
0010
1000
0001
0100
0010
0100
0001
0010
0001
,
0100
0100
0010
0010
1000
1000
0001
0001
,
1001
0100
0100
0100
,
1001
0110
1001
0110
,
1000
0100
1000
0000
0000
0000
0000
0000
1001
0000
0000
0000
0000
0000
0000
0000
,
0001
0100
0001
0000
0000
0000
0000
0000
1001
0000
0000
0000
0000
0000
0000
0000
,
1000
0010
1000
0000
0000
0000
0000
0000
1001
0000
0000
0000
0000
0000
0000
0000
,
0001
0010
0001
0000
0000
0000
0000
0000
1001
0000
0000
0000
0000
0000
0000
0000
,
1000
0100
0010
0000
0000
0000
0000
0000
1001
0000
0000
0000
0000
0000
0000
0000
,
0001
0010
0100
0000
0000
0000
0000
0000
1001
0000
0000
0000
0000
0000
0000
0000
,
1000
0010
0100
0000
0000
0000
0000
0000
0110
0000
0000
0000
0000
0000
0000
0000
,
0001
0100
0010
0000
0000
0000
0000
0000
0110
0000
0000
0000
0000
0000
0000
0000
,
1000
0100
1000
0100
1000
0100
1000
0100
,
0010
0001
0010
0001
0010
0001
0010
0001
,
1000
0001
1000
0001
1000
0001
1000
0001
,
0100
0010
0100
0010
0100
0010
0100
0010
,
1000
0100
0010
0001
1000
0100
0010
0001
,
0100
0010
1000
0001
0100
0010
1000
0001
,
1000
0010
0100
0001
1000
0010
0100
0001
,
1000
0010
0100
0001
1000
0010
0100
0001
,
1000
0100
1100
0000
0001
0100
0101
0000
,
1000
0100
1100
0000
0001
0100
0101
0000
,
1000
0010
1010
0000
0001
0010
0011
0000
,
1000
0010
1010
0000
0001
0010
0011
0000
,
1000
0100
0010
0100
1000
0010
0100
0010
,
0100
0001
0010
0001
0100
0010
0001
0010
,
0100
0010
0001
0010
0100
0010
1000
0100
,
0010
0100
1000
0010
0100
0010
1000
0100
,
0010
0001
0100
0010
1000
0100
1000
1001
;

//---------------dance-single - ----------------
#NOTEDATA:;
#CHARTNAME:;
#STEPSTYPE:dance-single;
#DESCRIPTION:;
#CHARTSTYLE:;
#DIFFICULTY:Medium;
#METER:8;
#RADARVALUES:0.347197,0.460295,0.122634,0.000000,0.000000,218.000000,207.000000,11.000000,0.000000,0.000000,0.000000,0.000000,0.000000,0.000000,0.347197,0.460295,0.122634,0.000000,0.000000,218.000000,207.000000,11.000000,0.000000,0.000000,0.000000,0.000000,0.000000,0.000000;
#CREDIT:;
#NOTES:
0000
0000
0000
0000
,
0000
0000
0000
0000
,
1000
1000
1000
0000
0001
0001
0001
0000
,
1000
1000
1000
0000
0001
0001
0001
0000
,
1000
0100
1000
0000
1000
0001
0100
0000
,
0001
1000
0100
0000
0001
1000
1000
0000
,
1000
0001
1000
0000
1000
1000
0001
0000
,
0100
0010
0100
0000
0010
0100
0010
0000
,
1000
0001
0001
0000
0100
0001
0010
0000
,
0001
1000
0100
0000
1000
0001
1000
0000
,
0001
0010
0100
0010
0001
0000
0001
0000
,
1000
0010
1000
0100
1000
0000
1000
0000
,
0001
0010
0100
0010
0001
0000
0001
0000
,
1000
0100
0010
0100
1000
0000
1000
0000
,
1000
0001
1000
0000
0001
1000
0001
0000
,
1000
0001
1000
0000
0001
1000
0001
0000
,
1000
0001
1000
0001
0100
0010
0100
0010
,
1000
0010
1000
0010
0100
0001
0100
0001
,
1000
0100
0010
0001
1000
0100
0010
0001
,
1001
0000
0110
0000
,
1001
0100
0100
0100
,
1000
1000
0000
0000
1001
0000
0000
0000
,
0001
0001
0000
0000
1001
0000
0000
0000
,
1000
1000
0000
0000
1001
0000
0000
0000
,
0001
0001
0000
0000
1001
0000
0000
0000
,
1000
0010
0000
0000
1001
0000
0000
0000
,
0001
0100
0000
0000
1001
0000
0000
0000
,
1000
0100
0000
0000
0110
0000
0000
0000
,
0001
0010
0000
0000
0110
0000
0000
0000
,
1000
1000
1000
1000
,
0010
0010
0010
0010
,
0100
0100
0100
0100
,
0001
0001
0001
0001
,
1000
0010
1000
0010
,
0100
0001
0100
0001
,
1000
0100
1000
0100
,
0010
0001
0010
0001
,
1000
0100
0001
0100
,
1000
0100
0001
0100
,
1000
0010
0001
0010
,
1000
0010
0001
0010
,
1000
0100
0010
0001
,
0100
0010
1000
0001
,
1000
0100
0010
0001
,
0100
0010
1000
0001
,
0100
0000
0100
0000
0100
0000
0100
0010
;

//---------------dance-single - ----------------
#NOTEDATA:;
#CHARTNAME:;
#STEPSTYPE:dance-single;
#DESCRIPTION:;
#CHARTSTYLE:;
#DIFFICULTY:Easy;
#METER:6;
#RADARVALUES:0.297825,0.358007,0.122634,0.000000,0.000000,187.000000,176.000000,11.000000,0.000000,0.000000,0.000000,0.000000,0.000000,0.000000,0.297825,0.358007,0.122634,0.000000,0.000000,187.000000,176.000000,11.000000,0.000000,0.000000,0.000000,0.000000,0.000000,0.000000;
#CREDIT:;
#NOTES:
0000
0000
0000
0000
,
0000
0000
0000
0000
,
1000
1000
0001
0001
,
1000
1000
0001
0001
,
1000
0100
1000
0000
1000
0001
0100
0000
,
0001
1000
0100
0000
0001
1000
1000
0000
,
1000
0001
1000
0000
1000
1000
0001
0000
,
0100
0010
0100
0000
0010
0100
0010
0000
,
1000
0001
0100
0010
,
1000
0100
1000
1000
,
0001
0100
0001
0001
,
1000
1000
1000
1000
,
0001
0001
0001
0001
,
1000
0100
0010
0000
0001
0000
1000
0000
,
1000
0001
1000
0000
0001
0000
0001
0000
,
0001
1000
0001
0000
1000
0000
1000
0000
,
1000
0001
1000
0000
0100
0010
0100
0000
,
0001
0010
0001
0000
0100
0001
0100
0000
,
1000
0100
1000
0000
0001
0100
0001
0000
,
1001
0000
0110
0000
,
1001
0100
0100
0100
,
1000
0000
1001
0000
,
0001
0000
1001
0000
,
1000
0000
1001
0000
,
0001
0000
1001
0000
,
1000
0000
1001
0000
,
0001
0000
1001
0000
,
1000
0000
0110
0000
,
0001
0000
0110
0000
,
1000
1000
1000
1000
,
0010
0010
0010
0010
,
0100
0100
0100
0100
,
0001
0001
0001
0001
,
1000
0010
1000
0010
,
0100
0001
0100
0001
,
1000
0100
1000
0100
,
0010
0001
0010
0001
,
1000
0100
0001
0100
,
1000
0100
0001
0100
,
1000
0010
0001
0010
,
1000
0010
0001
0010
,
1000
0100
0010
0001
,
0100
0010
1000
0001
,
1000
0100
0010
0001
,
0100
0010
1000
0001
,
0100
0000
0100
0000
0100
0000
0100
0010
;

//---------------dance-single - ----------------
#NOTEDATA:;
#CHARTNAME:;
#STEPSTYPE:dance-single;
#DESCRIPTION:;
#CHARTSTYLE:;
#DIFFICULTY:Beginner;
#METER:3;
#RADARVALUES:0.143338,0.175589,0.011149,0.000000,0.000000,90.000000,89.000000,1.000000,0.000000,0.000000,0.000000,0.000000,0.000000,0.000000,0.143338,0.175589,0.011149,0.000000,0.000000,90.000000,89.000000,1.000000,0.000000,0.000000,0.000000,0.000000,0.000000,0.000000;
#CREDIT:;
#NOTES:
// measure 0
0000
0000
0000
0000
,  // measure 1
0000
0000
0000
0000
,  // measure 2
1000
0000
0001
0000
,  // measure 3
1000
0000
0001
0000
,  // measure 4
1000
1000
0000
0000
,  // measure 5
0001
0001
0000
0000
,  // measure 6
1000
1000
0000
0000
,  // measure 7
0001
0001
0000
0000
,  // measure 8
1000
0000
0100
0000
,  // measure 9
0010
0000
0001
0000
,  // measure 10
0100
0000
0010
0000
,  // measure 11
1000
0000
0001
0000
,  // measure 12
1000
0000
1000
0000
,  // measure 13
0001
0000
0001
0000
,  // measure 14
1000
0000
0001
0000
,  // measure 15
0001
0000
1000
0000
,  // measure 16
1000
1000
1000
0000
,  // measure 17
0001
0001
0001
0000
,  // measure 18
0100
0100
0100
0000
,  // measure 19
0010
0000
0010
0000
,  // measure 20
0010
0000
0000
0000
,  // measure 21
1000
0000
0001
0000
,  // measure 22
0001
0000
1000
0000
,  // measure 23
1000
0000
0001
0000
,  // measure 24
0001
0000
1000
0000
,  // measure 25
1000
0000
0001
0000
,  // measure 26
0001
0000
1000
0000
,  // measure 27
1000
0000
0010
0000
,  // measure 28
0001
0000
0100
0000
,  // measure 29
1000
1000
0000
0000
,  // measure 30
0010
0010
0000
0000
,  // measure 31
0100
0100
0000
0000
,  // measure 32
0001
0001
0000
0000
,  // measure 33
1000
1000
0000
0000
,  // measure 34
0100
0100
0000
0000
,  // measure 35
0001
0001
0000
0000
,  // measure 36
0010
0010
0000
0000
,  // measure 37
1000
1000
0000
0000
,  // measure 38
0001
0001
0000
0000
,  // measure 39
1000
1000
0000
0000
,  // measure 40
0001
0001
0000
0000
,  // measure 41
0100
0100
0000
0000
,  // measure 42
0010
0010
0000
0000
,  // measure 43
0100
0100
0000
0000
,  // measure 44
0010
0010
0000
0000
,  // measure 45
1001
0000
0000
0000
;
