#TITLE:LOVE POWER;
#SUBTITLE:(Japanese Mix);
#ARTIST:GENER 8;
#TITLETRANSLIT:;
#SUBTITLETRANSLIT:;
#ARTISTTRANSLIT:;
#GENRE:;
#CREDIT:;
#BANNER:;
#BACKGROUND:DDR CD-bg.JPG;
#LYRICSPATH:;
#CDTITLE:;
#MUSIC:24_LOVE_POWER_Japanese_Mix.ogg;
#OFFSET:-3.060000;
#SAMPLESTART:79.619972;
#SAMPLELENGTH:12.000000;
#SELECTABLE:YES;
#BPMS:0.000000=142.000671
;
#STOPS:
;
#BGCHANGES:;
#KEYSOUNDS:;
#ATTACKS:;

//---------------dance-single - ----------------
#NOTES:
     dance-single:
     :
     Hard:
     15:
     0.661994,0.776720,0.025508,0.051016,0.875776,545.000000,542.000000,3.000000,6.000000,0.000000,0.000000,0.661994,0.776720,0.025508,0.051016,0.875776,545.000000,542.000000,3.000000,6.000000,0.000000,0.000000:
0000
0000
0000
0000
,
0000
0000
0000
0000
,
0000
0000
0000
0000
,
0000
0000
0000
0000
,
2002
0000
0000
3003
,
0100
0000
0001
0000
0100
0000
0000
0010
0000
0100
0000
0010
1000
0000
0100
0000
,
1000
0000
0001
0000
0100
0000
0000
0010
0000
0100
0000
0001
0100
0000
0010
0000
,
1000
0000
0100
0000
1000
0000
0000
0001
0000
0100
0000
0001
0100
0000
0010
0000
,
1000
0000
0001
0000
0100
0000
0000
0001
0000
0001
0000
0010
0001
0000
0001
0000
,
0100
0000
0010
0000
1000
0000
0000
1000
0000
1000
0000
0100
1000
0000
1000
0000
,
0010
0000
0100
0000
0001
0000
0000
0100
0000
0010
0000
1000
0100
0000
0010
0000
,
0001
0000
0100
0000
0010
0000
0000
1000
0000
0100
0000
1000
0001
0000
0100
0000
,
0001
0100
0001
0100
0010
0100
0010
0100
0010
1000
0010
1000
0100
1000
0100
1000
,
0001
0000
0100
0001
0100
0000
0010
0100
0010
0000
1000
0100
1000
0000
0010
0100
,
0010
0000
0100
0001
0100
0000
0001
0010
0001
0000
0100
0001
0100
0000
0010
1000
,
0010
0000
1000
0100
1000
0000
0001
0100
0001
0000
1000
0100
1000
0000
0010
0100
,
0010
0000
0100
0001
0100
0000
0010
0100
0010
0000
0100
0001
0100
0000
0001
1000
,
0001
0000
1000
0100
1000
0000
0010
0100
0001
0000
0001
0100
0010
0000
0010
1000
,
0100
0000
0100
1000
0010
0000
0010
0100
0001
0000
0001
0100
0010
0000
0010
1000
,
0100
0000
0100
1000
0010
0000
0010
0100
0001
0000
0001
1000
0100
0000
0100
1000
,
0010
1000
0010
0100
0001
0100
0001
1000
0010
1000
0100
1000
0010
0100
0001
0000
,
0100
0000
0001
0000
0100
0000
0000
0010
0000
0100
0000
0010
1000
0000
0100
0000
,
1000
0000
0001
0000
0100
0000
0000
0010
0000
0100
0000
0001
0100
0000
0010
0000
,
1000
0000
0100
0000
1000
0000
0000
0001
0000
0100
0000
0001
0100
0000
0010
0000
,
1000
0000
0001
0000
0100
0000
0000
0001
0000
0001
0000
0010
0001
0000
0001
0000
,
0100
0000
0010
0000
1000
0000
0000
1000
0000
1000
0000
0100
1000
0000
1000
0000
,
0010
0000
0100
0000
0001
0000
0000
0100
0000
0010
0000
1000
0100
0000
0010
0000
,
0001
0000
0100
0000
0010
0000
0000
1000
0000
0100
0000
1000
0001
0000
0100
0000
,
0001
0100
0001
0100
0010
0100
0010
0100
0010
1000
0010
1000
0100
1000
0100
0000
,
2002
0000
0000
3003
,
1000
0000
0000
1000
0000
0000
1000
0000
0000
0010
0000
0000
0100
0000
0001
0000
,
0010
0000
0000
0001
0000
0000
1000
0000
0000
0010
0000
0000
0100
0000
0000
0000
,
0010
0000
0000
1000
0000
0000
0010
0000
0000
0100
0000
0000
0001
0000
0100
0000
,
0001
0000
0000
1000
0000
0000
0100
0000
0000
0010
0000
0000
0001
0000
0000
0000
,
0100
0000
0000
0001
0000
0000
0010
0000
0000
1000
0000
0000
0100
0000
1000
0000
,
0100
0000
0000
1000
0000
0000
0010
0000
0000
0001
0000
0000
0100
0000
0000
0000
,
0100
0000
0000
0010
0000
0000
1000
0000
0000
0010
0000
0000
0100
0000
0001
0000
,
1000
0001
0100
0001
0100
0010
1000
0001
1000
0010
0100
0010
1000
0001
0100
0010
,
1000
0000
0010
0100
0010
0000
0100
0001
1000
0000
1000
0100
1000
0000
0010
0100
,
0010
0000
0100
0001
0100
0000
0001
0010
0001
0000
0100
0001
0100
0000
0010
1000
,
0010
0000
1000
0100
1000
0000
0001
0100
0001
0000
1000
0100
1000
0000
0010
0100
,
0010
0000
0100
0001
0100
0000
0010
0100
0010
0000
0100
0001
0100
0000
0001
1000
,
0001
0000
1000
0100
1000
0000
0010
0100
0001
0000
0001
0100
0010
0000
0010
1000
,
0100
0000
0100
1000
0010
0000
0010
0100
0001
0000
0001
0100
0010
0000
0010
1000
,
0100
0000
0100
1000
0010
0000
0010
0100
0001
0000
0001
1000
0100
0000
0100
1000
,
0010
1000
0010
0100
0001
0100
0001
1000
0010
1000
0100
1000
0010
0100
0001
0000
,
0100
0000
0001
0000
0100
0000
0000
0010
0000
0100
0000
0010
1000
0000
0100
0000
,
1000
0000
0001
0000
0100
0000
0000
0010
0000
0100
0000
0001
0100
0000
0010
0000
,
1000
0000
0100
0000
1000
0000
0000
0001
0000
0100
0000
0001
0100
0000
0010
0000
,
1000
0000
0001
0000
0100
0000
0000
0100
0000
0001
0000
1000
0001
0000
0100
0000
,
0010
0000
0100
0000
0001
0000
0000
1000
0000
0001
0000
0010
0100
0000
1000
0000
,
0010
0000
0100
0000
0001
0000
0000
0100
0000
0010
0000
1000
0100
0000
0010
0000
,
0001
0000
0100
0000
0010
0000
0000
1000
0000
0100
0000
1000
0001
0000
0100
0000
,
0001
1000
0001
0100
0010
0100
0001
0100
0010
1000
0001
1000
0100
1000
0010
1000
,
0010
0000
1000
0000
0001
0000
0000
0100
0000
0010
0000
0010
1000
0000
0100
0000
,
1000
0000
0001
0000
0100
0000
0000
0010
0000
0100
0000
0001
0100
0000
0010
0000
,
1000
0000
0100
0000
1000
0000
0000
0001
0000
0100
0000
0001
0100
0000
0010
0000
,
1000
0000
0001
0000
0100
0000
0000
0001
0000
0001
0000
0010
0001
0000
0001
0000
,
0100
0000
0010
0000
1000
0000
0000
0001
0000
1000
0000
0100
1000
0000
0001
0000
,
0100
0000
0010
0000
0100
0000
0000
0100
0000
0010
0000
1000
0100
0000
0010
0000
,
0001
0000
0100
0000
0010
0000
0000
1000
0000
0100
0000
1000
0001
0000
0100
0000
,
0001
1000
0010
0100
0001
0010
0100
1000
0010
0100
0001
0010
0100
1000
0001
0000
,
2002
0000
0000
0000
,
3003
0000
0000
0000
;

//---------------dance-single - ----------------
#NOTES:
     dance-single:
     :
     Medium:
     10:
     0.365615,0.374968,0.119037,0.051016,0.000000,301.000000,287.000000,14.000000,6.000000,0.000000,0.000000,0.365615,0.374968,0.119037,0.051016,0.000000,301.000000,287.000000,14.000000,6.000000,0.000000,0.000000:
0000
0000
0000
0000
,
0000
0000
0000
0000
,
0000
0000
0000
0000
,
0000
0000
0000
0000
,
2002
0000
0000
3003
,
0010
0010
0010
0000
1000
0001
1000
0000
,
0100
0100
0100
0000
0001
1000
0001
0000
,
0010
0010
0010
0000
0001
0100
0010
0000
,
0100
0100
0100
0000
0010
1000
0100
0000
,
1000
1000
1000
0000
0001
0100
0001
0000
,
0100
0100
0100
0000
0010
0100
0001
0000
,
0010
0010
0010
0000
0001
0100
0001
0000
,
0001
0001
0001
0000
0100
0010
0100
0000
,
1001
1000
0100
0100
,
1000
0010
0100
0100
,
0001
0100
0010
0010
,
1000
0001
0100
0100
,
0001
1000
0010
0010
,
0100
0001
1000
1000
,
0100
1000
0010
0100
,
0001
0000
0100
0000
0001
0100
0001
0000
,
1001
0000
0100
0000
1000
0001
1000
0000
,
0100
0100
0100
0000
0001
1000
0001
0000
,
0010
0010
0010
0000
0001
0100
0010
0000
,
0100
0100
0100
0000
0010
1000
0100
0000
,
1000
1000
1000
0000
0001
0100
0001
0000
,
0100
0100
0100
0000
0010
0100
0001
0000
,
0010
0010
0010
0000
0001
0100
0001
0000
,
0001
0001
0001
0000
0100
0010
0100
0000
,
2002
0000
0000
3003
,
0010
0010
0100
0100
,
0001
0100
0010
0010
,
1000
0001
0100
0100
,
0001
1000
0010
0010
,
0100
0001
1000
1000
,
0100
1000
0010
0100
,
0001
0100
0001
0001
,
1000
0000
1000
0000
0010
0100
0010
0100
,
1001
1000
0100
0100
,
1000
0010
0100
0100
,
0001
0100
0010
0010
,
1000
0001
0100
0100
,
0001
1000
0010
0010
,
0100
0001
1000
1000
,
0100
1000
0010
0100
,
0001
0000
0100
0000
0001
0100
0001
0100
,
0010
0010
0010
0000
1000
0001
1000
0000
,
0100
0100
0100
0000
0001
1000
0001
0000
,
0010
0010
0010
0000
0001
0100
0010
0000
,
0100
0100
0100
0000
0010
1000
0100
0000
,
1000
1000
1000
0000
0001
0100
0001
0000
,
0100
0100
0100
0000
0010
0100
0001
0000
,
0010
0010
0010
0000
0001
0100
0001
0000
,
0001
0001
0001
0000
0100
0010
0100
0000
,
1000
0000
1001
0000
1000
0010
1000
0000
,
0001
0000
0101
0000
0010
0100
0001
0000
,
0100
0000
0110
0000
0010
1000
0100
0000
,
1000
0000
1001
0000
0001
0100
0010
0000
,
0100
0000
0101
0000
0010
0001
0100
0000
,
0001
0000
1100
0000
1000
0010
1000
0000
,
0010
0000
0110
0000
0010
1000
0100
0000
,
1000
0000
0011
0000
0100
0010
0100
0000
,
2002
0000
0000
0000
,
3003
0000
0000
0000
;

//---------------dance-single - ----------------
#NOTES:
     dance-single:
     :
     Easy:
     7:
     0.334034,0.374968,0.459145,0.102032,0.000000,275.000000,221.000000,54.000000,12.000000,0.000000,0.000000,0.334034,0.374968,0.459145,0.102032,0.000000,275.000000,221.000000,54.000000,12.000000,0.000000,0.000000:
// measure 0
0000
0000
0000
0000
,  // measure 1
0000
0000
0000
0000
,  // measure 2
0000
0000
0000
0000
,  // measure 3
0000
0000
0000
0000
,  // measure 4
2002
0000
0000
3003
,  // measure 5
1000
1100
0001
0101
,  // measure 6
1000
1100
0001
0101
,  // measure 7
0100
0100
0010
0010
,  // measure 8
1000
1000
0001
0001
,  // measure 9
1000
1010
0001
0011
,  // measure 10
1000
1010
0001
0011
,  // measure 11
1000
1000
0100
0100
,  // measure 12
0001
0001
0010
0010
,  // measure 13
1001
0100
0001
0100
,  // measure 14
1001
0100
1000
0100
,  // measure 15
1001
0100
0001
0100
,  // measure 16
1001
0100
1000
0100
,  // measure 17
1000
0100
0010
0001
,  // measure 18
0100
0010
1000
0100
,  // measure 19
0010
0001
0100
0010
,  // measure 20
2002
0000
0000
3003
,  // measure 21
1000
1100
0001
0101
,  // measure 22
1000
1100
0001
0101
,  // measure 23
0100
0100
0010
0010
,  // measure 24
1000
1000
0001
0001
,  // measure 25
1000
1010
0001
0011
,  // measure 26
1000
1010
0001
0011
,  // measure 27
1000
1000
0100
0100
,  // measure 28
0001
0001
0010
0010
,  // measure 29
2002
0000
0000
3003
,  // measure 30
1000
0001
0100
0010
,  // measure 31
0100
0000
0001
0000
1000
0001
1000
0000
,  // measure 32
0010
0100
0001
0100
,  // measure 33
0010
0000
1000
0000
0100
1000
0100
0000
,  // measure 34
1000
0010
0100
0001
,  // measure 35
0010
0000
0001
0000
0001
0100
0010
0000
,  // measure 36
0010
1000
0100
1000
,  // measure 37
2002
0000
0000
3003
,  // measure 38
1001
0100
0001
0100
,  // measure 39
1001
0100
1000
0100
,  // measure 40
1001
0100
0001
0100
,  // measure 41
1001
0100
1000
0100
,  // measure 42
1000
0100
0010
0001
,  // measure 43
0100
0010
1000
0100
,  // measure 44
0010
0001
0100
0010
,  // measure 45
2002
0000
0000
3003
,  // measure 46
1000
1100
0001
0101
,  // measure 47
1000
1100
0001
0101
,  // measure 48
0100
0100
0010
0010
,  // measure 49
1000
1000
0001
0001
,  // measure 50
1000
1010
0001
0011
,  // measure 51
1000
1010
0001
0011
,  // measure 52
1000
1000
0100
0100
,  // measure 53
0001
0001
0010
0010
,  // measure 54
1000
0100
1100
0011
,  // measure 55
0001
0100
1010
0101
,  // measure 56
1000
0001
0110
1001
,  // measure 57
0100
0001
0101
1010
,  // measure 58
1000
0001
1100
0011
,  // measure 59
0100
0010
0101
1010
,  // measure 60
1000
0001
0110
1001
,  // measure 61
0010
0100
1001
0110
,  // measure 62
2002
0000
0000
0000
,  // measure 63
3003
0000
0000
0000
;

//---------------dance-single - ----------------
#NOTES:
     dance-single:
     :
     Beginner:
     3:
     0.156692,0.214267,0.025508,0.059519,0.000000,129.000000,126.000000,3.000000,7.000000,0.000000,0.000000,0.156692,0.214267,0.025508,0.059519,0.000000,129.000000,126.000000,3.000000,7.000000,0.000000,0.000000:
// measure 0
0000
0000
0000
0000
,  // measure 1
0000
0000
0000
0000
,  // measure 2
0000
0000
0000
0000
,  // measure 3
0000
0000
0000
0000
,  // measure 4
2000
0000
0000
3000
,  // measure 5
1000
1000
0000
0000
,  // measure 6
0010
0010
0000
0000
,  // measure 7
0100
0100
0000
0000
,  // measure 8
0001
0001
0000
0000
,  // measure 9
1000
1000
0000
0000
,  // measure 10
0010
0010
0000
0000
,  // measure 11
0100
0100
0000
0000
,  // measure 12
0001
0001
0001
0001
,  // measure 13
0001
0000
1000
0000
,  // measure 14
0010
0000
0100
0000
,  // measure 15
0001
0000
1000
0000
,  // measure 16
0010
0000
0100
0000
,  // measure 17
0001
0000
1000
0000
,  // measure 18
0010
0000
0100
0000
,  // measure 19
0001
0000
1000
0000
,  // measure 20
0200
0000
0000
0300
,  // measure 21
0100
0100
0000
0000
,  // measure 22
1000
1000
0000
0000
,  // measure 23
0010
0010
0000
0000
,  // measure 24
0100
0100
0000
0000
,  // measure 25
0001
0001
0000
0000
,  // measure 26
0010
0010
0000
0000
,  // measure 27
0001
0001
0000
0000
,  // measure 28
1000
1000
1000
1000
,  // measure 29
2000
0000
0000
3000
,  // measure 30
1000
1000
0000
0000
,  // measure 31
0100
0100
0000
0000
,  // measure 32
0010
0010
0000
0000
,  // measure 33
0001
0001
0000
0000
,  // measure 34
1000
1000
0000
0000
,  // measure 35
0001
0001
0000
0000
,  // measure 36
0100
0100
0000
0000
,  // measure 37
0010
0010
0010
0010
,  // measure 38
0010
0000
0100
0000
,  // measure 39
0001
0000
0100
0000
,  // measure 40
0010
0000
1000
0000
,  // measure 41
0010
0000
0100
0000
,  // measure 42
0001
0000
1000
0000
,  // measure 43
0100
0000
1000
0000
,  // measure 44
0010
0000
0100
0000
,  // measure 45
2002
0000
0000
3003
,  // measure 46
1001
0000
0000
0000
,  // measure 47
0100
0100
0000
0000
,  // measure 48
0010
0010
0000
0000
,  // measure 49
1000
1000
0000
0000
,  // measure 50
0001
0001
0000
0000
,  // measure 51
0100
0100
0000
0000
,  // measure 52
0001
0001
0000
0000
,  // measure 53
1000
1000
0000
0000
,  // measure 54
0010
0010
0010
0000
,  // measure 55
1000
1000
1000
0000
,  // measure 56
0001
0001
0001
0000
,  // measure 57
0100
0100
0100
0000
,  // measure 58
0010
0010
0010
0000
,  // measure 59
1000
1000
1000
0000
,  // measure 60
0001
0001
0001
0000
,  // measure 61
0100
0100
0100
0000
,  // measure 62
2002
0000
0000
0000
,  // measure 63
3003
0000
0000
0000
;
