#TITLE:LOUD FORCE;
#SUBTITLE:(This Is My Name);
#ARTIST:LOUD FORCE;
#TITLETRANSLIT:;
#SUBTITLETRANSLIT:;
#ARTISTTRANSLIT:;
#GENRE:;
#CREDIT:;
#BANNER:;
#BACKGROUND:DDR CD-bg.JPG;
#LYRICSPATH:;
#CDTITLE:;
#MUSIC:Loud Force (This Is My Name).ogg;
#OFFSET:-0.200000;
#SAMPLESTART:26.619999;
#SAMPLELENGTH:12.000000;
#SELECTABLE:YES;
#BPMS:0.000000=145.000244
;
#STOPS:
;
#BGCHANGES:;
#KEYSOUNDS:;
#ATTACKS:;

//---------------dance-single - ----------------
#NOTES:
     dance-single:
     :
     Beginner:
     3:
     0.150194,0.208411,0.093041,0.046520,0.000000,113.000000,103.000000,10.000000,5.000000,0.000000,0.000000,0.150194,0.208411,0.093041,0.046520,0.000000,113.000000,103.000000,10.000000,5.000000,0.000000,0.000000:
// measure 0
1000
0000
0000
0000
,  // measure 1
0000
0000
0000
0000
,  // measure 2
0000
0000
0000
0000
,  // measure 3
0000
0000
0000
0000
,  // measure 4
1000
0000
0000
0000
,  // measure 5
0001
0000
0000
0000
,  // measure 6
0100
0000
0100
0000
,  // measure 7
0200
0000
0300
0000
,  // measure 8
1001
0000
0000
0000
,  // measure 9
0100
0000
0000
0000
,  // measure 10
0010
0000
0000
0000
,  // measure 11
0100
0000
0000
0000
,  // measure 12
0001
0000
0000
0000
,  // measure 13
1000
0000
0000
0000
,  // measure 14
0001
0000
0000
0000
,  // measure 15
1000
0000
0000
0000
,  // measure 16
1000
0000
1000
0000
,  // measure 17
0001
0000
0001
0000
,  // measure 18
0100
0000
0100
0000
,  // measure 19
0010
0000
0010
0000
,  // measure 20
1000
0000
0100
0000
,  // measure 21
0010
0000
0001
0000
,  // measure 22
1000
0000
0100
0000
,  // measure 23
0010
0000
0001
0000
,  // measure 24
1001
0000
0000
0000
,  // measure 25
1001
0000
0000
0000
,  // measure 26
1001
0000
0000
0000
,  // measure 27
1001
0000
0000
0000
,  // measure 28
0100
0100
0100
0000
,  // measure 29
0100
0100
0100
0000
,  // measure 30
0100
0100
0100
0000
,  // measure 31
0100
0100
0100
0000
,  // measure 32
1000
0000
0001
0000
,  // measure 33
1000
0000
0001
0000
,  // measure 34
0100
0000
0010
0000
,  // measure 35
0100
0000
0010
0000
,  // measure 36
1000
0000
0001
0000
,  // measure 37
1000
0000
0001
0000
,  // measure 38
0100
0000
0010
0000
,  // measure 39
0100
0000
0010
0000
,  // measure 40
1001
0000
0000
0000
,  // measure 41
1001
0000
0000
0000
,  // measure 42
1001
0000
0000
0000
,  // measure 43
1001
0000
0000
0000
,  // measure 44
0100
0100
0100
0000
,  // measure 45
0100
0100
0100
0000
,  // measure 46
0100
0100
0100
0000
,  // measure 47
0100
0100
0100
0000
,  // measure 48
1000
0000
0001
0000
,  // measure 49
1000
0000
0001
0000
,  // measure 50
0100
0000
0010
0000
,  // measure 51
0100
0000
0010
0000
,  // measure 52
1000
0000
0001
0000
,  // measure 53
1000
0000
0001
0000
,  // measure 54
0100
0000
0010
0000
,  // measure 55
0100
0000
0010
0000
,  // measure 56
2000
0000
3000
0000
,  // measure 57
1000
0000
0000
0000
,  // measure 58
0002
0000
0003
0000
,  // measure 59
0001
0000
0000
0000
,  // measure 60
0200
0000
0300
0000
,  // measure 61
0100
0000
0000
0000
,  // measure 62
0020
0000
0030
0000
,  // measure 63
0010
0000
0000
0000
,  // measure 64
1001
0000
0000
0000
;

//---------------dance-single - ----------------
#NOTES:
     dance-single:
     :
     Hard:
     12:
     0.510394,0.506141,0.334946,0.000000,0.148865,384.000000,348.000000,36.000000,0.000000,0.000000,0.000000,0.510394,0.506141,0.334946,0.000000,0.148865,384.000000,348.000000,36.000000,0.000000,0.000000,0.000000:
0000
0000
0000
0000
,
0000
0000
0000
0000
,
0000
0000
0000
0000
,
0000
0000
0000
0000
,
1000
1000
1000
0001
,
0100
0100
0100
0010
,
1001
0000
0110
0000
,
1001
0110
1001
0110
,
1001
0000
0000
1000
0000
0000
1000
0000
0100
0000
0000
0100
0000
0000
0100
0000
,
1000
0000
0000
1000
0000
0000
1000
0000
0001
0000
0000
0001
0000
0000
0001
0000
,
0010
0000
0000
0010
0000
0000
0010
0000
0001
0000
0000
0001
0000
0000
0001
0000
,
0100
0000
0000
0100
0000
0000
0100
0000
0010
0000
0000
0010
0000
0000
0010
0000
,
1000
0000
0000
0001
0000
0000
0100
0000
0010
0000
0000
0100
0000
0000
0001
0000
,
0010
0000
0000
0100
0000
0000
1000
0000
0010
0000
0000
0100
0000
0000
0001
0000
,
0100
0000
0000
0010
0000
0000
1000
0000
0100
0000
0000
1000
0000
0000
0010
0000
,
0100
0000
0000
0001
0000
0000
0010
0000
0100
0000
0000
1000
0000
0000
0010
0000
,
1001
0000
0010
1000
0010
0100
0010
0000
,
1001
0000
0100
1000
0010
1000
0100
0000
,
1001
0000
1000
0100
0010
0001
0100
0000
,
1001
0000
0001
1000
0010
0100
0001
0000
,
1001
0000
1000
0010
0100
0001
0100
0000
,
1001
0000
0010
0010
0100
0001
0100
0000
,
1001
0000
1000
1000
0001
0100
0010
0000
,
1001
0000
0100
0010
0100
0001
1000
0100
,
1001
0000
1000
1000
1000
0100
0100
0000
,
1001
0000
0001
0001
0001
0100
0100
0000
,
1001
0000
0001
0100
0010
0010
0010
0000
,
1000
0010
1000
1000
0001
0100
0010
0000
,
1001
0000
1000
0100
1000
1000
0001
0000
,
1001
0000
0001
0100
0010
0010
0100
0000
,
1001
0000
1000
0100
0001
0010
1000
0000
,
1000
0100
0010
0001
0100
0010
1000
0000
,
1001
0000
0100
0010
0000
0100
0001
0000
,
0100
0010
0000
1000
0100
1000
0100
0000
,
1001
0000
0001
0100
0000
1000
0100
0000
,
0001
0100
0000
1000
0100
0001
0100
0000
,
1001
0000
0001
1000
0000
1000
0010
0000
,
0010
1000
0000
1000
0001
0100
0010
0000
,
1001
0000
1000
0100
0000
0010
0001
0000
,
0100
0010
0000
1000
0100
0010
0001
0000
,
0110
0000
1000
0001
1000
0001
0100
0000
,
0110
0000
0001
1000
0010
0100
0001
0000
,
0110
0000
0010
0010
0100
0100
0010
0000
,
1000
1000
0001
0001
0100
0100
0010
0000
,
0110
0000
1000
0100
0001
0010
1000
0000
,
0110
0000
0001
0100
0010
0010
0010
0000
,
0110
0000
1000
0100
1000
0010
0100
0000
,
0001
0100
0010
1000
0100
0010
0001
0000
,
1001
0000
1000
1000
0000
0001
0001
0000
,
0100
0100
0000
0010
0100
0010
0100
0000
,
1001
0000
0001
0100
0000
0010
1000
0000
,
0001
0010
0000
0100
1000
0100
0010
0000
,
1001
0000
0100
0001
0000
0001
0001
0000
,
0100
0010
0000
0010
1000
1000
1000
0000
,
1001
0000
1000
0100
0000
1000
0001
0000
,
0100
0001
0000
0100
0010
0100
0001
0000
,
0001
0000
0000
0001
0000
0000
0001
0000
0100
0000
0000
0100
0000
0000
0100
0000
,
0010
0000
0000
0010
0000
0000
0010
0000
1000
0000
0000
1000
0000
0000
1000
0000
,
0001
0000
0000
0100
0000
0000
0010
0000
1000
0000
0000
0100
0000
0000
0010
0000
,
0001
0000
0000
0100
0000
0000
0010
0000
1000
0000
0000
0100
0000
0000
0010
0000
,
0001
0000
0000
0100
0000
0000
0010
0000
1000
0000
0000
1000
0000
0000
1000
0000
,
0001
0000
0000
0001
0000
0000
0001
0000
0100
0000
0000
0100
0000
0000
0100
0000
,
0010
0000
0000
0010
0000
0000
0010
0000
1000
0000
0000
0100
0000
0000
0010
0000
,
0001
0000
0000
0100
0000
0000
0010
0000
1000
0000
0000
0001
0000
0000
0100
0000
,
1001
0000
0000
0000
;

//---------------dance-single - ----------------
#NOTES:
     dance-single:
     :
     Medium:
     9:
     0.374821,0.446595,0.325642,0.000000,0.000000,282.000000,247.000000,35.000000,0.000000,0.000000,0.000000,0.374821,0.446595,0.325642,0.000000,0.000000,282.000000,247.000000,35.000000,0.000000,0.000000,0.000000:
0000
0000
0000
0000
,
0000
0000
0000
0000
,
0000
0000
0000
0000
,
0000
0000
0000
0000
,
1000
0100
0010
0001
,
0100
0010
1000
0001
,
1001
0000
0110
0000
,
1001
0110
1001
0110
,
1001
0000
1000
0000
1000
0001
0100
0000
,
0100
0000
0100
0000
0010
0100
0001
0000
,
0001
0000
1000
0000
0001
0100
0010
0000
,
1000
0000
1000
0000
0001
0100
0010
0000
,
0100
0000
0001
0000
1000
0001
0001
0000
,
0100
0000
0010
0000
1000
1000
0001
0000
,
0001
0000
0100
0000
0010
1000
0100
0000
,
1000
0000
0010
0000
0100
0001
0100
0000
,
1001
0000
1000
0001
0000
1000
0001
0000
,
1001
0000
0100
0010
0000
0100
0010
0000
,
1001
0000
1000
0100
0000
0010
0001
0000
,
1001
0000
1000
0001
0000
0100
0010
0000
,
1001
0000
1000
0001
0000
1000
0001
0000
,
1001
0000
0100
0010
0000
0100
0010
0000
,
1001
0000
1000
0100
0000
0010
0001
0000
,
1001
0000
1000
0001
0000
0100
0010
0000
,
0101
0001
0100
0010
,
1010
1000
0100
1000
,
1100
0100
1000
0010
,
0101
0001
0010
0001
,
0011
0001
0100
0010
,
1010
1000
0100
1000
,
1100
0100
0001
0010
,
0011
0100
0001
0100
,
1001
0000
0000
0100
0000
0000
0010
0000
,
0000
1000
0000
0000
0001
0000
1000
0000
,
0100
0000
0000
1000
0000
0000
0010
0000
,
0000
0100
0000
0000
0001
0000
0001
0000
,
0010
0000
0000
0001
0000
0000
0100
0000
,
0000
0010
0000
0000
1000
0000
0100
0000
,
1000
0000
0000
0001
0000
0000
0100
0000
,
0000
0001
0000
0000
0010
0000
0001
0000
,
0101
0001
0100
0010
,
1010
1000
0100
1000
,
1100
0100
1000
0010
,
0101
0001
0010
0001
,
0011
0001
0100
0010
,
1010
1000
0100
1000
,
1100
0100
0001
0010
,
0011
0100
0001
0100
,
1001
0000
0000
0100
0000
0000
0010
0000
,
0000
1000
0000
0000
0001
0000
1000
0000
,
0100
0000
0000
1000
0000
0000
0010
0000
,
0000
0100
0000
0000
0001
0000
0001
0000
,
0010
0000
0000
0001
0000
0000
0100
0000
,
0000
0010
0000
0000
1000
0000
0100
0000
,
1000
0000
0000
0001
0000
0000
0100
0000
,
0000
0001
0000
0000
0010
0000
0001
0000
,
1001
0000
1000
0000
1000
0001
0100
0000
,
0100
0000
0100
0000
0010
0100
0001
0000
,
0001
0000
1000
0000
0001
0100
0010
0000
,
1000
0000
1000
0000
0001
0100
0010
0000
,
0100
0000
0001
0000
1000
0001
0001
0000
,
0100
0000
0010
0000
1000
1000
0001
0000
,
0001
0000
0100
0000
0010
1000
0100
0000
,
1000
0000
0010
0000
0100
0001
0100
0000
,
1001
0000
0000
0000
;

//---------------dance-single - ----------------
#NOTES:
     dance-single:
     :
     Easy:
     5:
     0.273805,0.416822,0.195385,0.000000,0.000000,206.000000,185.000000,21.000000,0.000000,0.000000,0.000000,0.273805,0.416822,0.195385,0.000000,0.000000,206.000000,185.000000,21.000000,0.000000,0.000000,0.000000:
// measure 0
0000
0000
0000
0000
,  // measure 1
0000
0000
0000
0000
,  // measure 2
0000
0000
0000
0000
,  // measure 3
0000
0000
0000
0000
,  // measure 4
1000
1000
1000
0000
,  // measure 5
0001
0001
0001
0000
,  // measure 6
1001
0000
0110
0000
,  // measure 7
1001
0110
1001
0110
,  // measure 8
1001
0000
1000
0000
,  // measure 9
0001
0100
0010
0100
,  // measure 10
0001
0000
1000
0000
,  // measure 11
1000
0001
0100
0100
,  // measure 12
0001
0000
1000
0000
,  // measure 13
0010
1000
1000
0001
,  // measure 14
0100
0000
0001
0000
,  // measure 15
1000
0010
0100
0001
,  // measure 16
1001
0000
0000
0000
,  // measure 17
1001
0000
0000
0000
,  // measure 18
1001
0000
0000
0000
,  // measure 19
1001
0000
0000
0000
,  // measure 20
0100
0100
0100
0100
,  // measure 21
0010
0010
0010
0010
,  // measure 22
1000
0001
1000
0001
,  // measure 23
0100
0010
0100
0110
,  // measure 24
1001
0000
0100
0100
,  // measure 25
1001
0000
0100
0010
,  // measure 26
1001
0000
0010
0010
,  // measure 27
1001
0000
0010
0100
,  // measure 28
0001
1000
0100
1000
,  // measure 29
1000
0001
0100
0001
,  // measure 30
0001
0100
0010
1000
,  // measure 31
0001
1000
0100
1000
,  // measure 32
1000
0000
0000
1000
0000
0000
1000
0000
,  // measure 33
0000
1000
0000
0000
1000
0000
1000
0000
,  // measure 34
0001
0000
0000
0001
0000
0000
0001
0000
,  // measure 35
0000
0001
0000
0000
0001
0000
0001
0000
,  // measure 36
0100
0000
0000
0100
0000
0000
0100
0000
,  // measure 37
0000
0100
0000
0000
0100
0000
0100
0000
,  // measure 38
0010
0000
0000
0010
0000
0000
0010
0000
,  // measure 39
0000
0010
0000
0000
0010
0000
0010
0000
,  // measure 40
1001
0000
0100
0100
,  // measure 41
1001
0000
0100
0010
,  // measure 42
1001
0000
0010
0010
,  // measure 43
1001
0000
0010
0100
,  // measure 44
0001
1000
0100
1000
,  // measure 45
1000
0001
0100
0001
,  // measure 46
0001
0100
0010
1000
,  // measure 47
0001
1000
0100
1000
,  // measure 48
1000
0000
0000
1000
0000
0000
1000
0000
,  // measure 49
0000
1000
0000
0000
1000
0000
1000
0000
,  // measure 50
0001
0000
0000
0001
0000
0000
0001
0000
,  // measure 51
0000
0001
0000
0000
0001
0000
0001
0000
,  // measure 52
0100
0000
0000
0100
0000
0000
0100
0000
,  // measure 53
0000
0100
0000
0000
0100
0000
0100
0000
,  // measure 54
0010
0000
0000
0010
0000
0000
0010
0000
,  // measure 55
0000
0010
0000
0000
0010
0000
0010
0000
,  // measure 56
1000
1000
1000
0000
,  // measure 57
1000
1000
1000
0000
,  // measure 58
0001
0001
0001
0000
,  // measure 59
0001
0001
0001
0000
,  // measure 60
0100
0100
0100
0000
,  // measure 61
0100
0100
0100
0000
,  // measure 62
0010
0010
0010
0000
,  // measure 63
0010
0010
0010
0000
,  // measure 64
1001
0000
0000
0000
;
