#TITLE:LIVIN' LA VIDA LOCA;
#SUBTITLE:;
#ARTIST:C.J.CREW featuring GIORGIO;
#TITLETRANSLIT:;
#SUBTITLETRANSLIT:;
#ARTISTTRANSLIT:;
#GENRE:;
#CREDIT:;
#BANNER:LIVIN' LA VIDA LOCA.png;
#BACKGROUND:LIVIN' LA VIDA LOCA-bg.png;
#LYRICSPATH:;
#CDTITLE:;
#MUSIC:LIVIN' LA VIDA LOCA.mp3;
#OFFSET:-2.904000;
#SAMPLESTART:45.980000;
#SAMPLELENGTH:18.580000;
#SELECTABLE:YES;
#BPMS:0.000000=200.000000
;
#STOPS:
;
#BGCHANGES:;
#KEYSOUNDS:;
#ATTACKS:;

//---------------dance-single - ----------------
#NOTES:
     dance-single:
     :
     Easy:
     7:
     0.325872,0.394599,0.108109,0.000000,0.000000,211.000000,201.000000,10.000000,0.000000,0.000000,0.000000,0.325872,0.394599,0.108109,0.000000,0.000000,211.000000,201.000000,10.000000,0.000000,0.000000,0.000000:
0000
0000
0000
0000
,
0000
0000
0000
0000
,
0000
1000
0000
1000
,
0000
0001
0000
0001
,
0000
0100
0000
0100
,
0000
0010
0000
0010
,
0000
1000
0100
0010
,
0001
1000
0010
0100
,
0000
0001
1000
0100
,
0010
0001
1000
0000
,
0000
0010
0100
0001
,
1000
0100
0010
0001
,
0000
1000
0010
0100
,
0001
0010
0100
0000
,
0000
1000
0000
1000
,
0000
0010
0000
0010
,
0000
0100
0000
0100
,
0000
0001
0000
0001
,
0000
1000
0100
0010
,
0001
0100
0010
1000
,
0000
0001
0100
0010
,
1000
0001
0100
0000
,
0000
1000
0100
0010
,
0001
0100
0010
1000
,
0000
0001
0010
0100
,
1000
0001
0100
0000
,
1001
0000
1001
0000
,
0110
0000
0110
0000
,
1001
0000
0110
0000
,
1001
0000
0000
0000
,
0010
0000
0100
0000
,
1000
0001
0100
0000
,
0010
1000
0100
0000
,
1001
0000
0000
0000
,
0100
0010
1000
0001
,
0010
0000
1001
0000
,
0100
0010
0001
1000
,
0010
0100
0100
0000
,
0001
1000
0100
0010
,
0001
0100
0000
0000
,
0010
1000
0100
0010
,
0001
1000
1000
0000
,
0010
0100
0001
0010
,
0100
1000
0000
0000
,
0001
0100
1000
0100
,
0001
0100
0010
0000
,
1000
0100
0010
0001
,
1000
0010
0000
0000
,
0100
0001
0010
0100
,
1000
0001
0001
0000
,
0100
0010
1000
0100
,
0010
0001
0000
0000
,
0100
0010
1000
0001
,
0010
0100
0000
0000
,
1000
0001
0100
0010
,
1000
0100
0000
0000
,
0010
0000
0001
0000
,
0000
1000
0100
0000
,
0010
0001
0010
0001
,
0000
0100
0010
0000
,
1000
0100
0010
0000
,
0000
0001
1000
0000
,
0010
0100
0010
0100
,
0000
0001
0010
0000
,
0100
1000
0001
0000
,
0000
0100
0010
0000
,
1000
0001
1000
0001
,
0000
0010
0100
0000
,
1000
0010
0100
0000
,
0000
0001
1000
0000
,
0100
0010
0100
0010
,
0000
0001
0100
0000
,
0010
1000
0100
0000
,
1001
0000
0000
0000
;

//---------------dance-single - ----------------
#NOTES:
     dance-single:
     :
     Medium:
     9:
     0.483403,0.512979,0.335139,0.000000,0.000000,313.000000,282.000000,31.000000,0.000000,0.000000,0.000000,0.483403,0.512979,0.335139,0.000000,0.000000,313.000000,282.000000,31.000000,0.000000,0.000000,0.000000:
0000
0000
0000
0000
,
0000
0000
0000
0000
,
1100
0001
0001
0001
,
0101
1000
1000
1000
,
1010
0100
0100
0100
,
0101
0010
0010
0010
,
0100
0000
1000
0001
1000
0000
0100
0000
,
0010
0001
0100
0010
,
1000
0000
0001
0100
0001
0000
1000
0000
,
0100
0010
0001
0000
,
0100
0000
0010
1000
0010
0000
0100
0000
,
0001
0010
0100
1000
,
0001
0000
0100
0010
0100
0000
0001
0000
,
1000
0100
0010
0000
,
1001
0100
0100
0100
,
0110
1000
1000
1000
,
1100
0010
0010
0010
,
0011
1000
1000
1000
,
0010
0000
0100
0001
0100
0000
0010
0000
,
1000
0100
0010
0001
,
1000
0000
0010
0100
0010
0000
1000
0000
,
0001
0100
0010
0000
,
1000
0000
0100
0010
0100
0000
1000
0000
,
0001
0100
0010
1000
,
0001
0000
0010
0100
0010
0000
0001
0000
,
1000
0010
0100
0000
,
0001
0000
0010
0100
0000
1000
0000
0000
,
0001
0000
0100
0010
0000
1000
0000
0000
,
0001
0000
0010
0100
0000
1000
0001
0000
,
0000
0100
0100
0100
,
0010
0000
1000
0100
0000
0010
0000
0000
,
0001
0000
0100
0010
0000
1000
0000
0000
,
0001
0100
0010
1000
,
0100
0000
0000
0000
,
1001
0000
0010
0100
0010
0000
1000
0000
,
1100
0000
0001
0001
,
0101
0000
0000
1010
0000
0000
1100
0000
,
0000
0011
0000
0000
1001
0000
0000
0000
,
0010
0000
0100
0000
0001
0010
0001
0000
,
1000
0000
0100
0000
0010
0001
0010
0000
,
0101
0000
0000
1010
0000
0000
1100
0000
,
0000
0011
0000
0000
1001
0000
0000
0000
,
0010
0000
0100
0000
0001
0010
0001
0000
,
1000
0100
0010
0000
,
1001
0000
0000
0101
0000
0000
0110
0000
,
0000
1010
0000
0000
1001
0000
0000
0000
,
0010
0000
0100
0000
1000
0010
1000
0000
,
0001
0000
0100
0000
0010
1000
0010
0000
,
1100
0000
0000
0011
0000
0000
0101
0000
,
0000
1001
0000
0000
1100
0000
0000
0000
,
0010
0000
0001
0000
0100
0010
0100
0000
,
0001
1000
0100
0000
,
0010
0000
0001
0000
1000
0010
1000
0000
,
0001
0100
0010
0000
,
1000
0000
0100
0000
0010
0001
0010
0000
,
0100
1000
0001
0100
,
0010
0000
1000
0000
,
0001
0000
0100
0010
0100
0000
0001
0000
,
1000
0100
0010
0001
,
1000
0000
0100
0010
0100
0000
1000
0000
,
0001
0100
0010
0000
,
1000
0000
0001
0010
0001
0000
1000
0000
,
0100
0010
0001
0100
,
0010
0000
1000
0100
1000
0000
0010
0000
,
0100
0001
1000
0000
,
0010
0000
0100
0001
0100
0000
0010
0000
,
1000
0100
0010
0001
,
0100
0000
0010
1000
0010
0000
0100
0000
,
0001
0010
0100
0000
,
1000
0000
0001
0100
0001
0000
1000
0000
,
0100
0010
0001
1000
,
0010
0000
0100
0001
0100
0000
0010
0000
,
1000
0001
0010
0100
,
1001
0000
0000
0000
;

//---------------dance-single - ----------------
#NOTES:
     dance-single:
     :
     Hard:
     13:
     0.648656,0.670818,0.129731,0.000000,0.032433,420.000000,408.000000,12.000000,0.000000,0.000000,0.000000,0.648656,0.670818,0.129731,0.000000,0.032433,420.000000,408.000000,12.000000,0.000000,0.000000,0.000000:
0000
0000
0000
0000
,
0000
0000
0000
0000
,
1001
0000
0100
0010
0100
0000
0000
0000
,
1000
0001
0000
0100
0000
0010
0000
0000
,
1001
0000
0010
0100
0010
0000
0000
0000
,
1000
0001
0000
0100
0000
0000
0000
0000
,
1000
0100
0010
0001
0100
0010
1000
0000
,
0001
0010
0100
1000
0001
0100
0010
0000
,
1000
0100
0010
0001
0100
0010
1000
0000
,
0001
0100
0000
1001
0000
0000
0000
0000
,
0010
0100
1000
0001
0100
0010
1000
0000
,
0100
0010
0001
1000
0010
0100
0001
0000
,
1000
0100
0010
0001
0100
0010
1000
0000
,
0001
0100
0000
1001
0000
0000
0000
0000
,
0100
0000
0000
0001
0000
0000
0100
0000
1000
0000
0000
0010
0000
0000
1000
0000
,
0100
0000
0000
0001
0000
0000
0100
0000
1000
0000
0010
0000
1000
0000
0100
0000
,
0001
0000
0000
0100
0000
0000
1000
0000
0010
0000
0000
1000
0000
0000
0100
0000
,
0001
0000
0000
0100
0000
0000
1000
0000
0100
0000
0001
0000
0100
0000
1000
0000
,
0010
0000
1000
0000
0001
0100
0001
0000
,
0010
0100
1000
0001
0100
0010
1000
0000
,
0001
0000
0010
0000
0100
1000
0001
0000
,
0100
0010
1000
0100
0010
0001
1000
0000
,
0010
0000
0100
0000
0001
0010
0100
0000
,
1000
0010
0100
0001
0010
0100
1000
0000
,
0001
0100
0000
0010
0000
1000
0000
0001
,
0000
0010
0100
1000
0001
0100
0010
0000
,
1000
0100
0001
0100
1000
0100
0010
0000
,
0001
0100
1000
0100
0001
0100
0010
0000
,
1000
0100
0010
0000
0001
0100
0010
0000
,
1001
0000
0000
0000
,
0010
0100
1000
0010
0100
0001
0010
0000
,
0100
1000
0010
0100
0001
0010
0100
0000
,
1000
0010
0100
0000
0001
0010
0100
0000
,
1001
0000
0000
0000
,
1000
0100
0001
0000
1000
0100
0001
0000
,
1001
0000
0000
0000
,
0010
0010
0000
0100
0100
0000
1000
1000
,
0000
0010
0010
0000
0101
0000
0000
0000
,
1000
0000
0100
0000
0010
0001
0100
0000
,
0010
0000
1000
0000
0100
0010
0001
0000
,
1000
1000
0000
0010
0010
0000
0100
0100
,
0000
0001
0001
0000
1100
0000
0000
0000
,
0010
0000
0001
0000
0100
0010
1000
0000
,
0001
0000
0010
0000
0100
1000
0001
0000
,
0100
0100
0000
0010
0010
0000
1000
1000
,
0000
0100
0100
0000
0011
0000
0000
0000
,
0100
0000
0010
0000
1000
0100
0010
0000
,
0001
0000
0100
0000
0010
1000
0100
0000
,
0010
0010
0000
0001
0001
0000
1000
1000
,
0000
0010
0010
0000
0101
0000
0000
0000
,
1000
0000
0100
0000
0010
0001
1000
0000
,
0010
0000
0100
0000
0001
1000
0100
0000
,
0010
0000
0001
0000
0100
0010
1000
0000
,
0100
0000
0010
0000
0001
1000
0010
0000
,
0100
0000
0001
0000
0010
0100
1000
0000
,
0001
0000
0100
0000
0010
1000
0001
0000
,
0100
0100
0100
0100
,
1000
0100
0001
0100
1000
0100
0001
0100
,
1000
0100
0001
0100
1000
0100
0001
0000
,
1000
0010
0001
0010
1000
0010
0001
0010
,
1000
0010
0001
0010
1000
0010
0001
0000
,
1000
0100
0001
0100
1000
0010
1000
0100
,
0001
0100
1000
0010
1000
0100
0001
0000
,
0100
1000
0010
1000
0100
0001
0100
1000
,
0010
1000
0100
0001
0100
1000
0010
0000
,
1000
0100
0001
0100
1000
0010
1000
0100
,
0001
0100
1000
0010
1000
0100
0001
0100
,
1000
0010
0100
0001
1000
0100
0010
0001
,
0100
1000
0100
0001
0010
0100
1000
0000
,
0100
0001
0100
1000
0010
1000
0100
0001
,
0100
1000
0010
0100
0001
0010
0100
1000
,
0001
0100
1000
0100
0001
0010
0100
1000
,
0001
0100
0010
1000
0001
0010
0100
0000
,
1001
0000
0000
0000
;

//---------------dance-single - Copied from----------------
#NOTES:
     dance-single:
     Copied from:
     Beginner:
     4:
     0.219307,0.276219,0.010811,0.000000,0.000000,142.000000,141.000000,1.000000,0.000000,0.000000,0.000000,0.219307,0.276219,0.010811,0.000000,0.000000,142.000000,141.000000,1.000000,0.000000,0.000000,0.000000:
0000
0000
0000
0000
,
0000
0000
0000
0000
,
0000
1000
0000
1000
,
0000
0001
0000
0001
,
0000
0100
0000
0100
,
0000
0010
0000
0000
,
1000
1000
0000
0000
,
0001
0001
0000
0000
,
0100
0100
0000
0000
,
0010
0010
0000
0000
,
1000
1000
0000
0000
,
1000
1000
0000
0000
,
0001
0001
0000
0000
,
0010
0010
0000
0000
,
0000
1000
0000
1000
,
0000
0010
0000
0010
,
0000
0100
0000
0100
,
0000
0001
0000
0000
,
0001
0001
0000
0000
,
0001
0001
0000
0000
,
0100
0100
0000
0000
,
1000
1000
0000
0000
,
1000
1000
0000
0000
,
0010
0010
0000
0000
,
0100
0100
0000
0000
,
1000
1000
0000
0000
,
0100
0000
0100
0000
,
0100
0000
0100
0000
,
0100
0000
0100
0000
,
0100
0000
0000
0000
,
0010
0000
0010
0000
,
0010
0000
0010
0000
,
0010
0000
0010
0000
,
0010
0000
0000
0000
,
1000
0000
1000
0000
,
0001
0000
0001
0000
,
0100
0100
0000
0000
,
1000
1000
0000
0000
,
0001
0001
0000
0000
,
0001
0001
0000
0000
,
0010
0010
0000
0000
,
0001
0001
0000
0000
,
1000
1000
0000
0000
,
0100
0100
0000
0000
,
0100
0100
0000
0000
,
0001
0001
0000
0000
,
0010
0010
0000
0000
,
1000
1000
0000
0000
,
0100
0100
0000
0000
,
0001
0001
0000
0000
,
0100
0100
0000
0000
,
0010
0010
0000
0000
,
0100
0100
0100
0000
,
0010
0010
0010
0000
,
1000
1000
1000
0000
,
0001
0001
0001
0000
,
0000
0000
0000
0000
,
1000
1000
0000
0000
,
0010
0010
0000
0000
,
0001
0001
0000
0000
,
1000
1000
0000
0000
,
0010
0010
0000
0000
,
0100
0100
0000
0000
,
0001
0001
0000
0000
,
0100
0100
0000
0000
,
0100
0100
0000
0000
,
1000
1000
0000
0000
,
0010
0010
0000
0000
,
1000
1000
0000
0000
,
0001
0001
0000
0000
,
0100
0100
0000
0000
,
0001
0001
0000
0000
,
0010
0010
0000
0000
,
1001
0000
0000
0000
;

//---------------dance-single - ----------------
#NOTES:
     dance-single:
     :
     Challenge:
     15:
     0.770665,0.907577,0.594601,0.000000,0.070271,499.000000,444.000000,55.000000,0.000000,0.000000,0.000000,0.770665,0.907577,0.594601,0.000000,0.070271,499.000000,444.000000,55.000000,0.000000,0.000000,0.000000:
0000
0000
0000
0000
,
0000
0000
0000
0000
,
1000
0001
0100
0001
1000
0100
1000
0001
,
0100
0001
1000
0100
1000
0001
0100
0001
,
1000
0010
0100
0001
0100
0010
1000
0010
,
0100
0010
1000
0010
0100
0001
0010
0001
,
0001
1001
0100
0110
,
0010
1010
1000
1100
,
0100
0110
0010
0011
,
0001
0101
0100
0110
,
0010
1010
1000
1100
,
0100
1100
1000
1001
,
0001
0101
0100
0110
,
0010
0000
1010
0000
1000
0001
0100
0010
,
1000
0100
1000
0100
1000
0010
0100
0010
,
0100
0001
0100
0001
0010
0001
0010
0001
,
1000
0100
0001
1000
0010
0001
1000
0100
,
0001
1000
0010
0001
1000
0100
0001
0000
,
1001
1000
1010
0010
,
0110
0100
0101
0001
,
0011
0010
0110
0100
,
1100
1000
1001
0001
,
0101
0100
0110
0010
,
0110
0100
0101
0001
,
1001
1000
1100
0100
,
1100
0011
0101
1010
,
1000
0001
0100
0010
0100
0001
0100
0010
,
1000
0100
1000
0010
1000
0001
1000
0010
,
1000
0100
0010
0001
0010
0100
1000
0100
,
0010
0100
0001
0100
0010
0100
1000
0100
,
1000
0010
0100
0010
0001
0010
0100
0010
,
1000
0010
0100
0010
0001
0010
0100
0010
,
1000
0100
1000
0010
0100
0001
0010
0001
,
0100
0001
1000
0100
1000
0001
0100
0001
,
0100
0010
1000
0100
1000
0010
0100
0001
,
0100
0000
0010
0000
1000
0000
0100
0000
1000
0001
1000
0001
0100
0010
0100
0000
,
1001
0000
0000
0101
0000
0000
1010
0000
,
0000
1100
0000
0000
0011
0000
0101
0000
,
1000
0100
0001
0010
,
1000
0100
0001
0010
,
1001
0000
0000
0011
0000
0000
0101
0000
,
0000
1010
0000
0000
1100
0000
0000
0000
,
0001
0100
1000
0010
,
0001
0100
1000
0010
,
1001
0000
0000
0101
0000
0000
0110
0000
,
0000
1010
0000
0000
1100
0000
1000
0001
,
1000
0100
0001
0010
,
1000
0100
0001
0010
,
1001
0000
0000
0110
0000
0000
0101
0000
,
0000
0011
0000
0000
1100
0000
0000
0000
,
0001
0010
1000
0100
,
0001
0010
1000
0100
,
1001
0000
0100
0001
0010
0001
0100
0001
,
0100
0010
1000
0010
1000
0100
1000
0010
,
1000
0100
0001
1000
0010
0001
1000
0100
,
0001
1000
0010
0001
1000
0100
0001
0001
,
0100
0000
0000
0000
0001
0100
0001
0100
0010
0100
0010
0100
0010
1000
0010
1000
,
0100
1000
0010
0100
0001
0100
0010
1000
,
0100
1000
0010
0100
0010
0001
0010
0100
,
0010
1000
0010
0100
0010
0001
0010
0100
,
0010
1000
0100
0010
0001
0010
0100
1000
,
0100
1000
0100
1000
0010
0100
0001
0100
,
0001
0100
0001
0010
0001
1000
0100
1000
,
0010
0100
0010
0001
0010
0100
0010
1000
,
0010
0100
0010
0001
0010
0100
0010
1000
,
0100
1000
0010
0100
0001
0010
0001
0100
,
0001
1000
0100
1000
0001
0100
0001
1000
,
0100
1000
0001
0100
0001
1000
0100
1000
,
0010
0100
0001
0100
0010
1000
0100
1000
,
0010
0100
0001
0100
0010
1000
0100
1000
,
0010
0100
0001
0100
0010
0100
0001
0100
,
0001
1000
0100
0010
0001
0010
0100
1000
,
0100
0000
1000
0000
0010
0000
0100
0000
0001
0100
0010
1000
0100
1000
0010
0100
,
0001
0000
0000
0000
;
