#VERSION:0.83;
#TITLE:Kissy Kissy;
#SUBTITLE:;
#ARTIST:SMiLE.dk;
#TITLETRANSLIT:;
#SUBTITLETRANSLIT:;
#ARTISTTRANSLIT:;
#GENRE:;
#ORIGIN:;
#CREDIT:;
#BANNER:;
#BACKGROUND:DDR CD-bg.JPG;
#PREVIEWVID:;
#JACKET:Kissy Kissy-jacket.jpg;
#CDIMAGE:;
#DISCIMAGE:;
#LYRICSPATH:;
#CDTITLE:;
#MUSIC:kissy kissy.ogg;
#OFFSET:0.519998;
#SAMPLESTART:89.900024;
#SAMPLELENGTH:12.000000;
#SELECTABLE:YES;
#BPMS:0.000=138.000;
#STOPS:;
#DELAYS:;
#WARPS:;
#TIMESIGNATURES:0.000=4=4;
#TICKCOUNTS:0.000=4;
#COMBOS:0.000=1;
#SPEEDS:0.000=1.000=0.000=0;
#SCROLLS:0.000=1.000;
#FAKES:;
#LABELS:0.000=Song Start;
#BGCHANGES:;
#KEYSOUNDS:;
#ATTACKS:
;

//---------------dance-single - ----------------
#NOTEDATA:;
#CHARTNAME:;
#STEPSTYPE:dance-single;
#DESCRIPTION:;
#CHARTSTYLE:;
#DIFFICULTY:Beginner;
#METER:4;
#RADARVALUES:0.176513,0.276166,0.180019,0.000000,0.000000,151.000000,129.000000,22.000000,0.000000,0.000000,0.000000,0.000000,0.000000,0.000000,0.176513,0.276166,0.180019,0.000000,0.000000,151.000000,129.000000,22.000000,0.000000,0.000000,0.000000,0.000000,0.000000,0.000000;
#CREDIT:;
#NOTES:
// measure 0
0000
0000
0000
0000
,  // measure 1
0000
0000
0000
0000
,  // measure 2
0000
0000
0000
0000
,  // measure 3
0000
0000
0000
0000
,  // measure 4
1000
0000
0001
0000
,  // measure 5
1000
0000
0001
0000
,  // measure 6
1000
0000
0010
0000
,  // measure 7
1000
0000
0100
0000
,  // measure 8
0001
0000
1000
0000
,  // measure 9
0001
0000
1000
0000
,  // measure 10
0001
0000
0010
0000
,  // measure 11
0001
0000
0100
0000
,  // measure 12
0100
0000
0100
0000
,  // measure 13
1001
0000
0100
0000
,  // measure 14
1001
0000
0010
0000
,  // measure 15
1001
0000
0010
0000
,  // measure 16
0110
0000
0001
0000
,  // measure 17
0110
0000
1000
0000
,  // measure 18
0110
0000
0001
0000
,  // measure 19
0110
0000
1000
0000
,  // measure 20
1000
1000
0000
0000
,  // measure 21
0010
0010
0000
0000
,  // measure 22
1000
1000
0000
0000
,  // measure 23
0010
0010
0000
0000
,  // measure 24
0001
0001
0000
0000
,  // measure 25
0010
0010
0000
0000
,  // measure 26
0001
0001
0000
0000
,  // measure 27
0010
0010
0010
0000
,  // measure 28
0001
0000
1001
0000
,  // measure 29
1000
0000
1001
0000
,  // measure 30
0110
0000
1000
0000
,  // measure 31
1000
0000
1001
0000
,  // measure 32
1000
0000
1001
0000
,  // measure 33
0001
0000
1001
0000
,  // measure 34
0110
0000
0001
0000
,  // measure 35
0001
0000
1000
0000
,  // measure 36
0100
0000
0001
0000
,  // measure 37
0100
0000
0100
0000
,  // measure 38
0010
0000
0100
0000
,  // measure 39
0010
0000
1000
0000
,  // measure 40
0010
0000
0001
0000
,  // measure 41
0010
0000
1000
0000
,  // measure 42
0100
0000
0001
0000
,  // measure 43
0100
0000
0000
0000
,  // measure 44
1000
1000
1000
0000
,  // measure 45
0001
0001
0001
0000
,  // measure 46
0100
0100
0100
0000
,  // measure 47
0010
0010
0010
0000
,  // measure 48
1001
0000
0100
0000
,  // measure 49
1001
0000
0100
0000
,  // measure 50
1001
0000
0010
0000
,  // measure 51
1001
1001
1001
0000
,  // measure 52
1000
0000
0010
0000
,  // measure 53
0010
0000
0100
0000
,  // measure 54
0100
0000
1000
0000
,  // measure 55
1000
0000
0001
0000
,  // measure 56
0001
0000
0010
0000
,  // measure 57
0010
0000
0100
0000
,  // measure 58
0100
0000
0001
0000
,  // measure 59
1001
0000
0000
0000
,  // measure 60
1000
1000
1000
0000
,  // measure 61
0000
0000
0000
0000
,  // measure 62
0001
0001
0001
0000
,  // measure 63
0000
0000
0000
0000
,  // measure 64
0010
0010
0010
0000
,  // measure 65
0000
0000
0000
0000
,  // measure 66
0100
0100
0100
0000
,  // measure 67
0000
0000
1001
0000
;

//---------------dance-single - ----------------
#NOTEDATA:;
#CHARTNAME:;
#STEPSTYPE:dance-single;
#DESCRIPTION:;
#CHARTSTYLE:;
#DIFFICULTY:Hard;
#METER:13;
#RADARVALUES:0.580972,0.639887,0.147289,0.310943,0.163654,497.000000,479.000000,18.000000,38.000000,0.000000,0.000000,0.000000,0.000000,0.000000,0.580972,0.639887,0.147289,0.310943,0.163654,497.000000,479.000000,18.000000,38.000000,0.000000,0.000000,0.000000,0.000000,0.000000;
#CREDIT:;
#NOTES:
0000
0000
0000
0000
,
0000
0000
0000
0000
,
0000
0000
0000
0000
,
0000
0000
0000
0000
,
1000
0001
1000
0001
0100
0010
0100
0010
,
1000
0001
1000
0001
0100
0010
0100
0010
,
1000
0001
0100
0010
1000
0001
0100
0010
,
1000
0100
0010
0100
2000
0000
0000
0000
,
3001
1000
0001
1000
0010
0100
0010
0100
,
0001
1000
0001
1000
0010
0100
0010
0100
,
0001
1000
0010
0100
0001
1000
0010
0100
,
0001
0010
0100
0010
0002
0000
0000
0000
,
1003
0000
0010
0100
0010
0000
1000
0000
1000
0000
0010
0000
0100
0000
0001
0000
,
0100
0000
0010
0100
0010
0000
0100
0001
0100
0000
0001
0000
0010
0001
0010
0001
,
0100
0000
0010
1000
0010
0000
1000
0000
0100
0000
1000
0000
0010
0000
1000
0000
,
0100
0000
1000
0100
1000
0000
0010
0000
0200
0000
0000
0000
0301
0000
0000
0000
,
0100
0000
0010
1000
0010
0000
0010
0000
1000
0000
0100
0000
1000
0000
0010
0000
,
0100
0000
0001
0010
0001
0000
0100
0001
0100
0000
0001
0000
0010
0001
0010
0001
,
1000
0000
0010
0100
0010
0000
1000
0000
0010
0000
1000
0000
0100
0000
0010
0000
,
0001
0000
0100
0001
0100
0010
0100
0002
0200
0000
0000
0000
0303
0000
0000
0000
,
1000
0000
0001
0000
1000
0000
0000
1000
0001
0000
1000
0000
0001
0000
0000
0000
,
1000
0100
0010
0001
0010
0100
1000
0000
,
1000
0100
0010
0001
0010
0100
1000
0000
,
1000
0100
0010
0001
0010
0100
1000
0000
,
0001
0000
1000
0000
0001
0000
0000
0001
1000
0000
0001
0000
1000
0000
0000
0000
,
0001
0010
0100
1000
0100
0010
0001
0000
,
0001
0010
0100
1000
0100
0010
0001
0010
,
0001
0010
0100
2000
0200
0000
3300
0000
,
1000
1000
1000
0100
1000
0001
1000
0001
,
0100
0010
0100
0010
1000
0100
0001
0100
,
1000
1000
0001
0001
0100
1000
0100
0001
,
0100
1000
0100
0001
0100
0000
0101
0000
,
1000
1000
1000
0100
1000
0001
1000
0001
,
0100
0010
0100
0010
1000
0100
0001
0100
,
1000
1000
0001
0001
0100
1000
0100
0001
,
0100
1000
0100
0001
0100
0000
0101
0000
,
1000
0000
0010
0100
0010
0000
1000
0000
1000
0000
0010
0000
0100
0000
0001
0000
,
0100
0000
0010
0100
0010
0000
0100
0001
0100
0000
0001
0000
0010
0001
0010
0001
,
0100
0000
0010
1000
0010
0000
1000
0000
0100
0000
1000
0000
0010
0000
1000
0000
,
0100
0000
1000
0100
1000
0000
0010
0000
0200
0000
0000
0000
0301
0000
0000
0000
,
0100
0000
0010
1000
0010
0000
0010
0000
1000
0000
0100
0000
1000
0000
0010
0000
,
0100
0000
0001
0010
0001
0000
0100
0001
0100
0000
0001
0000
0010
0001
0010
0001
,
1000
0000
0010
0100
0010
0000
1000
0000
0010
0000
1000
0000
0100
0000
0010
0000
,
0001
0000
0100
0001
0100
0010
0100
0002
0200
0000
0000
0000
0303
0000
0000
0000
,
1000
0000
0001
0000
1000
0000
0000
1000
0001
0000
1000
0000
0001
0000
0000
0000
,
1000
0100
0010
0001
0010
0100
1000
0000
,
1000
0000
0100
0000
0010
0000
0001
0000
0010
0000
0100
0000
1000
0000
0000
0100
,
1000
0100
0010
0001
0010
0100
1000
0000
,
0001
0000
1000
0000
0001
0000
0010
0000
0001
0000
1000
0000
0001
0000
0000
1000
,
0001
0000
0010
0000
0100
0000
1000
0000
0100
0000
0010
0000
0001
0000
0000
0100
,
0001
0010
0100
1000
0100
0010
0001
0010
,
0001
0010
0100
2000
0200
0000
3300
0000
,
1000
1000
1000
0100
1000
0001
1000
0001
,
0100
0010
0100
0010
1000
0100
0001
0100
,
1000
1000
0001
0001
0100
1000
0100
0001
,
0100
1000
0100
0001
0100
0000
0101
0000
,
1000
1000
1000
0100
1000
0001
1000
0001
,
0100
0010
0100
0010
1000
0100
0001
0100
,
1000
1000
0001
0001
0100
1000
0100
0001
,
0100
1000
0100
0001
0100
0000
0101
0000
,
2002
3003
0220
0330
2002
0000
3003
0000
,
1000
0000
0000
1000
0100
0000
0010
0000
0100
0000
0010
0000
0001
0000
0000
0000
,
0220
0330
2002
3003
0220
0000
0330
0000
,
0001
0100
0010
0010
1000
0000
0110
0000
,
2200
3300
0022
0033
2200
0000
3300
0000
,
0010
0000
0000
0100
0010
0000
1000
0000
0001
0000
0100
0000
0010
0000
0000
0000
,
0202
0303
2020
3030
0202
0000
0303
0010
,
0100
0010
1000
0001
2002
0000
0000
0000
,
3003
0000
0000
0000
;

//---------------dance-single - ----------------
#NOTEDATA:;
#CHARTNAME:;
#STEPSTYPE:dance-single;
#DESCRIPTION:;
#CHARTSTYLE:;
#DIFFICULTY:Medium;
#METER:9;
#RADARVALUES:0.388094,0.389497,0.450049,0.261847,0.000000,332.000000,277.000000,55.000000,32.000000,0.000000,0.000000,0.000000,0.000000,0.000000,0.388094,0.389497,0.450049,0.261847,0.000000,332.000000,277.000000,55.000000,32.000000,0.000000,0.000000,0.000000,0.000000,0.000000;
#CREDIT:;
#NOTES:
0000
0000
0000
0000
,
0000
0000
0000
0000
,
0000
0000
0000
0000
,
0000
0000
0000
0000
,
1000
0001
1000
0000
0001
1000
0001
0000
,
1000
0001
1000
0000
0001
1000
0001
0000
,
0100
0010
0100
0000
0010
0100
0010
0000
,
0100
0010
0100
0010
0200
0000
0000
0000
,
0301
1000
0001
0000
1000
0001
1000
0000
,
0001
1000
0001
0000
1000
0001
1000
0000
,
0010
0100
0010
0000
0100
0010
0100
0000
,
0010
0100
0010
0100
0020
0000
0000
0000
,
1030
1100
1000
1100
,
0001
0101
0001
0101
,
1000
1010
1000
1010
,
0001
0011
0002
0103
,
1000
0101
0001
0101
,
0001
1100
1000
1100
,
1000
0110
0100
0011
,
2000
0001
0200
3300
,
1000
0100
1000
0000
1000
0000
0001
0000
,
0001
1000
0001
0000
0100
0000
0010
0000
,
0100
0001
0100
0000
0010
0000
1000
0000
,
0100
1000
0100
0000
1000
0000
0010
0000
,
0100
0001
0100
0000
0001
0000
1000
0000
,
0010
1000
0100
0000
1000
0000
0010
0000
,
0100
0001
0100
0000
0001
0010
0001
0000
,
1000
0100
0010
0200
2000
0000
3300
0000
,
1000
0101
0001
1100
,
1000
0101
0001
1100
,
1000
0001
0100
0010
,
2000
0001
0020
3030
,
1000
0110
0001
0110
,
1000
0110
0001
0110
,
1000
0100
0010
0001
,
0020
0100
0002
0033
,
1000
1100
1000
1100
,
0001
0101
0001
0101
,
1000
1010
1000
1010
,
0001
0011
0002
0103
,
1000
0101
0001
0101
,
0001
1100
1000
1100
,
1000
0110
0001
0011
,
2000
0001
0200
3300
,
1000
0100
1000
0000
1000
0000
0001
0000
,
0001
1000
0001
0000
0100
0000
0010
0000
,
0100
0001
0100
0000
0010
0000
1000
0000
,
0100
1000
0100
0000
1000
0000
0010
0000
,
0100
0001
0100
0000
0001
0000
1000
0000
,
0010
1000
0100
0000
1000
0000
0010
0000
,
0100
0001
0100
0000
0001
0010
0001
0000
,
1000
0100
0010
0200
2000
0000
3300
0000
,
1000
0101
0001
1100
,
1000
0101
0001
1100
,
1000
0001
0100
0010
,
2000
0001
0020
3030
,
1000
0110
0001
0110
,
1000
0110
0001
0110
,
1000
0100
0010
0001
,
0020
0100
0002
0033
,
0101
0011
0101
0000
,
0002
2003
3002
0103
,
1100
1010
1100
0000
,
2000
3002
2003
3001
,
0101
0011
0101
0000
,
0002
2003
3002
1003
,
1100
1010
1100
0000
,
0220
0000
0300
0100
0200
0000
0000
0000
,
0330
0000
0000
0000
;

//---------------dance-single - ----------------
#NOTEDATA:;
#CHARTNAME:;
#STEPSTYPE:dance-single;
#DESCRIPTION:;
#CHARTSTYLE:;
#DIFFICULTY:Easy;
#METER:6;
#RADARVALUES:0.287564,0.361676,0.270029,0.114558,0.000000,246.000000,213.000000,33.000000,14.000000,0.000000,0.000000,0.000000,0.000000,0.000000,0.287564,0.361676,0.270029,0.114558,0.000000,246.000000,213.000000,33.000000,14.000000,0.000000,0.000000,0.000000,0.000000,0.000000;
#CREDIT:;
#NOTES:
0000
0000
0000
0000
,
0000
0000
0000
0000
,
0000
0000
0000
0000
,
0000
0000
0000
0000
,
0010
0010
0010
0010
,
0100
0100
0100
0100
,
0010
1000
0100
0001
,
0010
0001
0100
0000
,
1000
1000
1000
1000
,
0001
0001
0001
0001
,
1000
0100
0001
0010
,
1000
0010
0001
0000
,
0100
0000
0100
0000
,
0010
0000
0010
0000
,
1000
0000
1000
0000
,
0001
0000
0001
0000
,
0100
0000
0001
0000
,
1000
0000
0010
0000
,
1000
0000
0010
0000
,
0100
0001
0100
0000
,
0001
1000
0100
1000
,
0001
0100
0010
1000
,
0100
1000
0001
0100
,
0010
0010
0010
0010
,
1000
0100
1000
0001
,
0100
0010
0100
0001
,
1000
0010
1000
0100
,
1000
0001
2002
3003
,
1001
0100
1000
0100
,
1001
0100
0001
0100
,
1001
0100
1000
0100
,
1001
0110
1001
0000
,
0110
1000
0100
0010
,
0110
0001
0010
0100
,
0110
1000
0001
0100
,
0110
1001
0110
0000
,
0100
0000
0100
0000
,
0010
0000
0010
0000
,
1000
0000
1000
0000
,
0001
0000
0001
0000
,
0100
0000
0001
0000
,
1000
0000
0010
0000
,
1000
0000
0010
0000
,
0100
0001
0100
0000
,
0001
1000
0100
1000
,
0001
0100
0010
1000
,
0100
1000
0001
0100
,
0010
0010
0010
0010
,
1000
0100
1000
0001
,
0100
0010
0100
0001
,
1000
0010
1000
0100
,
1000
0001
2002
3003
,
1001
0100
1000
0100
,
1001
0100
0001
0100
,
1001
0100
1000
0100
,
1001
0110
1001
0000
,
0110
1000
0100
0010
,
0110
0001
0010
0100
,
0110
1000
0001
0100
,
0110
1001
0110
0000
,
2001
0010
0200
3300
,
0001
0001
0001
0001
,
1002
0100
0020
0033
,
1000
1000
1000
1000
,
0201
0010
0002
0303
,
0010
0100
0010
0100
,
1020
0100
2000
3030
,
1001
0110
2002
0000
,
3003
0000
0000
0000
;
