#TITLE:Kind Lady;
#SUBTITLE:(Future Trance Mix);
#ARTIST:OKUYATOS;
#TITLETRANSLIT:;
#SUBTITLETRANSLIT:;
#ARTISTTRANSLIT:;
#GENRE:Trance;
#CREDIT:;
#BANNER:Kind Lady (Future Trance Mix)-bn.png;
#BACKGROUND:Kind Lady (Future Trance Mix)-bg.png;
#LYRICSPATH:;
#CDTITLE:./CDTITLES/EM3.png;
#MUSIC:Kind Lady (Future Trance Mix).ogg;
#OFFSET:-0.004586;
#SAMPLESTART:49.003021;
#SAMPLELENGTH:12.000000;
#SELECTABLE:YES;
#BPMS:0.000000=142.001999
;
#STOPS:
;
#BGCHANGES:;
#KEYSOUNDS:;
#ATTACKS:;

//---------------dance-single - ----------------
#NOTES:
     dance-single:
     :
     Hard:
     12:
     0.489860,0.554392,0.174531,0.554392,0.508193,334.000000,317.000000,17.000000,54.000000,0.000000,0.000000,0.489860,0.554392,0.174531,0.554392,0.508193,334.000000,317.000000,17.000000,54.000000,0.000000,0.000000:
0000
0000
0000
0000
,
0000
0000
0000
0000
,
0000
0000
0000
0000
,
0000
0000
0000
0000
,
0000
0000
2000
0000
0000
3020
0000
0000
0032
0000
0000
0023
0000
0000
2030
0000
,
0000
0000
3002
0000
0000
0023
0000
0000
2030
0000
0000
3020
0000
0000
0032
0000
,
0000
0000
2003
0000
0000
3200
0000
0000
0320
0000
0000
0032
0000
0000
2003
0000
,
0000
0000
3200
0000
0000
2300
0000
0000
3020
0000
0000
0230
0000
0000
0302
0000
,
0000
0000
2003
0000
3000
2000
0000
0000
3020
0000
0000
0230
0000
0000
0302
0000
,
0000
0000
0023
0000
0030
0020
0000
0000
0230
0000
0000
2300
0000
0000
3002
0000
,
0000
0000
0023
0000
0000
0230
0000
0000
2300
0000
3000
2000
0000
0000
3002
0000
,
0000
0000
0203
0000
0000
0320
0000
0030
0020
0000
0000
2030
0000
0000
3001
0000
,
0220
0000
0000
0330
,
0101
0000
0100
0000
0010
0000
1000
0001
0000
0000
0001
0000
1000
0000
0000
0000
,
0100
0000
0010
0000
0001
1000
0000
0010
0000
0100
0000
0001
0000
1000
0000
0000
,
0010
0000
1000
0001
1000
0000
0100
0010
0000
0000
0001
0000
1000
0000
0100
0000
,
0010
0000
0000
0010
0000
0000
0020
0000
0000
0000
0001
0000
0030
0000
0001
0000
,
1000
0000
0010
0000
0001
0000
0010
0000
1000
0100
0000
1000
0000
0000
0001
0000
,
0010
0100
0000
1000
0000
0010
0000
0100
0000
0001
0000
0010
0000
0100
0000
0000
,
1000
0000
0001
0000
0100
0000
0010
0000
1000
0010
0000
0010
0000
0000
0100
0000
,
0001
0000
0000
0010
0000
0000
0220
0000
0000
0000
0000
0000
0330
0000
0000
0000
,
1000
0000
0010
1000
0010
0000
0100
0001
0000
0000
1000
0000
1000
0000
0000
0000
,
0010
0100
0000
0010
0000
1000
0000
0001
0000
0010
0000
0100
0000
1000
0000
0000
,
0001
0000
0100
0010
0100
0000
0001
1000
0000
0000
0100
0000
0010
0000
0001
0000
,
1000
0000
0000
0010
0000
0000
0220
0000
0000
0000
0000
0000
0330
0000
0000
0000
,
1000
0000
0010
0000
0100
0000
0001
0000
1000
0100
0000
0010
0000
0000
0001
0000
,
1000
0100
0000
1000
0000
0001
0000
1000
0000
0010
0000
0100
0000
0100
0000
0000
,
0001
0000
1000
0000
0010
0000
0100
0000
0010
1000
0000
0001
0000
0000
0010
0000
,
0100
0000
0000
0110
0000
0000
2002
0000
0000
0000
0000
0000
3003
0000
0000
0000
,
1010
0000
0000
1100
0000
0000
1001
0000
0000
0000
0000
1000
0001
0000
0100
0000
,
0010
0000
1000
0000
0100
0010
0000
0010
0000
0001
0000
0000
1000
0000
0010
0000
,
0001
0000
0001
0010
1000
0000
0001
0100
,
1000
0000
0000
1000
0000
0000
1000
0000
0000
0000
0010
0000
0100
0000
0001
0000
,
0000
0101
0000
1000
0100
0000
0010
0001
,
1000
0000
0000
0001
0000
0000
0200
0000
0000
0000
0000
0000
0300
0000
0010
0000
,
1000
0100
0010
0001
0100
0000
0010
1000
,
0100
0010
0001
0100
0000
0010
1000
0001
,
0000
0000
0100
0000
0010
0000
0100
0001
0000
0000
1000
0000
0100
0000
0010
0000
,
0000
1100
0000
0101
0000
2002
3003
0000
,
1001
0001
0100
0010
1000
0100
0010
0001
,
1000
0000
0000
0100
0000
0000
0010
0000
0000
0000
1000
0000
0100
0000
1000
0000
,
0000
0001
0000
0001
0010
0000
0100
1000
,
0001
0000
0000
0100
0000
0000
0020
0000
0000
0000
0000
0000
0030
0000
0001
0000
,
0001
0100
0010
1000
0100
0000
0010
0001
,
0100
0000
0000
1000
0000
0000
1001
0000
0000
0000
1000
0000
0010
0000
0100
0000
,
0001
0000
0010
0000
0100
1000
0000
0001
1000
0000
0010
0000
0000
0000
0100
0000
,
0001
0000
1000
0000
0001
0010
0000
0100
0000
0010
0000
0001
0000
1000
0100
0000
,
0010
0000
0100
0000
1000
0001
0000
1000
0001
0000
0100
0000
0010
1000
0000
0100
,
1000
0000
0001
0000
0010
0100
0000
0100
0000
0000
1000
0000
1001
0000
0000
0000
,
1000
0000
0010
0000
0000
0100
0001
0000
0010
0000
0100
0000
0000
1000
0000
0001
,
1000
0000
0001
0000
1000
0010
0000
0100
0000
0010
0000
1000
0000
0001
0100
0000
,
0010
0000
0100
0000
0001
1000
0000
0001
1000
0000
0100
0000
0010
0001
0000
0100
,
0001
0000
1000
0000
0010
0100
0000
0100
0000
0000
0001
0000
0010
0000
0100
0000
,
2002
0000
0000
0000
,
3003
0000
0000
0000
;

//---------------dance-single - ----------------
#NOTES:
     dance-single:
     :
     Challenge:
     12:
     0.432660,0.526672,0.215597,0.441460,0.354195,295.000000,274.000000,21.000000,43.000000,0.000000,0.000000,0.432660,0.526672,0.215597,0.441460,0.354195,295.000000,274.000000,21.000000,43.000000,0.000000,0.000000:
0000
0000
0000
0000
,
0000
0000
0000
0000
,
0000
0000
0000
0000
,
0000
0000
0000
0000
,
0000
0000
2000
0000
0000
3200
0000
0000
2300
0000
0000
3002
0000
0000
0023
0000
,
0000
0000
0032
0000
0000
0203
0000
0000
0302
0000
0000
2003
0000
0000
3020
0000
,
0000
0000
0230
0000
0000
0302
0000
0000
0023
0000
0000
0230
0000
0000
0302
0000
,
0000
0000
0203
0000
0000
2300
0000
0000
3002
0000
0000
0023
0000
0000
0230
0000
,
0000
0000
2300
0000
0000
3020
0000
0000
0230
0000
0000
2300
0000
0000
3200
0000
,
0000
0000
0302
0000
0000
2003
0000
0000
3020
0000
0000
0230
0000
0000
0320
0000
,
0000
0000
2030
0000
0000
3200
0000
0000
0320
0000
0000
0032
0000
0000
2003
0000
,
0000
0000
3002
0000
0000
0023
0000
0000
0230
0000
0000
2300
0000
0000
3002
0000
,
0020
0000
0000
0033
,
0100
0000
0000
0000
0010
0000
0000
0010
0000
0000
0001
0000
0100
0000
0000
0000
,
0010
0000
0000
0000
1000
0000
0000
0001
0000
0000
0100
0000
0010
0000
0000
0000
,
1000
0000
0000
0000
0100
0000
0000
0100
0000
0000
0010
0000
0001
0000
0000
0000
,
1000
0000
0000
0000
0100
0000
0000
0010
0000
0000
0001
0000
0100
0000
0000
0000
,
0001
0000
0000
0000
1000
0000
0000
1000
0000
0000
0010
0000
0100
0000
0000
0000
,
0001
0000
0000
0000
0100
0000
0000
0010
0000
0000
1000
0000
0100
0000
0000
0000
,
0010
0000
0000
0000
0001
0000
0000
0001
0000
0000
1000
0000
0100
0000
0000
0000
,
0010
0000
0000
0000
0100
0000
0000
1000
0000
0000
0001
0000
0010
0000
0000
0000
,
1001
0000
0000
0000
0010
0000
0000
1000
0000
0000
0100
0000
0010
0000
0000
0000
,
0001
0100
0000
0000
0101
0000
0000
1000
0000
0000
0010
0000
0100
0000
0000
0000
,
1001
0000
0000
0000
0010
0000
0000
0001
0000
0000
0100
0000
0010
0000
0000
0000
,
1000
0100
0000
0000
1100
0000
0000
0001
0000
0000
0010
0000
0100
0000
0000
0000
,
1001
0000
0000
0000
0100
0000
0000
0001
0000
0000
0010
0000
0100
0000
0000
0000
,
1000
0100
0000
0000
0110
0000
0000
0001
0000
0000
1000
0000
0100
0000
0000
0000
,
1001
0000
0000
0000
0100
0000
0000
1000
0000
0000
0010
0000
0100
0000
0000
0000
,
0001
0100
0000
0000
0110
0000
0000
1000
0000
0000
0001
0000
0100
0000
0000
0000
,
1010
0000
0000
1001
0000
0000
1001
0000
0000
0000
0000
0000
0000
0000
0100
0000
,
0010
0000
0000
0001
0000
0000
0100
0000
0000
0000
0000
0000
0000
0000
1000
0000
,
0001
0000
0000
1000
0000
0000
0100
0000
0000
0000
0000
0000
0000
0000
0000
0000
,
0001
0000
0000
0001
0000
0000
0001
0000
0000
0000
0110
0000
1000
0000
0001
0000
,
0000
0100
0000
0100
0010
0000
1000
0100
,
0001
0000
0000
0001
0000
0000
0001
0000
0000
0000
0000
0000
0000
0000
0100
0000
,
1000
0100
0010
0001
1000
0000
0010
0100
,
0010
1000
0001
0100
0000
0010
1000
0100
,
0010
0000
0000
0000
0001
0000
0100
0001
0000
1000
0001
0000
0010
0000
0001
0000
,
1000
0001
1000
0000
0001
0000
0100
0010
0000
0100
0010
0000
1000
0000
0100
0000
,
0010
0000
0000
0000
1000
0000
0100
1000
0000
0001
1000
0000
0010
0000
1000
0000
,
0001
1000
0001
0000
1000
0000
0100
0010
0000
0100
0010
0000
0001
0000
0100
0000
,
0010
1000
0000
1000
0100
0000
0010
0001
,
1001
0000
0000
1010
0000
0000
1100
0000
0000
0000
0000
0000
0000
0000
0001
0000
,
0100
0010
1000
0010
0100
0000
0001
0010
,
0100
0000
0000
1000
0000
0000
1001
0000
0000
0000
0010
0000
0100
0000
0010
0000
,
0001
0000
0000
0000
0101
0000
0000
1000
0000
0000
0010
0000
0100
0000
0000
0000
,
0001
0000
0000
0000
1000
0100
0000
0100
0000
0010
0000
0000
1001
0000
0000
0000
,
0100
0010
1000
0000
0100
0010
0001
0000
,
1000
0000
0100
0000
0010
0100
0000
0100
0000
1000
0000
0001
0000
0000
0000
0000
,
1000
0000
0000
0000
1100
0000
0000
0001
0000
0000
0010
0000
0100
0000
0000
0000
,
1000
0000
0000
0000
0001
0100
0000
0100
0000
0010
0000
0000
1001
0000
0000
0000
,
0100
0010
0001
0000
0100
0010
1000
0000
,
0001
0000
0100
0000
0010
0100
0000
0100
0000
0001
0000
1000
0000
0000
0100
0000
,
2002
0000
0000
0000
,
3003
0000
0000
0000
;

//---------------dance-single - ----------------
#NOTES:
     dance-single:
     :
     Medium:
     9:
     0.329995,0.388074,0.236130,0.102665,0.000000,225.000000,202.000000,23.000000,10.000000,0.000000,0.000000,0.329995,0.388074,0.236130,0.102665,0.000000,225.000000,202.000000,23.000000,10.000000,0.000000,0.000000:
0000
0000
0000
0000
,
0000
0000
0000
0000
,
0000
0000
0000
0000
,
0000
0000
0000
0000
,
1000
0100
0100
0000
,
0001
0100
0100
0000
,
1000
0010
0010
0000
,
0001
0010
0010
0000
,
1000
0100
0010
0000
,
0001
0100
0010
0000
,
1000
0001
0010
0000
,
0001
1000
0010
0000
,
2002
0000
0000
3003
,
1000
0101
1000
0101
,
1000
0010
1000
0000
0001
0010
0001
0000
,
1000
0110
0001
0110
,
1000
0100
0020
0030
,
0001
1100
0001
1100
,
0001
0010
0100
1000
0100
0000
0010
0000
,
0001
0100
1000
0100
,
0001
1000
1001
0000
,
1001
1000
0010
0100
,
0001
0100
0001
0000
1000
0010
0100
0000
,
0010
1000
0100
0000
,
0010
0010
0001
0000
,
1000
0100
0001
0010
,
1000
0001
0100
0001
1000
0000
0010
0000
,
0100
0100
0010
0010
,
1000
0100
0020
0030
,
0001
0101
1000
1100
,
0001
1000
0001
0000
1000
0001
1000
0000
,
0010
0010
0100
0100
,
0001
0010
0001
1000
,
0100
0010
0000
0100
0010
0000
0001
0000
,
1100
0101
2002
3003
,
1000
0010
0100
0001
,
1000
1000
0010
0100
,
0010
1000
0010
0000
0100
0001
0100
0000
,
0010
1000
0000
0100
0000
0020
0000
0000
,
0031
0101
1000
1010
,
1000
1100
0001
0011
,
0010
0100
0000
0010
0100
0000
1000
0000
,
0001
0100
1000
0000
,
0010
1000
0100
0000
0010
0001
0100
0000
,
0010
0010
1000
0100
,
1000
1001
1000
1001
,
0001
0100
0010
0000
0001
0100
0010
0000
,
0001
1001
0001
1001
,
1000
0100
0010
0001
2000
0000
3000
0000
,
0001
0010
0000
0000
0001
0010
0000
0000
,
0001
0100
0001
0000
1000
0100
1000
0000
,
1000
0010
0000
0000
1000
0010
0000
0000
,
0001
0100
0001
0000
1000
0100
1000
0000
,
0220
0000
0000
0000
,
0330
0000
0000
0000
;

//---------------dance-single - ----------------
#NOTES:
     dance-single:
     :
     Easy:
     5:
     0.237597,0.332635,0.143731,0.297729,0.000000,162.000000,148.000000,14.000000,29.000000,0.000000,0.000000,0.237597,0.332635,0.143731,0.297729,0.000000,162.000000,148.000000,14.000000,29.000000,0.000000,0.000000:
0000
0000
0000
0000
,
0000
0000
0000
0000
,
0000
0000
0000
0000
,
0000
0000
0000
0000
,
0002
0000
0003
0000
,
2000
0000
3000
0000
,
0200
0000
0300
0000
,
0020
0000
0030
0000
,
0002
0000
0003
0000
,
0200
0000
0300
0000
,
0020
0000
0030
0000
,
2000
0000
3000
0000
,
0220
0000
0000
0330
,
1000
1000
1000
0000
,
0001
0010
0100
0100
,
0010
0001
0100
0000
,
1000
0010
0200
0300
,
0001
0010
0100
0100
,
0010
0001
1000
0100
,
0010
0010
0100
1000
,
0001
0010
0200
0300
,
1000
0010
2000
3000
,
0001
0100
0010
0010
,
1000
0100
0020
0030
,
0001
1000
0200
0300
,
0010
0001
0100
0001
,
1000
1000
0001
1001
,
0010
0100
0001
0010
,
0100
0100
0200
0300
,
0010
0010
0010
0000
,
0001
0100
1000
0100
,
0001
1000
0002
0003
,
1000
0010
0200
0300
,
1000
0100
0001
0100
,
1000
0100
0020
0030
,
0001
1000
0200
0300
,
0010
0001
2000
3000
,
0010
0100
0001
0010
,
0011
1100
2002
3003
,
1000
0010
0100
0100
,
0010
1000
0100
0010
,
0001
1000
1000
0001
,
0100
0010
0020
0030
,
1000
0100
0001
0010
,
1000
1000
2000
3000
,
0101
0000
0101
0000
,
1000
0010
0100
0001
,
0010
0110
0001
1001
,
1000
0100
0020
0030
,
1100
0000
1100
0000
,
0001
0010
0100
1000
,
0010
1001
0100
1001
,
0010
0100
0002
0013
,
2002
0000
0000
0000
,
3003
0000
0000
0000
;

//---------------dance-single - ----------------
#NOTES:
     dance-single:
     :
     Beginner:
     2:
     0.111465,0.163238,0.041066,0.051333,0.000000,76.000000,72.000000,4.000000,5.000000,0.000000,0.000000,0.111465,0.163238,0.041066,0.051333,0.000000,76.000000,72.000000,4.000000,5.000000,0.000000,0.000000:
0000
0000
0000
0000
,
0000
0000
0000
0000
,
0000
0000
0000
0000
,
0000
0000
0000
0000
,
1000
0000
0000
0000
,
1000
0000
0000
0000
,
0001
0000
0000
0000
,
0001
0000
0000
0000
,
0010
0000
0000
0000
,
0100
0000
0000
0000
,
0010
0000
0000
0000
,
0100
0000
0000
0000
,
1001
0000
0000
0000
,
1000
0000
1000
0000
,
1000
0000
0000
0000
,
0001
0000
0001
0000
,
0001
0000
0000
0000
,
0100
0000
0100
0000
,
0100
0000
0000
0000
,
0010
0000
0010
0000
,
0010
0000
0000
0000
,
2000
0000
3000
0000
,
0001
0000
0001
0000
,
0020
0000
0030
0000
,
0100
0000
0100
0000
,
0002
0000
0003
0000
,
1000
0000
1000
0000
,
0020
0000
0030
0000
,
0100
0000
0100
0000
,
1001
0000
1000
0000
,
1000
0000
0000
0000
,
0001
0000
0001
0000
,
0001
0000
0000
0000
,
0010
0000
0010
0000
,
0100
0000
0100
0000
,
0010
0000
1000
0000
,
0100
0000
0001
0000
,
1001
0000
0000
0000
,
0010
0000
1000
0000
,
0001
0000
0001
0000
,
0020
0000
0030
0000
,
0100
0000
1000
0000
,
0001
0000
0000
0000
,
0100
0000
0001
0000
,
1000
0000
0000
0000
,
0010
0000
0010
0000
,
0100
0000
0000
0000
,
1000
0000
1000
0000
,
0001
0000
0000
0000
,
0010
0000
0100
0000
,
1000
0000
0000
0000
,
0001
0000
0100
0000
,
0010
0000
0000
0000
,
1001
0000
0000
0000
;
