#VERSION:0.83;
#TITLE:KAKATTEKONKAI;
#SUBTITLE:;
#ARTIST:BEBE;
#TITLETRANSLIT:;
#SUBTITLETRANSLIT:;
#ARTISTTRANSLIT:;
#GENRE:;
#ORIGIN:;
#CREDIT:;
#BANNER:;
#BACKGROUND:KAKATTEKONKAI-bg.jpg;
#PREVIEWVID:;
#JACKET:KAKATTEKONKAI-jacket.jpg;
#CDIMAGE:;
#DISCIMAGE:;
#LYRICSPATH:;
#CDTITLE:;
#MUSIC:KAKATTEKONKAI.ogg;
#OFFSET:-0.456000;
#SAMPLESTART:56.376904;
#SAMPLELENGTH:12.000000;
#SELECTABLE:YES;
#BPMS:0.000=102.985;
#STOPS:;
#DELAYS:;
#WARPS:;
#TIMESIGNATURES:0.000=4=4;
#TICKCOUNTS:0.000=4;
#COMBOS:0.000=1;
#SPEEDS:0.000=1.000=0.000=0;
#SCROLLS:0.000=1.000;
#FAKES:;
#LABELS:0.000=Song Start;
#BGCHANGES:;
#KEYSOUNDS:;
#ATTACKS:
;

//---------------dance-single - ----------------
#NOTEDATA:;
#CHARTNAME:;
#STEPSTYPE:dance-single;
#DESCRIPTION:;
#CHARTSTYLE:;
#DIFFICULTY:Easy;
#METER:3;
#RADARVALUES:0.120700,0.184511,0.000000,0.000000,0.000000,68.000000,68.000000,0.000000,0.000000,0.000000,0.000000,0.000000,0.000000,0.000000,0.120700,0.184511,0.000000,0.000000,0.000000,68.000000,68.000000,0.000000,0.000000,0.000000,0.000000,0.000000,0.000000,0.000000;
#CREDIT:;
#NOTES:
0000
0000
0000
0000
,
0000
0000
0000
0000
,
0000
0000
0000
0000
,
0000
0000
0000
0000
,
0000
0000
0000
0000
,
0000
0000
0000
0000
,
0000
0000
0000
0000
,
0000
0000
0000
0000
,
1000
0010
1000
0001
,
0010
0010
0100
0010
,
0000
0001
1000
0100
,
0010
0001
1000
0100
,
1000
0100
0010
0100
,
0010
0001
0010
0001
,
0010
0001
0010
0100
,
0010
0000
1000
0000
,
1000
0001
0000
1000
,
0001
1000
0000
0001
,
0000
1000
0000
0001
,
0000
1000
0000
0000
,
0001
1000
0000
0001
,
0000
1000
0000
0001
,
0000
1000
0000
0001
,
0000
0000
1000
0000
0000
1000
0001
1000
,
0000
0000
0000
0100
0000
0000
0000
0000
,
0100
0000
0000
0001
0000
0000
0000
0000
,
1000
0000
0000
0100
0000
0000
0000
0000
,
0001
0000
0000
0100
0000
0000
0000
0000
,
0010
0000
0000
1000
0000
0000
0000
0000
,
0001
0100
0000
0000
,
0100
1000
0000
0000
,
0001
0010
0000
0000
,
1000
0100
0000
0010
,
0100
0000
0000
0000
;

//---------------dance-single - ----------------
#NOTEDATA:;
#CHARTNAME:;
#STEPSTYPE:dance-single;
#DESCRIPTION:;
#CHARTSTYLE:;
#DIFFICULTY:Medium;
#METER:9;
#RADARVALUES:0.291100,0.499484,0.149100,0.000000,0.329262,164.000000,152.000000,12.000000,0.000000,0.000000,0.000000,0.000000,0.000000,0.000000,0.291100,0.499484,0.149100,0.000000,0.329262,164.000000,152.000000,12.000000,0.000000,0.000000,0.000000,0.000000,0.000000,0.000000;
#CREDIT:;
#NOTES:
0000
0000
0000
0000
,
0000
0000
0000
0000
,
0000
0000
0000
0000
,
0000
0000
0000
0000
,
0000
0000
0000
0000
,
0000
0000
0000
0000
,
0000
0000
0000
0000
,
0000
0000
0000
0000
,
1000
0000
0000
0100
0000
0000
1000
0000
0000
1000
0000
0000
0100
0000
0100
0000
,
0100
0000
0000
0001
0000
0000
0100
0000
0000
0001
0000
0000
0100
0000
0100
0000
,
0100
0000
0000
0100
0000
0000
0001
0000
0000
0100
0000
0000
0100
0000
0100
0000
,
1000
0000
0000
0100
0000
0000
1000
0000
0000
1000
0000
0000
1000
0000
1000
0000
,
0100
0000
0000
0010
0000
0000
0100
0000
0000
0010
0000
0000
0010
0000
0010
0000
,
0010
0000
0000
0001
0000
0000
0010
0000
0000
0001
0000
0000
0010
0000
0010
0000
,
0010
0000
0010
0001
0000
0001
0010
0000
0010
0001
0000
0001
0010
0000
0011
0000
,
0011
0000
0000
0010
0001
0010
0000
0000
0011
0000
0010
0001
0010
0000
0000
0000
0000
0000
0000
0000
0000
0000
0000
0000
,
1000
0000
0010
0000
0001
0010
1000
0000
,
1000
0000
0010
0000
0001
0010
0100
0000
,
1000
0000
0010
0000
0001
0100
1000
0000
,
0001
0000
0100
0000
1000
0001
0010
0000
,
1000
0000
0100
0000
0010
0001
1000
0000
,
0100
0000
0001
0000
1000
0001
0010
0000
,
1000
0000
0010
0000
0100
0001
0010
0000
,
1000
0000
0000
0000
0100
0000
0000
0000
0001
0000
0100
0001
0100
0001
0000
0000
,
0101
0000
0000
0000
0000
0000
0100
0000
0001
0000
0100
0000
0000
0000
0000
0000
0000
0000
0001
0000
0000
0010
0000
0000
0000
0000
0000
1000
0000
0000
0000
0000
0000
0000
0000
0000
0000
0000
0000
0000
0000
0000
0000
0000
0000
0000
0000
0000
,
1100
0000
0000
0000
0000
0000
1000
0000
0100
0000
1000
0000
0000
0000
0000
0000
0000
0000
1000
0000
0000
0010
0000
0000
0000
0000
0000
0001
0000
0000
0000
0000
0000
0000
0000
0000
0000
0000
0000
0000
0000
0000
0000
0000
0000
0000
0000
0000
,
0101
0000
0000
0000
0000
0000
0100
0000
0001
0000
0100
0000
0000
0000
0000
0000
0000
0000
0001
0000
0000
0010
0000
0000
0000
0000
0000
1000
0000
0000
0000
0000
0000
0000
0000
0000
0000
0000
0000
0000
0000
0000
0000
0000
0000
0000
0000
0000
,
1010
0000
0000
0000
0000
0000
0100
0000
0010
0000
0100
0000
0000
0000
0000
0000
0000
0000
0000
0000
0000
0000
0000
0000
0000
0000
0000
1000
0000
0000
0100
0000
0000
1000
0000
0000
0100
0000
0000
0000
0000
0000
0100
0000
0000
0000
0000
0000
,
1100
0000
0000
0100
1000
0100
0000
0000
0000
0000
0000
0000
0000
0000
0000
0000
0000
0000
0000
0000
0000
0000
0000
0000
,
1001
0000
0000
1000
0100
1000
0000
0000
0000
0000
0000
0000
0000
0000
0000
0000
0000
0000
0000
0000
0000
0000
0000
0000
,
0101
0000
0000
0100
0001
0100
0000
0000
0000
0000
0000
0000
0000
0000
0000
0000
0000
0000
0000
0000
0000
0000
0000
0000
,
1001
0000
0000
1000
0001
1000
0000
0000
0000
0000
0000
0000
0000
0000
0000
0000
0000
0000
0000
0000
0000
0000
0000
0000
,
1010
0000
0000
1000
0010
1000
0000
0000
0000
0000
0000
0000
0000
0000
0000
0000
0000
0000
0000
0000
0000
0000
0000
0000
,
0000
1000
0001
1000
0000
1000
0000
1000
0100
0000
0000
0000
0000
0000
0000
0000
;

//---------------dance-single - ----------------
#NOTEDATA:;
#CHARTNAME:;
#STEPSTYPE:dance-single;
#DESCRIPTION:;
#CHARTSTYLE:;
#DIFFICULTY:Hard;
#METER:11;
#RADARVALUES:0.363875,0.541108,0.298200,0.000000,0.347900,205.000000,181.000000,24.000000,0.000000,0.000000,0.000000,0.000000,0.000000,0.000000,0.363875,0.541108,0.298200,0.000000,0.347900,205.000000,181.000000,24.000000,0.000000,0.000000,0.000000,0.000000,0.000000,0.000000;
#CREDIT:;
#NOTES:
// measure 0
0000
0000
0000
0000
,  // measure 1
0000
0000
0000
0000
,  // measure 2
0000
0000
0000
0000
,  // measure 3
0000
0000
0000
0000
,  // measure 4
0000
0000
0000
0000
,  // measure 5
0000
0000
0000
0000
,  // measure 6
0000
0000
0000
0000
,  // measure 7
0000
0000
0000
0000
,  // measure 8
1001
0000
0000
1000
0000
0000
1000
0000
0000
1000
0000
0000
1000
0000
1001
0000
,  // measure 9
0110
0000
0000
0010
0000
0000
0010
0000
0000
0010
0000
0000
0010
0000
0110
0000
,  // measure 10
1010
0000
0000
0010
0000
0000
0010
0000
0000
0010
0000
0000
0010
0000
1010
0000
,  // measure 11
0101
0000
0000
0100
0000
0000
0100
0000
0000
0100
0000
0000
0100
0000
0101
0000
,  // measure 12
0011
0000
0000
0001
0000
0000
0001
0000
0000
0001
0000
0000
0001
0000
0011
0000
,  // measure 13
1010
0000
0000
0010
0000
0000
0010
0000
0000
0010
0000
0000
0010
0000
1010
0000
,  // measure 14
1000
0000
0100
0001
0100
0001
0100
0000
0001
0000
0100
0001
0100
0001
0100
0000
,  // measure 15
0101
0000
0000
0100
0001
0100
0000
1100
0000
0000
1000
0100
1000
0000
0000
0000
0000
0000
0000
0000
0000
0000
0000
0000
,  // measure 16
1001
1000
0010
0100
0001
0100
0010
0100
,  // measure 17
0010
1000
0100
1000
0001
0010
0100
1000
,  // measure 18
0010
1000
0010
1000
0100
0010
0001
0010
,  // measure 19
0100
0000
1000
0000
0010
0000
0100
0000
0010
0000
1000
0100
1000
0100
1000
0000
,  // measure 20
0001
0100
0010
1000
0100
1000
0010
0100
,  // measure 21
0010
1000
0001
1000
0001
0010
0001
1000
,  // measure 22
0010
0100
0001
0010
0100
1000
0010
0100
,  // measure 23
0010
0000
1000
0000
0010
0000
1000
0000
0000
0000
1000
0010
1000
0010
0000
0000
,  // measure 24
1010
0000
0000
0000
0000
0000
1000
0000
0010
0000
1000
0000
0000
0000
0000
0000
0000
0000
1000
0000
0000
0100
0000
0000
0000
0000
0000
0001
0000
0000
0000
0000
0000
0000
0000
0000
0000
0000
0000
0000
0000
0000
0000
0000
0000
0000
0000
0000
,  // measure 25
0110
0000
0000
0000
0000
0000
0100
0000
0010
0000
0100
0000
0000
0000
0000
0000
0000
0000
0010
0000
0000
0001
0000
0000
0000
0000
0000
1000
0000
0000
0000
0000
0000
0000
0000
0000
0000
0000
0000
0000
0000
0000
0000
0000
0000
0000
0000
0000
,  // measure 26
0101
0000
0000
0000
0000
0000
0100
0000
0001
0000
0100
0000
0000
0000
0000
0000
0000
0000
1000
0000
0000
0010
0000
0000
0000
0000
0000
0001
0000
0000
0000
0000
0000
0000
0000
0000
0000
0000
0000
0000
0000
0000
0000
0000
0000
0000
0000
0000
,  // measure 27
1001
0000
0000
0000
0000
0000
1000
0000
0100
0000
1000
0000
0000
0000
0000
0000
0000
0000
0000
0000
0000
0000
0000
0000
0000
0000
0000
0100
0000
0000
1000
0000
0000
0100
0000
0000
1000
0000
0000
0000
0000
0000
0000
0000
0000
1000
0000
0000
,  // measure 28
1001
0000
0000
1000
0100
1000
0000
0000
0000
0000
0000
0000
0000
0000
0000
0000
0000
0000
0000
0000
0000
0000
0000
0000
,  // measure 29
1001
0000
0000
1000
0100
1000
0000
0000
0000
0000
0000
0000
0000
0000
0000
0000
0000
0000
0000
0000
0000
0000
0000
0000
,  // measure 30
0101
0000
0000
0100
0010
0100
0000
0000
0000
0000
0000
0000
0000
0000
0000
0000
0000
0000
0000
0000
0000
0000
0000
0000
,  // measure 31
1010
0000
0000
1000
0100
0010
0000
0000
0000
0000
0000
0000
0000
0000
0000
0000
0000
0000
0000
0000
0000
0000
0000
0000
,  // measure 32
1000
0001
1000
0000
0001
0000
0010
0010
0000
0000
0000
0000
0011
0000
0000
0000
,  // measure 33
0000
0001
1000
0001
0000
0001
0000
0001
1000
0000
0000
0000
0000
0000
0000
0000
;

//---------------dance-single - ----------------
#NOTEDATA:;
#CHARTNAME:;
#STEPSTYPE:dance-single;
#DESCRIPTION:;
#CHARTSTYLE:;
#DIFFICULTY:Beginner;
#METER:1;
#RADARVALUES:0.101175,0.143509,0.000000,0.000000,0.000000,57.000000,57.000000,0.000000,0.000000,0.000000,0.000000,0.000000,0.000000,0.000000,0.101175,0.143509,0.000000,0.000000,0.000000,57.000000,57.000000,0.000000,0.000000,0.000000,0.000000,0.000000,0.000000,0.000000;
#CREDIT:;
#NOTES:
0000
0000
0000
0000
,
0000
0000
0000
0000
,
0000
0000
0000
0000
,
0000
0000
0000
0000
,
0000
0000
0000
0000
,
0000
0000
0000
0000
,
0000
0000
0000
0000
,
0000
0000
0000
0000
,
1000
1000
1000
0000
,
0010
0010
0010
0000
,
0001
0001
0001
0000
,
0100
0100
0100
0000
,
1000
0000
0010
0000
,
0001
0000
0100
0000
,
0010
0000
0100
0000
,
1000
0000
0001
0000
,
1000
0000
0001
0000
,
0001
0000
1000
0000
,
0001
0000
1000
0000
,
0001
0000
1000
0000
,
0001
0000
1000
0000
,
0001
0000
1000
0000
,
0010
0000
0100
0000
,
0001
0001
0001
0001
,
0001
0000
0100
0000
,
0010
0000
1000
0000
,
1000
0000
0100
0000
,
0001
0000
0010
0000
,
0010
0000
1000
0000
,
0001
0000
0100
0000
,
0100
0000
0010
0000
,
0001
0000
0010
0000
,
1000
0000
0100
0000
,
1000
0000
0000
0000
;
