#VERSION:0.83;
#TITLE:July;
#SUBTITLE:-euromix-;
#ARTIST:JS14;
#TITLETRANSLIT:;
#SUBTITLETRANSLIT:;
#ARTISTTRANSLIT:;
#GENRE:;
#ORIGIN:;
#CREDIT:;
#BANNER:;
#BACKGROUND:DDR CD-bg.JPG;
#PREVIEWVID:;
#JACKET:July (euromix)-jacket.jpg;
#CDIMAGE:;
#DISCIMAGE:;
#LYRICSPATH:;
#CDTITLE:;
#MUSIC:July (euromix).ogg;
#OFFSET:-0.100000;
#SAMPLESTART:15.760005;
#SAMPLELENGTH:12.000000;
#SELECTABLE:YES;
#BPMS:0.000=145.000;
#STOPS:;
#DELAYS:;
#WARPS:;
#TIMESIGNATURES:0.000=4=4;
#TICKCOUNTS:0.000=4;
#COMBOS:0.000=1;
#SPEEDS:0.000=1.000=0.000=0;
#SCROLLS:0.000=1.000;
#FAKES:;
#LABELS:0.000=Song Start;
#BGCHANGES:;
#KEYSOUNDS:;
#ATTACKS:
;

//---------------dance-single - ----------------
#NOTEDATA:;
#CHARTNAME:;
#STEPSTYPE:dance-single;
#DESCRIPTION:;
#CHARTSTYLE:;
#DIFFICULTY:Hard;
#METER:13;
#RADARVALUES:0.610763,0.981176,0.061516,0.153789,0.563894,417.000000,411.000000,6.000000,15.000000,0.000000,0.000000,0.000000,0.000000,0.000000,0.610763,0.981176,0.061516,0.153789,0.563894,417.000000,411.000000,6.000000,15.000000,0.000000,0.000000,0.000000,0.000000,0.000000;
#CREDIT:;
#NOTES:
0000
0000
0000
0000
,
0000
0000
0000
0000
,
0000
0000
0000
0000
,
0000
0000
0000
0000
,
0100
0000
0000
0100
0001
0000
0001
0000
1000
0000
1000
0000
0001
0000
1000
0000
,
0010
1000
0001
1000
0001
0001
0100
0100
,
0001
1000
0100
1000
0001
0100
0001
0100
,
0001
0000
0001
0000
1000
0000
1000
0000
0001
0100
0010
1000
0010
0100
0001
0010
,
0002
0100
0100
0100
,
0103
0000
0010
0000
1000
0000
0001
0000
0001
1000
0100
1000
0001
1000
0010
1000
,
0001
0000
0000
0001
0000
0000
0001
0000
1000
0000
0000
1000
0000
0000
1000
0000
,
0000
0020
0000
0230
0001
0000
0301
0000
,
0100
0000
0000
0001
0000
0000
1000
0000
0000
0001
0000
0000
0100
0000
0000
0000
,
0010
1000
0100
0010
0001
0000
0110
0000
,
1000
0000
0000
0001
0000
0000
0100
0000
0010
0000
0000
0100
0000
0000
0002
0000
,
0000
0000
2003
0000
0000
0000
0100
0000
3000
0100
0000
0000
0100
0000
0000
0000
,
1000
0000
0000
0001
0000
0000
0100
0000
0001
0000
0000
0001
0000
0000
0100
0000
,
0000
0010
0000
0000
0010
0000
0000
0000
2000
0000
0000
0000
0000
0000
0000
0000
,
3100
0000
0000
1000
0000
0000
0010
0000
1000
0000
0000
0100
0000
0000
1000
0000
,
0000
0001
0000
0100
0001
0000
0010
0000
,
0001
0000
0000
0001
0000
0000
0001
0000
0000
0100
0000
0000
0001
0000
0000
0000
,
1000
0001
1000
0100
0010
0001
0100
0010
,
1000
0000
0000
1000
0000
0000
1000
0000
0010
0000
0000
0010
0000
0000
0010
0000
,
0000
0000
0200
0000
0000
0000
0302
0000
0000
0100
0000
0000
0103
0000
0000
0000
,
0010
0000
0000
0010
0000
0000
0100
0000
0001
0000
0000
0001
0000
0000
1000
0000
,
0000
0100
0000
0000
1000
0000
0000
0000
0220
0000
0000
0000
0330
0000
0000
0000
,
1001
0000
1000
0100
0000
1000
0100
0000
1000
0100
0000
1000
0100
0000
1000
0000
,
0001
0000
0100
0001
0000
0100
0001
0000
0100
0000
0001
0100
0000
0001
0100
0000
,
0000
0000
0010
0000
0010
1000
0000
0010
1000
0000
0010
1000
0000
0010
0100
0000
,
0000
0000
0001
0000
0001
0100
0000
0010
0100
0000
0000
0000
0001
0000
0100
0000
,
0001
0000
1000
0000
0100
1000
0000
0100
1000
0000
0001
1000
0000
0001
0100
0000
,
0010
0000
0100
0000
0010
1000
0010
1000
0100
0000
1000
0100
1000
0000
0001
0000
,
0100
0000
0001
0000
0100
0001
0000
0100
0001
0000
0100
0010
0000
0100
0010
0000
,
1000
0000
0100
0000
0010
0000
0001
0000
1000
0001
1000
0001
1000
0001
1000
0001
,
0100
0000
0010
0100
0000
0001
0100
0000
0010
0100
0000
0001
0100
0000
0001
0000
,
0010
0000
0001
1000
0000
0001
0010
0000
0001
1000
0001
1000
0010
1000
0001
1000
,
0100
0000
1000
0000
0100
1000
0000
0010
1000
0000
1000
0100
0000
0100
1000
0000
,
1000
0000
0010
0000
0100
0001
0000
0001
0010
0000
0010
0001
0000
0001
0100
0000
,
0010
0000
0100
0000
0001
1000
0000
1000
0100
0000
0010
0001
0000
0001
0100
0000
,
0001
0000
0100
0000
0001
0100
0000
0100
0010
0000
0010
0100
0000
0100
0001
0000
,
1000
0001
1000
0001
0100
0001
0100
0001
0100
0001
0100
0001
0100
0010
0100
0010
,
1000
0010
1000
0010
1000
0100
1000
0100
1000
0100
1000
0001
1000
0001
1000
0001
,
0100
0000
0101
0000
0010
1000
0010
1000
,
0100
1000
0010
0100
0001
0100
0001
0010
,
0001
0100
0001
0100
0010
1000
0100
1000
,
0010
0100
0001
0100
0010
1000
0100
1000
,
0001
0100
0001
1000
0100
1000
0010
0100
,
0010
1000
0100
1000
0100
0010
0001
0100
,
0010
1000
0100
0010
0001
0100
0010
1000
,
0001
0100
0100
0010
0010
1000
0100
1000
,
0001
0000
0000
0001
0000
0000
0001
0000
1000
0000
0000
1000
0000
0000
1000
0000
,
0000
0020
0000
0230
0001
0000
0301
0000
,
0100
0000
0000
0001
0000
0000
1000
0000
0000
0001
0000
0000
0100
0000
0000
0000
,
0010
1000
0100
0010
0001
0000
0110
0000
,
1000
0000
0000
0001
0000
0000
0100
0000
0010
0000
0000
0100
0000
0000
0002
0000
,
0000
0000
2003
0000
0000
0000
0100
0000
3000
0100
0000
0000
0100
0000
0000
0000
,
1000
0000
0000
0001
0000
0000
0100
0000
0001
0000
0000
0001
0000
0000
0100
0000
,
0000
0010
0000
0000
0010
0000
0000
0000
0200
0000
0000
0000
0000
0000
0300
0000
,
1001
0000
0000
0000
;

//---------------dance-single - ----------------
#NOTEDATA:;
#CHARTNAME:;
#STEPSTYPE:dance-single;
#DESCRIPTION:;
#CHARTSTYLE:;
#DIFFICULTY:Easy;
#METER:5;
#RADARVALUES:0.254851,0.297326,0.133284,0.348589,0.000000,174.000000,161.000000,13.000000,34.000000,0.000000,0.000000,0.000000,0.000000,0.000000,0.254851,0.297326,0.133284,0.348589,0.000000,174.000000,161.000000,13.000000,34.000000,0.000000,0.000000,0.000000,0.000000,0.000000;
#CREDIT:;
#NOTES:
0000
0000
0000
0000
,
0000
0000
0000
0000
,
0000
0000
0000
0000
,
0000
0000
0000
0000
,
1000
2000
0000
0000
,
0100
0100
3100
0000
,
0001
0001
0001
0002
,
0000
0100
0100
0100
,
0103
0010
0100
0010
,
0100
0010
0220
0330
,
1001
1000
0000
1000
,
1000
0001
0000
0001
,
0001
0100
0000
0100
,
0100
0010
0000
0010
,
0010
1000
0000
1000
,
1000
0100
0000
0100
,
0100
0010
0000
0010
,
0001
0001
0001
0001
,
1001
0001
0100
0010
,
1000
0100
1000
0001
,
0100
0100
0100
0100
,
0010
0010
0010
0010
,
1000
0100
0010
0001
,
0100
0010
1000
0100
,
0010
0001
0100
0010
,
1000
0001
1000
0001
,
2002
0000
0000
3003
,
0202
0000
0000
0303
,
2020
0000
0000
3030
,
2200
0000
0000
3300
,
0022
0000
0000
0033
,
0220
0000
0000
0330
,
2002
0000
0000
3003
,
1000
0001
0100
0100
,
1002
0000
0203
0000
,
0320
0000
2030
0000
,
3200
0000
2300
0000
,
3020
0000
0230
0000
,
0302
0000
0023
0000
,
0032
0000
0203
0000
,
0320
0000
2030
0000
,
3200
0000
2300
0000
,
3001
0001
1000
1000
,
0001
1000
0001
1000
,
0010
0010
0100
0100
,
0010
0100
0010
0100
,
0001
1000
0100
1000
,
0001
0100
0001
1000
,
0010
1000
0001
0010
,
0001
1000
0001
0100
,
1001
1000
0000
1000
,
1000
0001
0000
0001
,
0001
0100
0000
0100
,
0100
0010
0000
0010
,
0010
1000
0000
1000
,
1000
0100
0000
0100
,
0100
0010
0000
0010
,
0001
0001
0001
0001
,
1001
0000
0000
0000
;

//---------------dance-single - ----------------
#NOTEDATA:;
#CHARTNAME:;
#STEPSTYPE:dance-single;
#DESCRIPTION:;
#CHARTSTYLE:;
#DIFFICULTY:Medium;
#METER:8;
#RADARVALUES:0.388135,0.416257,0.153789,0.112779,0.056389,265.000000,250.000000,15.000000,11.000000,0.000000,0.000000,0.000000,0.000000,0.000000,0.388135,0.416257,0.153789,0.112779,0.056389,265.000000,250.000000,15.000000,11.000000,0.000000,0.000000,0.000000,0.000000,0.000000;
#CREDIT:;
#NOTES:
0000
0000
0000
0000
,
0000
0000
0000
0000
,
0000
0000
0000
0000
,
0000
0000
0000
0000
,
1000
0000
1000
0000
0001
0100
0001
0000
,
0001
0000
0001
0000
1000
0100
1000
0000
,
1000
0010
0100
0001
,
1000
0010
0100
0001
,
1001
0100
0100
0100
,
2002
0000
0000
3003
,
1000
0000
0000
1000
0000
0000
1000
0000
1000
0000
0000
1000
0000
0000
1000
0000
,
0000
0001
0000
0001
0100
0000
0100
0000
,
0001
0000
0000
0001
0000
0000
0001
0000
0000
0001
0000
0000
0001
0000
0000
0000
,
0001
0100
0001
0100
0001
0000
0001
0000
,
1000
0000
1000
0000
1000
0010
0100
0000
,
0001
0000
0001
0000
0001
0100
0010
0000
,
1000
0000
1000
0000
0010
0100
0010
0100
,
0001
0000
0001
0000
0100
0010
0100
0010
,
1000
1100
1000
0101
,
0001
1001
0001
0110
,
0010
1000
0100
1000
,
0010
0100
0010
0100
0001
0000
0001
0000
,
1000
0000
1000
0000
0001
0000
0001
0001
,
0100
0000
0010
0000
0100
0100
0100
0000
,
0010
0010
1000
1000
,
0010
1000
0010
1000
0010
1000
0010
1000
,
0200
1000
0000
1300
,
2000
0010
0000
3010
,
0200
0001
0000
0301
,
0002
0010
0000
0103
,
0200
0010
0000
0301
,
0002
1000
0000
1003
,
2000
0010
0000
3010
,
0010
0100
0010
0100
0010
0100
0010
0100
,
0001
0000
0000
0001
0000
0000
0001
0000
0000
0001
0000
0000
0001
0000
0000
0000
,
1000
0000
0000
1000
0000
0000
1000
0000
1000
0000
0000
0000
1000
0000
0000
0000
,
0010
0010
0010
0010
,
0200
0300
0200
0300
,
0001
1000
0001
1000
,
0001
1000
0001
1000
0001
1000
0001
1000
,
0010
0100
0010
0100
,
0010
0100
0010
0100
0010
0100
0010
0100
,
0010
1000
0100
1001
,
0001
0100
0010
0101
,
0001
1000
0100
1100
,
1000
0010
0100
0110
,
0100
0001
0100
0101
,
0001
0010
0001
1001
,
0001
1000
0100
1100
,
1000
0010
0100
0101
,
1000
0000
0000
1000
0000
0000
1000
0000
1000
0000
0000
1000
0000
0000
1000
0000
,
0000
0001
0000
0001
0100
0000
0100
0000
,
0001
0000
0000
0001
0000
0000
0001
0000
0000
0001
0000
0000
0001
0000
0000
0000
,
0001
0100
0001
0100
0001
0000
0001
0000
,
1000
0000
1000
0000
1000
0010
0100
0000
,
0001
0000
0001
0000
0001
0100
0010
0000
,
1000
0000
1000
0000
0010
0100
0010
0100
,
0001
0000
0001
0000
0100
0010
0100
0000
,
1001
0000
0000
0000
;

//---------------dance-single - ----------------
#NOTEDATA:;
#CHARTNAME:;
#STEPSTYPE:dance-single;
#DESCRIPTION:;
#CHARTSTYLE:;
#DIFFICULTY:Beginner;
#METER:2;
#RADARVALUES:0.142072,0.208128,0.020505,0.092274,0.000000,97.000000,95.000000,2.000000,9.000000,0.000000,0.000000,0.000000,0.000000,0.000000,0.142072,0.208128,0.020505,0.092274,0.000000,97.000000,95.000000,2.000000,9.000000,0.000000,0.000000,0.000000,0.000000,0.000000;
#CREDIT:;
#NOTES:
// measure 0
0000
0000
0000
0000
,  // measure 1
0000
0000
0000
0000
,  // measure 2
0000
0000
0000
0000
,  // measure 3
0000
0000
0000
0000
,  // measure 4
1000
1000
0000
0000
,  // measure 5
0100
0100
0000
0000
,  // measure 6
0001
0001
0000
0000
,  // measure 7
0010
0010
0000
0000
,  // measure 8
0100
0000
0100
0000
,  // measure 9
0200
0000
0000
0300
,  // measure 10
0100
0000
0000
0000
,  // measure 11
1000
0000
0000
0000
,  // measure 12
0001
0000
0000
0000
,  // measure 13
0100
0000
0000
0000
,  // measure 14
0010
0000
0000
0000
,  // measure 15
1000
0000
0000
0000
,  // measure 16
0100
0000
0000
0000
,  // measure 17
0001
0001
0001
0001
,  // measure 18
0001
0000
0100
0000
,  // measure 19
1000
0000
1000
0000
,  // measure 20
0100
0000
0100
0000
,  // measure 21
0010
0000
0010
0000
,  // measure 22
1000
0000
0010
0000
,  // measure 23
0100
0000
1000
0000
,  // measure 24
0010
0000
0100
0000
,  // measure 25
1000
0000
1000
0000
,  // measure 26
0002
0000
0003
0000
,  // measure 27
0200
0000
0300
0000
,  // measure 28
0020
0000
0030
0000
,  // measure 29
2000
0000
3000
0000
,  // measure 30
0002
0000
0003
0000
,  // measure 31
0200
0000
0300
0000
,  // measure 32
0020
0000
0030
0000
,  // measure 33
2000
0000
3000
0000
,  // measure 34
1001
0000
0100
0000
,  // measure 35
0010
0000
1000
0000
,  // measure 36
0100
0000
1000
0000
,  // measure 37
0010
0000
0100
0000
,  // measure 38
0001
0000
0010
0000
,  // measure 39
0001
0000
0100
0000
,  // measure 40
0010
0000
1000
0000
,  // measure 41
0100
0000
1000
0000
,  // measure 42
0001
0001
0000
0000
,  // measure 43
0001
0001
0000
0000
,  // measure 44
0010
0010
0000
0000
,  // measure 45
0100
0100
0000
0000
,  // measure 46
1000
1000
0000
0000
,  // measure 47
0100
0100
0000
0000
,  // measure 48
0010
0010
0000
0000
,  // measure 49
0001
0001
0000
0000
,  // measure 50
1000
1000
0000
0000
,  // measure 51
1000
1000
0000
0000
,  // measure 52
0001
0001
0000
0000
,  // measure 53
0100
0100
0000
0000
,  // measure 54
0010
0010
0000
0000
,  // measure 55
1000
1000
0000
0000
,  // measure 56
0100
0100
0000
0000
,  // measure 57
0001
0001
0000
0000
,  // measure 58
1001
0000
0000
0000
;
