#VERSION:0.83;
#TITLE:JUPITER;
#SUBTITLE:(THE BRINGER OF JOLLITY);
#ARTIST:Classic Remix;
#TITLETRANSLIT:;
#SUBTITLETRANSLIT:;
#ARTISTTRANSLIT:;
#GENRE:;
#ORIGIN:;
#CREDIT:;
#BANNER:;
#BACKGROUND:DDR CD-bg.JPG;
#PREVIEWVID:;
#JACKET:Jupiter-jacket.jpg;
#CDIMAGE:;
#DISCIMAGE:;
#LYRICSPATH:;
#CDTITLE:;
#MUSIC:Jupiter.ogg;
#OFFSET:-4.860000;
#SAMPLESTART:70.820168;
#SAMPLELENGTH:15.000000;
#SELECTABLE:YES;
#BPMS:0.000=150.000;
#STOPS:;
#DELAYS:;
#WARPS:;
#TIMESIGNATURES:0.000=4=4;
#TICKCOUNTS:0.000=4;
#COMBOS:0.000=1;
#SPEEDS:0.000=1.000=0.000=0;
#SCROLLS:0.000=1.000;
#FAKES:;
#LABELS:0.000=Song Start;
#BGCHANGES:;
#KEYSOUNDS:;
#ATTACKS:
;

//---------------dance-single - ----------------
#NOTEDATA:;
#CHARTNAME:;
#STEPSTYPE:dance-single;
#DESCRIPTION:;
#CHARTSTYLE:;
#DIFFICULTY:Hard;
#METER:12;
#RADARVALUES:0.474406,0.546623,0.065759,0.435655,0.073979,404.000000,396.000000,8.000000,53.000000,0.000000,0.000000,0.000000,0.000000,0.000000,0.474406,0.546623,0.065759,0.435655,0.073979,404.000000,396.000000,8.000000,53.000000,0.000000,0.000000,0.000000,0.000000,0.000000;
#CREDIT:;
#NOTES:
0000
0000
0000
0000
,
0000
0000
0000
0000
,
0000
0000
0000
1000
,
0100
1000
0100
0010
,
0001
0010
0001
0100
,
0001
0100
0001
1000
,
0010
1000
0010
1000
,
0100
0010
0001
2002
,
0000
0000
0000
3003
,
0001
0001
0000
0100
0000
0010
1000
0000
,
1000
0100
0010
0001
0100
0001
0100
0001
,
1000
0010
1000
0000
0010
1000
0010
0000
,
1000
0100
1000
0100
1000
0000
0001
0000
,
0100
0001
0000
0100
0000
0010
0000
1000
,
0000
0100
0000
1000
0000
0010
1000
0100
,
1000
0001
0100
0000
0001
0100
0001
0000
,
0010
0001
0010
0001
1000
0100
1000
0010
,
0100
0001
0100
0010
1000
0100
1000
0001
,
0100
0010
0100
0001
0010
0001
1000
0100
,
1000
0010
0100
0000
0001
0100
0010
0000
,
0000
0000
0100
0001
1000
0100
0000
0000
,
1000
0002
0100
0000
0103
0010
0100
0010
,
1000
0001
0100
0000
0001
0000
0100
0001
,
0010
0000
0001
0010
0001
0010
0001
1000
,
0001
2000
0100
0000
3100
1000
0010
0200
,
0001
0000
0301
0100
0010
1000
0100
1000
,
0100
1000
0100
1000
0001
1000
0001
0100
,
0001
0200
0000
0320
0000
2030
0100
3100
,
1000
0001
0100
0001
0001
0100
0010
0100
,
0001
1000
0010
1000
0010
0010
1000
0100
,
1000
0001
1000
0100
1000
2000
0001
0000
,
3010
0100
0001
0100
0010
0100
0001
0100
,
0010
1000
0100
0010
0001
0100
0010
1000
,
0200
2300
3020
0230
,
0302
2003
3200
2300
,
3020
0230
0302
0023
,
0032
0000
0203
0000
0320
0000
2030
0100
,
3200
0000
0000
2300
0000
0000
3020
0000
0000
0130
0001
0010
,
0002
2003
3200
0320
,
0032
0000
0000
0000
,
2003
0000
0000
0000
,
3000
0000
1001
0000
0000
0110
0000
0000
,
1001
0000
1000
0000
0001
0100
0010
0100
,
0010
1000
0100
1000
0100
1000
0010
0100
,
0001
0100
0010
1000
0100
1000
0100
1000
,
0100
0010
0001
0100
0010
1000
0100
0010
,
0100
1000
0010
0100
0010
1000
0100
0010
,
0100
1000
0010
0100
0001
0100
0010
0100
,
0001
0010
0100
0010
0001
0010
0001
0100
,
0010
0100
0001
0100
0010
0100
0010
1000
,
0200
1000
1300
0100
1000
0010
0100
0001
,
0200
0010
0310
0100
0001
0100
0010
1000
,
0200
1000
1300
0100
1000
0010
0100
0001
,
0100
0000
0010
0000
0100
0000
0001
0000
1001
0000
0100
0000
0001
0100
0000
0001
,
0010
0000
0000
0010
0000
0000
0010
0000
0002
0000
0000
0000
1003
0100
1000
0000
,
2000
0000
0000
0000
3020
0000
0000
0000
0130
0000
0000
0100
0000
0000
0100
0000
,
0002
0000
0003
1000
0100
1000
0020
0000
,
0130
0000
0000
0001
0000
0000
0100
0000
0002
0000
0000
0000
0103
0010
1000
0000
,
0200
0000
1000
0000
2300
0000
0000
0000
3200
0000
0000
1000
0000
0000
1000
0000
,
2300
0000
0000
0001
0010
0001
3010
0000
,
0020
0100
0100
0000
0130
0000
0010
0000
,
1001
0100
0001
0000
0100
0001
0100
0000
,
0010
1000
0010
0000
1000
0100
1000
0000
,
0001
0000
0000
0010
0000
0000
0001
0000
1000
0000
0100
0000
1000
0010
0100
0000
,
0002
0203
0320
0000
,
0000
0000
0000
0000
1030
0100
0010
0001
1000
0001
0100
0010
1000
0010
0100
0002
,
2000
0000
0000
0000
,
0000
0000
0000
0000
,
3003
0100
0000
0100
0000
0100
0001
0000
,
1000
0010
1000
0000
0100
1001
0000
0100
,
1001
0000
0000
0000
;

//---------------dance-single - ----------------
#NOTEDATA:;
#CHARTNAME:;
#STEPSTYPE:dance-single;
#DESCRIPTION:;
#CHARTSTYLE:;
#DIFFICULTY:Medium;
#METER:8;
#RADARVALUES:0.324099,0.431545,0.213717,0.410995,0.004110,276.000000,250.000000,26.000000,50.000000,0.000000,0.000000,0.000000,0.000000,0.000000,0.324099,0.431545,0.213717,0.410995,0.004110,276.000000,250.000000,26.000000,50.000000,0.000000,0.000000,0.000000,0.000000,0.000000;
#CREDIT:;
#NOTES:
0000
0000
0000
0000
,
0000
0000
0000
0000
,
0000
0000
0000
1000
,
1000
1000
1000
0001
,
0001
0001
0001
1000
,
1000
0001
0001
0100
,
0100
0010
0010
1000
,
0100
0010
0001
0220
,
0000
0000
0000
0330
,
0100
0001
0000
0010
0000
1000
0100
0000
,
0001
0010
1000
0100
0000
0000
1100
0000
,
1000
0010
1000
0000
0010
1000
0010
0000
,
1000
0100
1000
0100
1000
0000
0001
0000
,
0100
0001
0000
0100
0000
0010
0000
1000
,
0000
0100
0000
1000
0000
0010
1000
0100
,
1000
0001
0100
0000
0001
0100
0001
0000
,
0010
0001
0010
0001
2000
0200
0000
3000
,
0300
1000
0001
0100
,
0001
0001
0010
0001
,
1000
0010
0010
1000
,
0000
0001
0100
0000
,
0101
0001
0100
0100
,
0010
1000
0010
0000
1000
0000
1000
0001
,
1000
0000
1000
0000
0001
0100
0001
0100
,
0001
0100
0001
0000
0010
0000
0100
1000
,
0100
0000
1000
0010
0100
0001
0100
0001
,
0100
0010
1000
0000
1000
0000
0001
0000
,
0001
0100
0000
0010
0000
1000
0100
0000
,
1000
0010
0200
0000
0001
0000
0001
0000
,
0001
0301
0002
1003
,
2000
3020
0230
0302
,
2003
3200
2300
3020
,
0230
0302
0023
0032
,
2000
0003
3200
1000
,
1300
2000
0001
0001
,
3001
0002
0100
0103
,
0200
0000
0010
0000
0310
0000
0010
1000
,
0010
0000
0000
0100
0000
0000
0001
0000
0000
1000
0000
0100
,
1000
0001
0100
0001
,
2002
0000
0000
0000
,
0000
0000
0000
0000
,
3003
0000
0100
0000
0000
0100
0000
0000
,
0100
0101
0010
1010
,
1000
1100
0100
1100
,
1000
1001
0001
0101
,
0100
0110
0010
1010
,
1000
1100
1000
0001
,
0100
0001
0011
0011
,
0001
1000
0010
1100
,
1000
0101
0001
0100
,
0010
1000
1100
1000
,
1001
0101
1001
0100
,
1001
0100
1001
1000
,
0010
0100
0001
0001
,
1002
0000
0203
0000
,
0320
1000
2030
0000
,
3200
0000
0320
0001
,
0032
0000
2003
0000
,
3020
1000
2030
0000
,
3200
0000
2300
0010
,
3020
0000
0230
0000
,
0302
0000
0023
0000
,
0032
0000
2003
0000
,
3200
1000
2300
0000
,
3002
0000
0203
0000
,
0000
0020
0000
0330
,
2002
0000
0000
0000
,
0000
0000
0000
0000
,
3003
1000
0000
1000
0000
1000
0000
0000
,
0001
0001
0001
0000
,
1001
0000
0000
0000
;

//---------------dance-single - ----------------
#NOTEDATA:;
#CHARTNAME:;
#STEPSTYPE:dance-single;
#DESCRIPTION:;
#CHARTSTYLE:;
#DIFFICULTY:Easy;
#METER:5;
#RADARVALUES:0.251294,0.287696,0.065759,0.394555,0.000000,214.000000,206.000000,8.000000,48.000000,0.000000,0.000000,0.000000,0.000000,0.000000,0.251294,0.287696,0.065759,0.394555,0.000000,214.000000,206.000000,8.000000,48.000000,0.000000,0.000000,0.000000,0.000000,0.000000;
#CREDIT:;
#NOTES:
0000
0000
0000
0000
,
0000
0000
0000
0000
,
0000
0000
0000
1000
,
0000
1000
0000
0001
,
0000
0001
0000
1000
,
1000
0000
0000
0001
,
0001
0000
0000
0100
,
0100
0100
0100
0200
,
0000
0000
0000
0300
,
0100
0000
0000
0010
0000
1000
0000
0000
,
0001
1000
0000
1100
,
1000
1000
0010
0010
,
1000
1000
1000
0001
,
0100
0000
0000
0100
0000
0010
0000
1000
,
0000
0100
0000
1000
0000
0000
1000
0000
,
1000
0100
0001
0001
,
0010
0000
0010
0000
0000
0200
0000
0000
,
0300
0001
0001
0100
,
0001
0001
0010
0001
,
1000
0010
0010
1000
,
0000
0001
0100
0000
,
0101
0001
0100
0100
,
0010
0010
1000
1000
,
1000
1000
0001
1000
,
1001
0001
0010
0100
,
0100
1000
0100
0010
,
0100
1000
1001
0001
,
0001
0000
0000
0001
0000
1000
0000
0000
,
0001
0200
0001
0001
,
0001
0301
0002
1003
,
2000
3020
0230
0302
,
2003
3200
2300
3020
,
0230
0302
0023
0032
,
2000
0003
3200
1000
,
1300
2000
0001
0001
,
3001
0002
0100
0103
,
0200
0010
0310
0010
,
0010
0100
0001
1000
,
1000
0001
0100
0001
,
2002
0000
0000
0000
,
0000
0000
0000
0000
,
3003
0000
0100
0000
0000
0100
0000
0000
,
0100
0001
0010
1000
,
1000
0100
0100
1000
,
1000
0001
0001
0100
,
0100
0010
0010
1000
,
1000
1000
1000
0001
,
0100
0001
0001
0001
,
0001
1000
0010
1000
,
1000
0001
0001
0100
,
0010
1000
0100
1000
,
0001
0100
0001
1000
,
0001
0100
1000
1000
,
0010
0100
0001
0001
,
1002
0000
0203
0000
,
0320
0000
2030
0000
,
3200
0000
0320
0000
,
0032
0000
2003
0000
,
3020
0000
2030
0000
,
3200
0000
2300
0000
,
3020
0000
0230
0000
,
0302
0000
0023
0000
,
0032
0000
2003
0000
,
3200
0000
2300
0000
,
3002
0000
0203
0000
,
0000
0020
0000
0330
,
2002
0000
0000
0000
,
0000
0000
0000
0000
,
3003
1000
0000
1000
0000
1000
0000
0000
,
0001
0001
0001
0000
,
1001
0000
0000
0000
;

//---------------dance-single - ----------------
#NOTEDATA:;
#CHARTNAME:;
#STEPSTYPE:dance-single;
#DESCRIPTION:;
#CHARTSTYLE:;
#DIFFICULTY:Beginner;
#METER:2;
#RADARVALUES:0.130344,0.172618,0.016440,0.147958,0.000000,111.000000,109.000000,2.000000,18.000000,0.000000,0.000000,0.000000,0.000000,0.000000,0.130344,0.172618,0.016440,0.147958,0.000000,111.000000,109.000000,2.000000,18.000000,0.000000,0.000000,0.000000,0.000000,0.000000;
#CREDIT:;
#NOTES:
// measure 0
0000
0000
0000
0000
,  // measure 1
0000
0000
0000
0000
,  // measure 2
0000
0000
0000
1000
,  // measure 3
1000
0000
0000
0001
,  // measure 4
0001
0000
0000
1000
,  // measure 5
1000
0000
0000
0001
,  // measure 6
0001
0000
0000
0100
,  // measure 7
0100
0100
0000
0020
,  // measure 8
0000
0000
0030
0000
,  // measure 9
0100
0000
0000
0000
,  // measure 10
0001
0001
0000
0000
,  // measure 11
1000
1000
0000
0000
,  // measure 12
1000
1000
0000
0000
,  // measure 13
0100
0100
0000
0000
,  // measure 14
0000
0000
0000
0000
,  // measure 15
1000
1000
0000
0000
,  // measure 16
0010
0010
0000
0000
,  // measure 17
0100
0100
0000
0000
,  // measure 18
0001
0001
0000
0000
,  // measure 19
1000
1000
0000
0000
,  // measure 20
0001
0001
0000
0000
,  // measure 21
0001
0001
0000
0000
,  // measure 22
0010
0010
0000
0000
,  // measure 23
1000
1000
0000
0000
,  // measure 24
0001
0001
0000
0000
,  // measure 25
0100
0100
0000
0000
,  // measure 26
0100
0100
0000
0000
,  // measure 27
0001
0001
0000
0000
,  // measure 28
0001
0000
0001
0000
,  // measure 29
0001
0000
0001
0000
,  // measure 30
1000
0000
0100
0000
,  // measure 31
1000
0000
1000
0000
,  // measure 32
0100
0000
0010
0000
,  // measure 33
0001
0000
0001
0000
,  // measure 34
1000
0000
0001
0000
,  // measure 35
0001
0000
0100
0000
,  // measure 36
0100
0000
0010
0000
,  // measure 37
0010
0000
0001
0000
,  // measure 38
1000
0000
0100
0000
,  // measure 39
2002
0000
0000
0000
,  // measure 40
0000
0000
0000
0000
,  // measure 41
0000
3003
0000
0000
,  // measure 42
0100
0000
0010
0000
,  // measure 43
1000
0000
0100
0000
,  // measure 44
1000
0000
0001
0000
,  // measure 45
0100
0000
0010
0000
,  // measure 46
1000
0000
1000
0000
,  // measure 47
0100
0000
0001
0000
,  // measure 48
0001
0000
0010
0000
,  // measure 49
1000
0000
0001
0000
,  // measure 50
0010
0000
0100
0000
,  // measure 51
0001
0000
0001
0000
,  // measure 52
0001
0000
1000
0000
,  // measure 53
0010
0000
0001
0000
,  // measure 54
2000
0000
3000
0000
,  // measure 55
0020
0000
0030
0000
,  // measure 56
0200
0000
0300
0000
,  // measure 57
0002
0000
0003
0000
,  // measure 58
0020
0000
0030
0000
,  // measure 59
0200
0000
0300
0000
,  // measure 60
0020
0000
0030
0000
,  // measure 61
0002
0000
0003
0000
,  // measure 62
0002
0000
0003
0000
,  // measure 63
0200
0000
0300
0000
,  // measure 64
0002
0000
0003
0000
,  // measure 65
2000
0000
3000
0000
,  // measure 66
2002
0000
0000
0000
,  // measure 67
0000
0000
0000
0000
,  // measure 68
3003
0000
0000
0000
,  // measure 69
0200
0000
0300
0000
,  // measure 70
0100
0000
0000
0000
;
