#VERSION:0.83;
#TITLE:JIVE INTO THE NIGHT;
#SUBTITLE:;
#ARTIST:CYDNEY;
#TITLETRANSLIT:;
#SUBTITLETRANSLIT:;
#ARTISTTRANSLIT:;
#GENRE:DANCE EXPRESS Hi-speed;
#ORIGIN:;
#CREDIT:;
#BANNER:;
#BACKGROUND:DDR CD-bg.JPG;
#PREVIEWVID:;
#JACKET:JIVE INTO THE NIGHT-jacket.jpg;
#CDIMAGE:;
#DISCIMAGE:;
#LYRICSPATH:;
#CDTITLE:;
#MUSIC:JIVE INTO THE NIGHT.ogg;
#OFFSET:1.391000;
#SAMPLESTART:55.932999;
#SAMPLELENGTH:15.000000;
#SELECTABLE:YES;
#DISPLAYBPM:170.000000;
#BPMS:0.000=170.000;
#STOPS:;
#DELAYS:;
#WARPS:;
#TIMESIGNATURES:0.000=4=4;
#TICKCOUNTS:0.000=4;
#COMBOS:0.000=1;
#SPEEDS:0.000=1.000=0.000=0;
#SCROLLS:0.000=1.000;
#FAKES:;
#LABELS:0.000=Song Start;
#BGCHANGES:;
#KEYSOUNDS:;
#ATTACKS:
;

//---------------dance-single - ----------------
#NOTEDATA:;
#CHARTNAME:;
#STEPSTYPE:dance-single;
#DESCRIPTION:;
#CHARTSTYLE:;
#DIFFICULTY:Hard;
#METER:16;
#RADARVALUES:0.735394,1.028563,0.737904,0.166907,0.382129,586.000000,502.000000,84.000000,19.000000,0.000000,0.000000,0.000000,0.000000,0.000000,0.735394,1.028563,0.737904,0.166907,0.382129,586.000000,502.000000,84.000000,19.000000,0.000000,0.000000,0.000000,0.000000,0.000000;
#CREDIT:;
#DISPLAYBPM:170.000000;
#NOTES:
0000
0000
0000
0000
,
0000
0000
0000
0000
,
0000
0000
0000
0000
,
0000
0000
0000
0000
,
0000
0000
0000
0000
,
1100
1000
0100
1000
,
0101
0001
0100
0001
,
1100
1000
0101
0001
,
1100
0000
0101
0000
1000
0001
1000
0001
,
0100
0000
0001
0000
0100
0000
0001
0000
0100
0010
0000
1000
0000
0010
0000
1000
,
0100
0000
1000
0000
0100
0000
1000
0000
0010
0100
0000
0001
0000
0100
0010
1000
,
0010
0000
1000
0000
0100
0000
1000
0000
0100
1000
0000
0010
0100
0000
0001
0000
,
0100
0000
0001
0000
0010
0000
0001
0000
0010
0001
0000
1000
0000
0001
0100
0010
,
0100
0000
0010
0000
1000
0000
0100
0000
1000
0010
0000
0100
0001
0000
0010
0000
,
0001
0000
0100
0000
0010
0000
1000
0000
0010
0100
0000
0010
0000
1000
0010
0100
,
0010
0000
1000
0000
0100
0000
0010
0000
0001
0100
0000
0001
0000
0000
0000
0000
,
1000
0001
1000
0001
1000
0100
1000
0100
1000
0000
0000
0000
1001
0000
0000
0000
,
1100
1100
1100
1100
,
1000
0001
1000
0001
,
0101
0101
0101
0101
,
0001
1000
0001
1000
,
1010
1010
1010
1010
,
1000
0001
1000
0001
,
0011
0011
0011
0011
,
0000
0000
0101
0000
0000
1100
0000
0000
1001
0000
0000
0000
0000
0000
0000
0000
,
1000
0010
0100
0001
1000
0010
0100
0001
,
1000
0010
0100
0001
1000
0010
0100
0001
,
1000
0100
0010
0001
1000
0100
0010
0001
,
1000
0100
0010
0001
1000
0100
0010
0001
,
1000
0100
1000
0001
0100
0001
1000
0100
,
1000
0001
0100
0001
1000
0100
1000
0001
,
0100
0010
0100
0002
0103
0010
0100
0001
,
1000
0010
0100
0010
1000
0010
0100
0010
,
1000
0010
0100
0001
0100
0001
0100
0010
,
0100
0010
1000
0010
1000
0100
0010
0001
,
1000
0010
0100
0001
0100
0001
0010
0001
,
0010
0001
0100
0010
1000
0100
1000
0010
,
0100
0001
0100
0010
1000
0100
1000
0010
,
0100
0001
0100
0001
0010
0001
0100
0001
,
0100
0010
1000
0001
0100
0010
1000
0100
,
1000
0010
0100
0001
1001
0000
0000
0000
,
1100
1010
1100
1010
,
1000
0100
1000
0100
,
0011
0101
0011
0101
,
0001
1000
0010
0100
,
1100
0011
0101
1010
,
1000
0001
0100
0010
,
0110
1001
0110
1001
,
0000
0000
1001
0000
0000
0110
0000
0000
2002
0000
0000
0000
3003
0000
0000
0000
,
1002
0103
0102
0013
,
0102
0013
2010
3100
,
2010
3100
1020
0130
,
0201
0310
1200
1300
,
0102
0103
0021
0031
,
0201
0301
0120
0130
,
1001
0110
1001
0110
,
1000
0000
0001
0000
0100
0000
0001
0000
1000
0001
0100
0001
1000
0001
0100
0001
,
1000
0000
0001
0000
0100
0000
0001
0000
0100
0010
0000
1000
0000
0010
0000
1000
,
0100
0000
1000
0000
0100
0000
1000
0000
0010
0100
0000
0001
0000
0100
0010
1000
,
0010
0000
1000
0000
0100
0000
1000
0000
0100
1000
0000
0010
0100
0000
0001
0000
,
0100
0000
0001
0000
0010
0000
0001
0000
0010
0001
0000
1000
0000
0001
0100
0010
,
0100
0000
0010
0000
1000
0000
0100
0000
1000
0010
0000
0100
0001
0000
0010
0000
,
0001
0000
0100
0000
0010
0000
1000
0000
0010
0100
0000
0010
0000
1000
0010
0100
,
0001
1000
0001
1000
0010
0100
0010
0100
,
0001
1000
0000
0001
1000
0001
0000
1000
0100
0000
1000
0000
0010
0000
0100
0000
,
0101
1010
1100
1010
,
1000
0100
1000
0100
,
0011
0101
0011
0101
,
0001
1000
0010
0100
,
1100
0011
0101
1010
,
1000
0001
0100
0010
,
0110
1001
0110
1001
,
0000
0000
1001
0000
0000
0110
0000
0000
2002
0000
0000
0000
3003
0000
0100
0000
,
1000
0000
0001
0000
0100
0000
0001
0000
0100
0010
0000
1000
0000
0010
0000
1000
,
0100
0000
1000
0000
0100
0000
1000
0000
0010
0100
0000
0001
0000
0100
0010
1000
,
0010
0000
1000
0000
0100
0000
1000
0000
0100
1000
0000
0010
0100
0000
0001
0000
,
0100
0000
0001
0010
0000
0001
0000
0010
0000
0001
0000
1000
0001
0000
0100
0000
,
0100
0000
0010
0000
1000
0000
0100
0000
1000
0010
0000
0100
0001
0000
0010
0000
,
0001
0000
0100
0000
0010
0000
1000
0000
0010
0100
0000
0010
0000
1000
0010
0100
,
0001
0100
0010
0100
0001
0100
0010
0100
0010
1000
0100
1000
0010
1000
0100
1000
,
0001
0000
1001
0000
0000
0110
0000
0000
2002
0000
0000
0000
3003
0000
0000
0000
;

//---------------dance-single - ----------------
#NOTEDATA:;
#CHARTNAME:;
#STEPSTYPE:dance-single;
#DESCRIPTION:;
#CHARTSTYLE:;
#DIFFICULTY:Medium;
#METER:12;
#RADARVALUES:0.469347,0.567483,0.448013,0.175691,0.017569,374.000000,323.000000,51.000000,20.000000,0.000000,0.000000,0.000000,0.000000,0.000000,0.469347,0.567483,0.448013,0.175691,0.017569,374.000000,323.000000,51.000000,20.000000,0.000000,0.000000,0.000000,0.000000,0.000000;
#CREDIT:;
#DISPLAYBPM:170.000000;
#NOTES:
0000
0000
0000
0000
,
0000
0000
0000
0000
,
0000
0000
0000
0000
,
0000
0000
0000
0000
,
0000
0000
0000
0000
,
0001
0001
0001
0101
,
1000
1000
1000
1100
,
0001
0101
1000
1100
,
0101
1100
0101
1100
,
1000
0000
0100
0000
1000
0010
0100
0000
,
0001
0000
0100
0000
0010
0100
0001
0100
,
0010
0000
1000
0000
0100
1000
0100
0000
,
1000
0000
0010
0000
0100
0001
0100
0001
,
0100
0000
0010
0000
1000
0100
1000
0000
,
0010
0000
0100
0000
0001
0010
0001
0100
,
0001
0000
1000
0000
0100
1000
0010
0000
,
1001
0110
2002
3003
,
1000
0100
0001
0010
,
1000
0001
0100
0010
,
1000
0100
0001
0010
,
1000
1000
0001
0001
,
1000
0100
0001
0010
,
1000
0010
0100
0001
,
1000
0100
0001
0010
,
0000
0000
1000
0000
0000
1000
0000
0000
2000
0000
0000
0000
3000
0000
0000
0000
,
1000
1000
0001
0001
,
0100
0100
0010
0010
,
1000
0100
0100
1000
,
0010
0100
0100
0001
,
0010
0001
0100
0001
,
0010
0001
0100
0001
,
1000
1000
0010
0010
,
0100
0100
0001
0001
,
1001
0100
0010
0100
,
0001
1000
0010
1000
,
0100
1000
0010
0100
,
0001
0100
0010
1000
,
0110
1000
0001
0100
,
0010
0010
1000
1000
,
0001
0001
0100
0100
,
1000
0001
1000
0001
0200
0000
0300
0000
,
1001
1001
1001
0000
,
1000
0100
1000
0100
,
1001
1001
1001
0000
,
0001
0100
0001
0100
,
1001
1001
1001
0000
,
1000
0010
0100
0001
,
1001
1001
0110
0110
,
0000
0000
1001
0000
0000
0110
0000
0000
2002
0000
0000
0000
3003
0000
0000
0000
,
2000
0010
0010
3010
,
0020
0100
0100
0130
,
0200
0001
0001
0301
,
0002
0010
0010
0013
,
0020
0001
0001
0031
,
0002
1000
1000
1003
,
2000
0010
0010
3010
,
0020
0100
0100
0130
,
1000
0000
0100
0000
1000
0010
0100
0000
,
0001
0000
0100
0000
0010
0100
0001
0100
,
0010
0000
1000
0000
0100
1000
0100
0000
,
1000
0000
0010
0000
0100
0001
0100
0001
,
0100
0000
0010
0000
1000
0100
1000
0000
,
0010
0000
0100
0000
0001
0010
0001
0100
,
0001
0000
1000
0000
0100
1000
0010
0000
,
1001
0110
2002
3003
,
1001
1001
1001
0000
,
1000
0100
1000
0100
,
1001
1001
1001
0000
,
0001
0100
0001
0100
,
1001
1001
1001
0000
,
1000
0010
0100
0001
,
1001
1001
0110
0110
,
0000
0000
1001
0000
0000
0110
0000
0000
2002
0000
0000
0000
3003
0000
0000
0000
,
1000
0000
0100
0000
1000
0010
0100
0000
,
0001
0000
0100
0000
0010
0100
0001
0100
,
0010
0000
1000
0000
0100
1000
0100
0000
,
1000
0000
0010
0000
0100
0001
0100
0001
,
0100
0000
0010
0000
1000
0100
1000
0000
,
0010
0000
0100
0000
0001
0010
0001
0100
,
0001
0000
1000
0000
0100
1000
0010
0000
,
0000
0000
1001
0000
0000
0110
0000
0000
2002
0000
0000
0000
3003
0000
0000
0000
;

//---------------dance-single - ----------------
#NOTEDATA:;
#CHARTNAME:;
#STEPSTYPE:dance-single;
#DESCRIPTION:;
#CHARTSTYLE:;
#DIFFICULTY:Easy;
#METER:8;
#RADARVALUES:0.371462,0.425612,0.360167,0.219614,0.008785,296.000000,255.000000,41.000000,25.000000,0.000000,0.000000,0.000000,0.000000,0.000000,0.371462,0.425612,0.360167,0.219614,0.008785,296.000000,255.000000,41.000000,25.000000,0.000000,0.000000,0.000000,0.000000,0.000000;
#CREDIT:;
#DISPLAYBPM:170.000000;
#NOTES:
0000
0000
0000
0000
,
0000
0000
0000
0000
,
0000
0000
0000
0000
,
0000
0000
0000
0000
,
0000
0000
0000
0000
,
1000
1000
1000
0000
,
1000
1000
1000
0000
,
0010
0100
0010
0100
,
0001
0001
0001
0001
,
1001
0100
0100
0010
,
0100
0001
0100
0010
,
1001
1000
0100
1000
,
0010
0100
0001
0100
,
1001
1000
0010
0100
,
0001
0001
1000
1000
,
1001
0100
1000
0010
,
0001
0100
1000
0010
,
1001
1001
1001
0000
,
0100
0001
0100
0001
,
1001
1001
1001
0000
,
0100
1000
0100
1000
,
1001
1001
1001
0000
,
0100
0001
0100
0001
,
2000
3100
0002
0103
,
2000
3100
0002
0013
,
1001
1000
0000
1000
,
0000
0001
0000
0001
,
0100
0010
0000
0010
,
0000
1000
0000
1000
,
0001
0100
0000
0100
,
0000
0010
0000
0010
,
1000
0100
0000
0100
,
0000
1000
0000
1000
,
0001
0010
0000
0010
,
0000
0001
0000
0001
,
0100
0010
0000
0010
,
0000
1000
0000
1000
,
0010
0100
0000
0100
,
0000
0001
0000
0001
,
1000
0001
1000
0001
,
2002
0000
3003
0000
,
1000
1001
1000
1000
,
0001
1001
0001
0001
,
0100
0110
0100
0100
,
0010
0110
0010
0010
,
1000
1001
1000
1000
,
0001
1001
0001
0001
,
0100
0110
0010
0110
,
0000
0000
0100
0000
0000
0100
0000
0000
0200
0000
0000
0000
0300
0000
0000
0000
,
0002
0000
0203
0000
,
0320
0000
2030
0000
,
3200
0000
0320
0000
,
0032
0000
0023
0000
,
0230
0000
2300
0000
,
3020
0000
0230
0000
,
0302
0000
0203
0000
,
0320
0000
0000
0030
,
1001
0100
0100
0010
,
0100
0001
0100
0010
,
1001
1000
0100
1000
,
0010
0100
0001
0100
,
1001
1000
0010
0100
,
0001
0001
1000
1000
,
1001
0100
1000
0010
,
1000
0001
0100
0010
,
1001
1001
1000
1000
,
0001
1001
0001
0001
,
0100
0110
0100
0100
,
0010
0110
0010
0010
,
1000
1001
1000
1000
,
0001
1001
0001
0001
,
0100
0110
0010
0110
,
0000
0000
0100
0000
0000
0100
0000
0000
0200
0000
0000
0000
0300
0000
0000
0000
,
1001
0100
0100
0010
,
0100
0001
0100
0010
,
1001
1000
0100
1000
,
0010
0100
0001
0100
,
1001
1000
0010
0100
,
0001
0001
1000
1000
,
1001
0100
1000
0010
,
1000
0001
2002
3003
;

//---------------dance-single - ----------------
#NOTEDATA:;
#CHARTNAME:;
#STEPSTYPE:dance-single;
#DESCRIPTION:;
#CHARTSTYLE:;
#DIFFICULTY:Beginner;
#METER:4;
#RADARVALUES:0.220869,0.282863,0.131769,0.052707,0.000000,176.000000,161.000000,15.000000,6.000000,0.000000,0.000000,0.000000,0.000000,0.000000,0.220869,0.282863,0.131769,0.052707,0.000000,176.000000,161.000000,15.000000,6.000000,0.000000,0.000000,0.000000,0.000000,0.000000;
#CREDIT:;
#DISPLAYBPM:170.000000;
#NOTES:
0000
0000
0000
0000
,
0000
0000
0000
0000
,
0000
0000
0000
0000
,
0000
0000
0000
0000
,
0000
0000
0000
0000
,
2000
0000
3000
0000
,
1000
0000
0000
0000
,
0002
0000
0003
0000
,
0001
0001
0001
0001
,
0001
0000
0100
0000
,
0001
0000
0100
0000
,
0010
0000
1000
0000
,
0010
0000
1000
0000
,
0001
0000
0100
0000
,
0001
0000
0100
0000
,
0010
0000
1000
0000
,
0010
0000
1000
0000
,
1001
0000
0000
0000
,
0100
0000
0100
0000
,
1001
0000
0000
0000
,
0010
0000
0010
0000
,
1001
0000
0000
0000
,
0100
0000
0100
0000
,
1001
0000
0000
0000
,
0010
0010
0010
0000
,
0010
0010
0000
0000
,
0100
0100
0000
0000
,
0001
0001
0000
0000
,
1000
1000
0000
0000
,
0010
0010
0000
0000
,
0100
0100
0000
0000
,
0001
0001
0001
0000
,
1000
1000
1000
0000
,
0010
0010
0000
0000
,
0100
0100
0000
0000
,
0001
0001
0000
0000
,
1000
1000
0000
0000
,
0010
0010
0000
0000
,
0100
0100
0000
0000
,
0001
0001
0001
0000
,
1000
1000
1000
0000
,
1001
0000
1000
0000
,
1000
0000
1000
0000
,
1001
0000
0001
0000
,
0001
0000
0001
0000
,
0110
0000
0100
0000
,
0110
0000
0010
0000
,
0110
0000
0000
0000
,
0220
0000
0330
0000
,
1001
0000
0000
0000
,
1000
0000
0000
0000
,
1000
0000
0000
0000
,
0001
0000
0000
0000
,
0001
0000
0001
0000
,
1000
0000
1000
0000
,
0010
0000
0010
0000
,
0100
0000
0100
0000
,
1000
1000
1000
0000
,
1000
1000
1000
0000
,
0001
0001
0001
0000
,
0001
0001
0001
0000
,
0100
0100
0100
0000
,
0100
0100
0100
0000
,
0010
0010
0010
0000
,
0010
0010
0010
0000
,
1001
0000
0010
0000
,
0100
0000
0100
0000
,
1001
0000
0100
0000
,
0010
0000
0010
0000
,
1001
0000
0001
0000
,
1000
0000
0001
0000
,
1000
0000
0001
0000
,
2002
0000
3003
0000
,
1000
1000
1000
0000
,
0010
0010
0010
0000
,
0100
0100
0100
0000
,
0001
0001
0001
0000
,
1000
1000
1000
0000
,
0010
0010
0010
0000
,
0100
0100
0100
0000
,
0001
0001
0001
0000
;
