#VERSION:0.83;
#TITLE:JAMES BROWN IS STILL ALIVE!!;
#SUBTITLE:;
#ARTIST:Holy Noise;
#TITLETRANSLIT:;
#SUBTITLETRANSLIT:;
#ARTISTTRANSLIT:;
#GENRE:;
#ORIGIN:;
#CREDIT:;
#BANNER:;
#BACKGROUND:;
#PREVIEWVID:;
#JACKET:James Brown Is Still Alive!-jacket.jpg;
#CDIMAGE:;
#DISCIMAGE:;
#LYRICSPATH:;
#CDTITLE:;
#MUSIC:James Brown Is Still Alive!.ogg;
#OFFSET:-0.053000;
#SAMPLESTART:63.353001;
#SAMPLELENGTH:17.031000;
#SELECTABLE:YES;
#BPMS:0.000=132.701;
#STOPS:;
#DELAYS:;
#WARPS:;
#TIMESIGNATURES:0.000=4=4;
#TICKCOUNTS:0.000=4;
#COMBOS:0.000=1;
#SPEEDS:0.000=1.000=0.000=0;
#SCROLLS:0.000=1.000;
#FAKES:;
#LABELS:0.000=Song Start;
#BGCHANGES:;
#KEYSOUNDS:;
#ATTACKS:
;

//---------------dance-single - Nifara----------------
#NOTEDATA:;
#CHARTNAME:Nifara;
#STEPSTYPE:dance-single;
#DESCRIPTION:Nifara;
#CHARTSTYLE:;
#DIFFICULTY:Hard;
#METER:14;
#RADARVALUES:0.580093,0.624474,0.457281,0.091456,0.397834,444.000000,394.000000,50.000000,10.000000,0.000000,0.000000,0.000000,0.000000,0.000000,0.580093,0.624474,0.457281,0.091456,0.397834,444.000000,394.000000,50.000000,10.000000,0.000000,0.000000,0.000000,0.000000,0.000000;
#CREDIT:Nifara;
#NOTES:
0000
0000
0000
0000
,
1010
0000
1000
0100
0010
1000
0100
0001
,
1001
0000
0001
0010
1000
0100
0010
1000
,
1001
0000
1000
0100
0001
1000
0010
0001
,
1001
0000
0000
0000
1000
0000
0010
0000
1000
0000
1000
0010
1000
0000
0000
0000
,
1010
0000
0001
0100
1000
0010
1000
0100
,
1100
0000
0100
0001
1000
0010
0001
0100
,
0101
0000
1000
0001
0100
0001
1000
0100
,
0110
0000
0000
0110
0000
0000
0110
0000
0000
0110
0000
0000
0110
0000
1001
0000
,
0110
0000
0010
0100
0000
0100
0010
0000
0100
0000
0000
0001
0000
0000
0100
0000
,
0101
0000
0100
0001
0000
0001
0100
0000
0100
0000
0000
0010
0000
0000
1000
0000
,
1001
0000
1000
0001
0000
0001
1000
0000
0100
0000
0000
1000
0000
0000
0010
0000
,
1010
0000
0010
1000
0000
1000
0010
0000
0010
0000
0000
0100
0000
0000
0010
0000
,
0110
0000
0100
0010
0000
0010
0100
0000
0010
0000
0000
0001
0000
0000
1000
0000
,
1001
0000
1000
0010
0000
0010
1000
0000
0010
0000
0000
0100
0000
0000
1000
0000
,
1001
0000
1000
0001
0000
0001
1000
0000
0100
0000
0000
0001
0000
0000
0100
0000
,
0101
0000
0100
0001
0000
0001
0100
0000
0001
0000
0000
0100
0000
0000
0001
0000
,
0100
0000
0001
0000
0100
0001
0000
0001
0100
0000
0001
0000
0100
0000
0001
0000
,
0010
0000
0100
0000
1000
0001
0000
0001
0010
0000
0100
0000
0010
0000
0100
0000
,
1000
0000
0010
0000
0100
0010
0000
1000
0010
0000
0100
0000
0010
0000
1000
0000
,
0010
0000
0100
0000
0010
1000
0000
1000
0010
0000
0010
0000
1000
0000
0010
0000
,
0100
0000
0001
0000
1000
0001
0000
0000
0100
0000
0010
0000
1000
0001
0000
0000
,
0100
0000
0010
0000
0100
0001
0000
0000
0100
0000
0010
0000
0100
0010
0000
0000
,
1000
0000
0100
0000
1000
0100
0000
0000
0100
0000
0010
0000
0100
0010
0000
0000
,
0010
0000
0001
0000
0100
0000
0001
0000
0010
0000
0001
0000
1000
0010
0000
0000
,
0100
0000
0001
0000
1000
0010
0000
0000
0100
0000
0001
0000
1000
0010
0000
0000
,
0100
0000
0001
0000
0100
0001
0000
0000
1000
0000
0100
0000
1000
0100
0000
0000
,
1000
0000
0010
0000
0100
0001
0000
0000
1000
0000
0001
0000
1000
0001
0000
0000
,
0100
0000
0010
0000
0100
0010
0000
0000
1000
0000
0001
0000
1000
0001
0000
0000
,
2002
0000
0000
0000
0000
3003
0000
0000
,
0022
0000
0000
0033
,
1010
0000
0000
1000
0010
0000
0100
0000
0001
0000
0000
1000
0100
0000
0010
0000
,
1010
0000
0000
1000
0001
0000
0001
0000
1001
0000
0000
0100
0010
0000
0010
0000
,
0110
0000
0000
1000
0010
0000
0100
0000
1010
0000
0000
1000
0001
0000
0001
0000
,
1001
0000
0000
1000
0100
0000
0100
0000
1100
0000
0000
0100
0010
0000
0010
0000
,
0110
0000
0000
0000
0000
1000
0000
0000
0001
0000
0000
1000
0000
0000
0100
0000
,
0000
0010
0000
0000
1000
0000
0000
0001
0000
0000
0000
0000
0100
0000
0000
0001
,
0000
0000
1000
0000
0000
0010
0000
0000
0100
0000
0000
0001
0000
0000
1000
0000
,
0000
0000
0000
0000
0000
0000
0000
0000
0000
0000
0000
0000
0000
0000
0000
0000
0000
0000
0000
0000
0000
0000
1000
0000
0000
0000
0000
0000
0000
0000
0000
0000
0000
0000
0000
0000
0000
0000
0000
0000
0000
0000
0000
0000
0000
0000
0000
0000
0000
0000
0000
0000
0000
0000
0000
0000
0000
0000
1000
0000
0000
0000
0000
0000
0000
0000
0000
0000
0000
0000
0000
0000
0000
0000
0000
0000
0000
0000
0000
0000
0000
0000
0000
0000
0000
0000
0100
0000
0000
0000
0000
0000
0000
0000
0000
0000
0000
0000
0000
0000
0000
0000
0000
0000
0000
0000
0000
0000
0000
0000
0000
0000
0000
0000
0000
1000
0000
0000
0000
0000
0000
0000
0000
0000
0000
0000
0000
0000
0000
0000
0000
0000
0000
0000
0000
0000
0000
0000
0000
0000
0000
0000
0000
0000
0001
0000
0000
0000
0000
0000
0000
0000
0000
0000
0000
0000
0000
0000
0000
0000
0000
0000
0000
0000
0000
0000
0000
0000
0000
0000
0000
0000
0000
1000
0000
0000
0000
0000
0000
0000
0000
0000
0000
0000
0000
0000
0000
0000
0000
0000
0000
0000
,
0000
0000
0000
0000
0000
0000
0000
0000
0000
0000
1010
0000
0000
0000
0000
0000
0000
0000
0000
0000
0000
0000
0000
0000
0000
0000
0000
0000
0000
0000
0000
0000
0000
0000
0000
0000
0000
0000
0000
0000
0000
0000
0000
0000
0000
0000
0000
0000
0000
0000
0000
0000
0000
0000
0000
0000
0000
0000
1000
0000
0000
0000
0000
0000
0000
0000
0000
0000
0000
0000
0000
0000
0000
0000
0000
0000
0000
0000
0000
0000
0000
0000
0000
0000
0000
0000
0000
0000
0000
0000
0000
0000
0000
0000
0010
0000
0000
0000
0000
0000
0000
0000
0000
0000
0000
0000
0000
0000
0000
0000
0000
0000
0000
0000
0000
0000
0000
0000
0000
0000
0000
0000
0001
0000
0000
0000
0000
0000
0000
0000
0000
0000
0000
0000
0000
0000
0000
0000
0000
0000
0000
0000
0000
0000
0000
0000
0000
0000
0000
0000
0000
1000
0000
0000
0000
0000
0000
0000
0000
0000
0000
0000
0000
0000
0000
0000
0000
0000
0000
0000
0000
0000
0000
0000
0000
0000
0000
0000
0000
0000
1001
0000
0000
0000
0000
0000
0000
0000
0000
0000
0000
0000
,
0000
0000
0000
0000
0000
0000
0000
0000
0000
0000
0000
0000
0000
0000
0000
0000
0000
0000
0000
0000
0000
0000
0000
0000
0000
0000
0000
0000
0000
0000
0000
0000
0000
0000
0000
0000
0000
0000
1100
0000
0000
0000
0000
0000
0000
0000
0000
0000
0000
0000
0000
0000
0000
0000
0000
0000
0000
0000
0000
0000
0000
0000
0000
0000
0000
0000
0000
0000
0000
0000
0000
0000
0000
0000
0000
0000
0000
0000
0000
0000
0000
0000
0000
0000
0000
0000
0000
0000
0000
0000
0000
0000
0000
0000
0000
0000
2200
0000
0000
0000
0000
0000
0000
0000
0000
0000
0000
0000
0000
0000
0000
0000
0000
0000
0000
0000
0000
0000
0000
0000
0000
0000
0000
0000
0000
0000
0000
0000
0000
0000
0000
0000
0000
0000
0000
0000
0000
0000
0000
0000
0000
0000
0000
0000
0000
0000
0000
0000
0000
0000
0000
0000
0000
0000
0000
0000
0000
0000
0000
0000
0000
0000
0000
0000
0000
0000
0000
0000
0000
0000
0000
0000
0000
0000
0000
0000
0000
0000
0000
0000
0000
0000
0000
0000
0000
0000
0000
0000
0000
0000
0000
0000
,
0000
0000
0000
0000
0000
0000
0000
0000
0000
0000
0000
0000
0000
0000
0000
0000
0000
0000
0000
0000
0000
0000
0000
0000
0000
0000
0000
0000
0000
0000
0000
0000
0000
0000
0000
0000
0000
0000
0000
0000
0000
0000
0000
0000
0000
0000
0000
0000
0000
0000
0000
0000
0000
0000
0000
0000
0000
0000
0000
0000
0000
0000
0000
0000
0000
0000
0000
0000
0000
0000
0000
0000
0000
0000
0000
0000
0000
0000
0000
0000
0000
0000
0000
0000
0000
0000
3300
0000
0000
0000
0000
0000
0000
0000
0000
0000
0000
0000
0000
0000
0000
0000
0000
0000
0000
0000
0000
0000
0000
0000
0000
0000
0000
0000
0000
0022
0000
0000
0000
0000
0000
0000
0000
0000
0000
0000
0000
0000
0000
0000
0000
0000
0000
0000
0000
0000
0000
0000
0000
0000
0000
0000
0000
0000
0000
0000
0000
0000
0000
0000
0000
0000
0000
0000
0000
0000
0000
0000
0000
0000
0000
0000
0000
0000
0000
0000
0000
0000
0000
0000
0000
0000
0000
0000
0000
0000
0000
0000
0000
0000
0000
0000
0000
0000
0000
0000
0000
0000
0000
0000
0000
0000
,
0000
0000
0000
0000
0000
0000
0000
0000
0000
0000
0000
0000
0000
0000
0000
0000
0000
0000
0000
0000
0000
0000
0000
0000
0000
0000
0000
0000
0000
0000
0000
0000
0000
0000
0000
0000
0000
0000
0000
0000
0000
0000
0000
0000
0000
0000
0000
0000
0000
0000
0000
0000
0000
0000
0000
0000
0000
0000
0000
0000
0000
0000
0000
0000
0000
0000
0000
0000
0000
0000
0000
0000
0000
0000
0000
0000
0000
0000
0000
0000
0000
0000
0000
0000
0000
0000
0030
0000
0000
0000
0000
0000
0000
0000
0000
0000
0003
0000
0000
0000
0000
0000
0000
0000
0000
0000
0000
0000
0000
0000
0000
0000
0000
0000
0000
0000
0000
0000
0000
0000
0000
0000
0000
0000
0000
0000
0000
0000
0000
0000
0000
0000
0000
0000
2002
0000
0000
0000
0000
0000
0000
0000
0000
0000
0000
0000
0000
0000
0000
0000
0000
0000
0000
0000
0000
0000
0000
0000
0000
0000
0000
0000
0000
0000
0000
0000
0000
0000
0000
0000
0000
0000
0000
0000
0000
0000
0000
0000
0000
0000
0000
0000
0000
0000
0000
0000
0000
0000
0000
0000
0000
0000
,
0000
0000
0000
0000
,
0000
0000
3003
0000
1001
0000
0100
0001
,
1000
0010
0100
0001
0101
0000
0100
0010
,
1000
0010
0100
0001
0101
0000
1000
0010
,
0100
0001
1000
0010
0101
0000
0100
0010
,
1000
0000
1000
0010
1000
0000
0000
0000
0101
0000
0000
0000
0100
0000
0010
0000
,
1000
0010
0100
0001
0101
0000
0010
0001
,
1000
0010
0100
0001
1001
0000
0100
0010
,
1000
0001
1000
0010
1010
0000
0010
1000
,
0010
0000
1000
0010
1000
0000
0000
0000
1010
0000
0000
0000
1000
0000
0100
0000
,
0001
0000
1000
0000
0010
0000
0001
0100
0101
0000
0000
0000
1000
0000
0001
0000
,
1000
0000
0010
0000
0100
0000
0001
0100
0101
0000
0000
0000
0100
0000
0010
0000
,
1000
0000
0001
0000
0100
0000
0001
0100
0101
0000
0000
0000
1000
0000
0010
0000
,
0100
0000
0001
0100
1000
0000
0000
0000
1001
0000
0000
0000
0100
0000
0010
0000
,
1000
0000
0001
0000
0100
0000
0001
0100
0001
0000
0000
0000
1000
0000
0010
0000
,
0100
0000
0010
0000
1000
0000
0001
0100
0001
0000
0000
0000
1000
0000
0001
0000
,
0100
0001
0100
0010
0000
0000
0000
0000
;

//---------------dance-single - Nifara----------------
#NOTEDATA:;
#CHARTNAME:;
#STEPSTYPE:dance-single;
#DESCRIPTION:Nifara;
#CHARTSTYLE:;
#DIFFICULTY:Medium;
#METER:11;
#RADARVALUES:0.422005,0.406408,0.329242,0.137184,0.178340,323.000000,287.000000,36.000000,15.000000,0.000000,0.000000,0.000000,0.000000,0.000000,0.422005,0.406408,0.329242,0.137184,0.178340,323.000000,287.000000,36.000000,15.000000,0.000000,0.000000,0.000000,0.000000,0.000000;
#CREDIT:;
#NOTES:
0000
0000
0000
0000
,
1010
0000
1000
0100
0010
0000
0100
0000
,
1001
0000
0001
0010
1000
0000
0010
0000
,
1001
0000
1000
0100
0001
0000
0010
0000
,
1001
0000
1000
0010
1000
0000
1000
0000
,
1010
0000
0001
0100
1000
0000
1000
0000
,
1100
0000
0100
0001
1000
0000
0001
0000
,
0101
0000
1000
0001
0100
0000
1000
0000
,
0210
0000
0000
0320
0000
0000
0230
0000
0000
0320
0000
0000
0230
0000
0000
0000
,
0310
0000
0010
0000
0000
0100
0000
0000
0100
0000
0000
0001
0000
0000
0100
0000
,
0100
0000
0100
0000
0000
0001
0000
0000
0100
0000
0000
0010
0000
0000
1000
0000
,
1000
0000
1000
0000
0000
0001
0000
0000
1000
0000
0000
1000
0000
0000
0010
0000
,
0010
0000
0010
0000
0000
1000
0000
0000
0010
0000
0000
0100
0000
0000
0010
0000
,
0010
0000
0100
0000
0000
0010
0000
0000
1000
0000
0000
0001
0000
0000
1000
0000
,
1000
0000
1000
0000
0000
0010
0000
0000
1000
0000
0000
0100
0000
0000
1000
0000
,
1000
0000
1000
0000
0000
0001
0000
0000
0100
0000
0000
0001
0000
0000
0100
0000
,
0100
0000
0100
0000
0000
0001
0000
0000
0001
0000
0000
0100
0000
0000
0001
0000
,
0100
0001
0100
0000
0100
0001
0100
0001
,
0010
0100
1000
0000
0010
0100
0010
0100
,
1000
0010
0100
0000
0010
0100
0010
1000
,
0010
0100
0010
0000
0010
0010
1000
0010
,
0100
0001
1000
0000
0100
0010
1000
0000
,
0100
0010
0100
0000
0100
0010
0100
0000
,
1000
0100
1000
0000
0100
0010
0100
0000
,
0010
0001
0100
0001
0010
0001
1000
0000
,
0100
0001
1000
0000
0100
0001
1000
0000
,
0100
0001
0100
0000
1000
0100
1000
0000
,
1000
0010
0100
0000
1000
0001
1000
0000
,
0100
0010
0100
0000
1000
0001
1000
0000
,
2002
0000
0000
0000
0000
3003
0000
0000
,
0022
0000
0000
0033
,
1010
0100
0100
0100
,
1010
0001
1001
0010
,
0110
0010
1010
0001
,
1001
0100
1100
0001
,
0110
0000
0000
0000
0000
1000
0000
0000
0001
0000
0000
1000
0000
0000
0100
0000
,
0000
0010
0000
0000
1000
0000
0000
0001
0000
0000
0000
0000
0100
0000
0000
0001
,
0000
0000
1000
0000
0000
0010
0000
0000
0100
0000
0000
0001
0000
0000
1000
0000
,
0000
0000
0000
0000
0000
0000
0000
0000
0000
0000
0000
0000
0000
0000
0000
0000
0000
0000
0000
0000
0000
0000
1000
0000
0000
0000
0000
0000
0000
0000
0000
0000
0000
0000
0000
0000
0000
0000
0000
0000
0000
0000
0000
0000
0000
0000
0000
0000
0000
0000
0000
0000
0000
0000
0000
0000
0000
0000
1000
0000
0000
0000
0000
0000
0000
0000
0000
0000
0000
0000
0000
0000
0000
0000
0000
0000
0000
0000
0000
0000
0000
0000
0000
0000
0000
0000
0100
0000
0000
0000
0000
0000
0000
0000
0000
0000
0000
0000
0000
0000
0000
0000
0000
0000
0000
0000
0000
0000
0000
0000
0000
0000
0000
0000
0000
1000
0000
0000
0000
0000
0000
0000
0000
0000
0000
0000
0000
0000
0000
0000
0000
0000
0000
0000
0000
0000
0000
0000
0000
0000
0000
0000
0000
0000
0001
0000
0000
0000
0000
0000
0000
0000
0000
0000
0000
0000
0000
0000
0000
0000
0000
0000
0000
0000
0000
0000
0000
0000
0000
0000
0000
0000
0000
1000
0000
0000
0000
0000
0000
0000
0000
0000
0000
0000
0000
0000
0000
0000
0000
0000
0000
0000
,
0000
0000
0000
0000
0000
0000
0000
0000
0000
0000
1010
0000
0000
0000
0000
0000
0000
0000
0000
0000
0000
0000
0000
0000
0000
0000
0000
0000
0000
0000
0000
0000
0000
0000
0000
0000
0000
0000
0000
0000
0000
0000
0000
0000
0000
0000
0000
0000
0000
0000
0000
0000
0000
0000
0000
0000
0000
0000
1000
0000
0000
0000
0000
0000
0000
0000
0000
0000
0000
0000
0000
0000
0000
0000
0000
0000
0000
0000
0000
0000
0000
0000
0000
0000
0000
0000
0000
0000
0000
0000
0000
0000
0000
0000
0010
0000
0000
0000
0000
0000
0000
0000
0000
0000
0000
0000
0000
0000
0000
0000
0000
0000
0000
0000
0000
0000
0000
0000
0000
0000
0000
0000
0001
0000
0000
0000
0000
0000
0000
0000
0000
0000
0000
0000
0000
0000
0000
0000
0000
0000
0000
0000
0000
0000
0000
0000
0000
0000
0000
0000
0000
1000
0000
0000
0000
0000
0000
0000
0000
0000
0000
0000
0000
0000
0000
0000
0000
0000
0000
0000
0000
0000
0000
0000
0000
0000
0000
0000
0000
0000
1001
0000
0000
0000
0000
0000
0000
0000
0000
0000
0000
0000
,
0000
0000
0000
0000
0000
0000
0000
0000
0000
0000
0000
0000
0000
0000
0000
0000
0000
0000
0000
0000
0000
0000
0000
0000
0000
0000
0000
0000
0000
0000
0000
0000
0000
0000
0000
0000
0000
0000
1100
0000
0000
0000
0000
0000
0000
0000
0000
0000
0000
0000
0000
0000
0000
0000
0000
0000
0000
0000
0000
0000
0000
0000
0000
0000
0000
0000
0000
0000
0000
0000
0000
0000
0000
0000
0000
0000
0000
0000
0000
0000
0000
0000
0000
0000
0000
0000
0000
0000
0000
0000
0000
0000
0000
0000
0000
0000
2200
0000
0000
0000
0000
0000
0000
0000
0000
0000
0000
0000
0000
0000
0000
0000
0000
0000
0000
0000
0000
0000
0000
0000
0000
0000
0000
0000
0000
0000
0000
0000
0000
0000
0000
0000
0000
0000
0000
0000
0000
0000
0000
0000
0000
0000
0000
0000
0000
0000
0000
0000
0000
0000
0000
0000
0000
0000
0000
0000
0000
0000
0000
0000
0000
0000
0000
0000
0000
0000
0000
0000
0000
0000
0000
0000
0000
0000
0000
0000
0000
0000
0000
0000
0000
0000
0000
0000
0000
0000
0000
0000
0000
0000
0000
0000
,
0000
0000
0000
0000
0000
0000
0000
0000
0000
0000
0000
0000
0000
0000
0000
0000
0000
0000
0000
0000
0000
0000
0000
0000
0000
0000
0000
0000
0000
0000
0000
0000
0000
0000
0000
0000
0000
0000
0000
0000
0000
0000
0000
0000
0000
0000
0000
0000
0000
0000
0000
0000
0000
0000
0000
0000
0000
0000
0000
0000
0000
0000
0000
0000
0000
0000
0000
0000
0000
0000
0000
0000
0000
0000
0000
0000
0000
0000
0000
0000
0000
0000
0000
0000
0000
0000
3300
0000
0000
0000
0000
0000
0000
0000
0000
0000
0000
0000
0000
0000
0000
0000
0000
0000
0000
0000
0000
0000
0000
0000
0000
0000
0000
0000
0000
0022
0000
0000
0000
0000
0000
0000
0000
0000
0000
0000
0000
0000
0000
0000
0000
0000
0000
0000
0000
0000
0000
0000
0000
0000
0000
0000
0000
0000
0000
0000
0000
0000
0000
0000
0000
0000
0000
0000
0000
0000
0000
0000
0000
0000
0000
0000
0000
0000
0000
0000
0000
0000
0000
0000
0000
0000
0000
0000
0000
0000
0000
0000
0000
0000
0000
0000
0000
0000
0000
0000
0000
0000
0000
0000
0000
0000
,
0000
0000
0000
0000
0000
0000
0000
0000
0000
0000
0000
0000
0000
0000
0000
0000
0000
0000
0000
0000
0000
0000
0000
0000
0000
0000
0000
0000
0000
0000
0000
0000
0000
0000
0000
0000
0000
0000
0000
0000
0000
0000
0000
0000
0000
0000
0000
0000
0000
0000
0000
0000
0000
0000
0000
0000
0000
0000
0000
0000
0000
0000
0000
0000
0000
0000
0000
0000
0000
0000
0000
0000
0000
0000
0000
0000
0000
0000
0000
0000
0000
0000
0000
0000
0000
0000
0030
0000
0000
0000
0000
0000
0000
0000
0000
0000
0003
0000
0000
0000
0000
0000
0000
0000
0000
0000
0000
0000
0000
0000
0000
0000
0000
0000
0000
0000
0000
0000
0000
0000
0000
0000
0000
0000
0000
0000
0000
0000
0000
0000
0000
0000
0000
0000
2002
0000
0000
0000
0000
0000
0000
0000
0000
0000
0000
0000
0000
0000
0000
0000
0000
0000
0000
0000
0000
0000
0000
0000
0000
0000
0000
0000
0000
0000
0000
0000
0000
0000
0000
0000
0000
0000
0000
0000
0000
0000
0000
0000
0000
0000
0000
0000
0000
0000
0000
0000
0000
0000
0000
0000
0000
0000
,
0000
0000
0000
0000
,
0000
0000
3003
0000
1001
0000
0100
0001
,
1000
0000
0100
0000
0101
0000
0100
0010
,
1000
0000
0100
0000
0101
0000
1000
0010
,
0100
0000
1000
0000
0101
0000
0100
0010
,
1000
0000
1000
0000
0101
0000
0100
0010
,
1000
0000
0100
0000
0101
0000
0010
0001
,
1000
0000
0100
0000
1001
0000
0100
0010
,
1000
0000
1000
0000
1010
0000
0010
1000
,
0010
0000
1000
0000
1010
0000
1000
0100
,
0001
0000
0010
0000
1000
0000
1000
0001
,
1000
0000
0100
0000
0101
0000
0100
0010
,
1000
0000
0100
0000
0001
0000
1000
0010
,
0100
0000
1000
0000
1001
0000
0100
0010
,
1000
0100
0001
1000
,
0100
1000
0001
1000
,
0001
1001
0000
0000
;

//---------------dance-single - Nifara----------------
#NOTEDATA:;
#CHARTNAME:;
#STEPSTYPE:dance-single;
#DESCRIPTION:Nifara;
#CHARTSTYLE:;
#DIFFICULTY:Easy;
#METER:8;
#RADARVALUES:0.318790,0.379314,0.329242,0.118893,0.059447,244.000000,208.000000,36.000000,13.000000,0.000000,0.000000,0.000000,0.000000,0.000000,0.318790,0.379314,0.329242,0.118893,0.059447,244.000000,208.000000,36.000000,13.000000,0.000000,0.000000,0.000000,0.000000,0.000000;
#CREDIT:;
#NOTES:
// measure 0
0000
0000
0000
0000
,  // measure 1
1010
1000
0010
0100
,  // measure 2
1001
0001
1000
0010
,  // measure 3
1001
1000
0001
0010
,  // measure 4
1001
1000
1000
1000
,  // measure 5
1010
0001
1000
1000
,  // measure 6
1100
0100
1000
0001
,  // measure 7
0101
1000
0100
1000
,  // measure 8
2002
0000
3000
0203
,  // measure 9
0310
0100
0100
0001
,  // measure 10
0100
0001
0100
0010
,  // measure 11
1000
1000
1000
1000
,  // measure 12
0010
0010
0010
0100
,  // measure 13
0010
0100
1000
0001
,  // measure 14
1000
0010
1000
0100
,  // measure 15
1000
0001
0100
0001
,  // measure 16
0100
0001
0001
1000
,  // measure 17
0100
0100
0100
0100
,  // measure 18
0010
1000
0010
0010
,  // measure 19
1000
0100
0010
0010
,  // measure 20
0010
0010
0010
1000
,  // measure 21
0100
1000
0100
1000
,  // measure 22
0100
0100
0100
0100
,  // measure 23
1000
1000
0100
0100
,  // measure 24
0010
0010
0001
0001
,  // measure 25
0001
0001
0001
1000
,  // measure 26
0100
0100
1000
0001
,  // measure 27
1000
0100
1000
0001
,  // measure 28
0100
0010
1000
0001
,  // measure 29
2002
0000
0000
0000
0000
3003
0000
0000
,  // measure 30
0022
0000
0000
0033
,  // measure 31
1010
0100
0100
0100
,  // measure 32
1010
0001
1001
0010
,  // measure 33
0110
0010
1010
0001
,  // measure 34
1001
0100
1100
0001
,  // measure 35
0110
0000
0000
0000
0000
1000
0000
0000
0000
0000
0000
1000
0000
0000
0000
0000
,  // measure 36
0000
0010
0000
0000
0000
0000
0000
0001
0000
0000
0000
0000
0100
0000
0000
0000
,  // measure 37
0000
1000
0000
0000
0100
0000
0000
1000
,  // measure 38
0000
0000
0000
0000
0000
0000
0000
0000
0000
0000
0000
0000
0000
0000
0000
0000
0000
0000
0000
0000
0000
0000
1000
0000
0000
0000
0000
0000
0000
0000
0000
0000
0000
0000
0000
0000
0000
0000
0000
0000
0000
0000
0000
0000
0000
0000
0000
0000
0000
0000
0000
0000
0000
0000
0000
0000
0000
0000
0000
0000
0000
0000
0000
0000
0000
0000
0000
0000
0000
0000
0000
0000
0000
0000
0000
0000
0000
0000
0000
0000
0000
0000
0000
0000
0000
0000
0100
0000
0000
0000
0000
0000
0000
0000
0000
0000
0000
0000
0000
0000
0000
0000
0000
0000
0000
0000
0000
0000
0000
0000
0000
0000
0000
0000
0000
0000
0000
0000
0000
0000
0000
0000
0000
0000
0000
0000
0000
0000
0000
0000
0000
0000
0000
0000
0000
0000
0000
0000
0000
0000
0000
0000
0000
0000
0001
0000
0000
0000
0000
0000
0000
0000
0000
0000
0000
0000
0000
0000
0000
0000
0000
0000
0000
0000
0000
0000
0000
0000
0000
0000
0000
0000
0000
0000
0000
0000
0000
0000
0000
0000
0000
0000
0000
0000
0000
0000
0000
0000
0000
0000
0000
0000
,  // measure 39
0000
0000
0000
0000
0000
0000
0000
0000
0000
0000
1010
0000
0000
0000
0000
0000
0000
0000
0000
0000
0000
0000
0000
0000
0000
0000
0000
0000
0000
0000
0000
0000
0000
0000
0000
0000
0000
0000
0000
0000
0000
0000
0000
0000
0000
0000
0000
0000
0000
0000
0000
0000
0000
0000
0000
0000
0000
0000
1000
0000
0000
0000
0000
0000
0000
0000
0000
0000
0000
0000
0000
0000
0000
0000
0000
0000
0000
0000
0000
0000
0000
0000
0000
0000
0000
0000
0000
0000
0000
0000
0000
0000
0000
0000
0000
0000
0000
0000
0000
0000
0000
0000
0000
0000
0000
0000
0000
0000
0000
0000
0000
0000
0000
0000
0000
0000
0000
0000
0000
0000
0000
0000
0001
0000
0000
0000
0000
0000
0000
0000
0000
0000
0000
0000
0000
0000
0000
0000
0000
0000
0000
0000
0000
0000
0000
0000
0000
0000
0000
0000
0000
0000
0000
0000
0000
0000
0000
0000
0000
0000
0000
0000
0000
0000
0000
0000
0000
0000
0000
0000
0000
0000
0000
0000
0000
0000
0000
0000
0000
0000
1001
0000
0000
0000
0000
0000
0000
0000
0000
0000
0000
0000
,  // measure 40
0000
0000
0000
0000
0000
0000
0000
0000
0000
0000
0000
0000
0000
0000
0000
0000
0000
0000
0000
0000
0000
0000
0000
0000
0000
0000
0000
0000
0000
0000
0000
0000
0000
0000
0000
0000
0000
0000
1100
0000
0000
0000
0000
0000
0000
0000
0000
0000
0000
0000
0000
0000
0000
0000
0000
0000
0000
0000
0000
0000
0000
0000
0000
0000
0000
0000
0000
0000
0000
0000
0000
0000
0000
0000
0000
0000
0000
0000
0000
0000
0000
0000
0000
0000
0000
0000
0000
0000
0000
0000
0000
0000
0000
0000
0000
0000
2200
0000
0000
0000
0000
0000
0000
0000
0000
0000
0000
0000
0000
0000
0000
0000
0000
0000
0000
0000
0000
0000
0000
0000
0000
0000
0000
0000
0000
0000
0000
0000
0000
0000
0000
0000
0000
0000
0000
0000
0000
0000
0000
0000
0000
0000
0000
0000
0000
0000
0000
0000
0000
0000
0000
0000
0000
0000
0000
0000
0000
0000
0000
0000
0000
0000
0000
0000
0000
0000
0000
0000
0000
0000
0000
0000
0000
0000
0000
0000
0000
0000
0000
0000
0000
0000
0000
0000
0000
0000
0000
0000
0000
0000
0000
0000
,  // measure 41
0000
0000
0000
0000
0000
0000
0000
0000
0000
0000
0000
0000
0000
0000
0000
0000
0000
0000
0000
0000
0000
0000
0000
0000
0000
0000
0000
0000
0000
0000
0000
0000
0000
0000
0000
0000
0000
0000
0000
0000
0000
0000
0000
0000
0000
0000
0000
0000
0000
0000
0000
0000
0000
0000
0000
0000
0000
0000
0000
0000
0000
0000
0000
0000
0000
0000
0000
0000
0000
0000
0000
0000
0000
0000
0000
0000
0000
0000
0000
0000
0000
0000
0000
0000
0000
0000
3300
0000
0000
0000
0000
0000
0000
0000
0000
0000
0000
0000
0000
0000
0000
0000
0000
0000
0000
0000
0000
0000
0000
0000
0000
0000
0000
0000
0000
0022
0000
0000
0000
0000
0000
0000
0000
0000
0000
0000
0000
0000
0000
0000
0000
0000
0000
0000
0000
0000
0000
0000
0000
0000
0000
0000
0000
0000
0000
0000
0000
0000
0000
0000
0000
0000
0000
0000
0000
0000
0000
0000
0000
0000
0000
0000
0000
0000
0000
0000
0000
0000
0000
0000
0000
0000
0000
0000
0000
0000
0000
0000
0000
0000
0000
0000
0000
0000
0000
0000
0000
0000
0000
0000
0000
0000
,  // measure 42
0000
0000
0000
0000
0000
0000
0000
0000
0000
0000
0000
0000
0000
0000
0000
0000
0000
0000
0000
0000
0000
0000
0000
0000
0000
0000
0000
0000
0000
0000
0000
0000
0000
0000
0000
0000
0000
0000
0000
0000
0000
0000
0000
0000
0000
0000
0000
0000
0000
0000
0000
0000
0000
0000
0000
0000
0000
0000
0000
0000
0000
0000
0000
0000
0000
0000
0000
0000
0000
0000
0000
0000
0000
0000
0000
0000
0000
0000
0000
0000
0000
0000
0000
0000
0000
0000
0030
0000
0000
0000
0000
0000
0000
0000
0000
0000
0003
0000
0000
0000
0000
0000
0000
0000
0000
0000
0000
0000
0000
0000
0000
0000
0000
0000
0000
0000
0000
0000
0000
0000
0000
0000
0000
0000
0000
0000
0000
0000
0000
0000
0000
0000
0000
0000
2002
0000
0000
0000
0000
0000
0000
0000
0000
0000
0000
0000
0000
0000
0000
0000
0000
0000
0000
0000
0000
0000
0000
0000
0000
0000
0000
0000
0000
0000
0000
0000
0000
0000
0000
0000
0000
0000
0000
0000
0000
0000
0000
0000
0000
0000
0000
0000
0000
0000
0000
0000
0000
0000
0000
0000
0000
0000
,  // measure 43
0000
0000
0000
0000
,  // measure 44
0000
3003
1001
0100
,  // measure 45
1000
0100
0101
0100
,  // measure 46
1000
0100
0101
1000
,  // measure 47
0100
1000
0101
0100
,  // measure 48
1000
1000
0101
0100
,  // measure 49
1000
0100
0101
0010
,  // measure 50
1000
0100
1001
0100
,  // measure 51
1000
1000
1010
0010
,  // measure 52
0010
1000
1010
1000
,  // measure 53
0001
0010
1000
1000
,  // measure 54
1000
0100
0101
0100
,  // measure 55
1000
0100
0001
1000
,  // measure 56
0100
1000
1001
0100
,  // measure 57
1000
0100
0001
1000
,  // measure 58
0100
1000
0001
1000
,  // measure 59
0001
1001
0000
0000
;

//---------------dance-single - Nifara----------------
#NOTEDATA:;
#CHARTNAME:;
#STEPSTYPE:dance-single;
#DESCRIPTION:Nifara;
#CHARTSTYLE:;
#DIFFICULTY:Beginner;
#METER:4;
#RADARVALUES:0.135878,0.162563,0.018291,0.073165,0.004573,104.000000,102.000000,2.000000,8.000000,0.000000,0.000000,0.000000,0.000000,0.000000,0.135878,0.162563,0.018291,0.073165,0.004573,104.000000,102.000000,2.000000,8.000000,0.000000,0.000000,0.000000,0.000000,0.000000;
#CREDIT:;
#NOTES:
// measure 0
0000
0000
0000
0000
,  // measure 1
1000
1000
0000
0000
,  // measure 2
0001
0001
0000
0000
,  // measure 3
1000
1000
0000
0000
,  // measure 4
0001
0001
0000
0000
,  // measure 5
0010
0010
0000
0000
,  // measure 6
0100
0100
0000
0000
,  // measure 7
0010
0010
0000
0000
,  // measure 8
0100
0100
0000
0000
,  // measure 9
0010
0000
0100
0000
,  // measure 10
0100
0000
0100
0000
,  // measure 11
1000
0000
1000
0000
,  // measure 12
0010
0000
0010
0000
,  // measure 13
0010
0000
0001
0000
,  // measure 14
0001
0000
0001
0000
,  // measure 15
1000
0000
0100
0000
,  // measure 16
0100
0000
0001
0000
,  // measure 17
0100
0000
0100
0000
,  // measure 18
0010
0000
0010
0000
,  // measure 19
1000
0000
0010
0000
,  // measure 20
0010
0000
0010
0000
,  // measure 21
0100
0000
0100
0000
,  // measure 22
0100
0000
0100
0000
,  // measure 23
1000
0000
0100
0000
,  // measure 24
0010
0000
0001
0000
,  // measure 25
0001
0000
0001
0000
,  // measure 26
0100
0000
1000
0000
,  // measure 27
1000
0000
1000
0000
,  // measure 28
0100
0000
1000
0000
,  // measure 29
2000
0000
3000
0000
,  // measure 30
0002
0000
0003
0000
,  // measure 31
1000
0000
0100
0000
,  // measure 32
0010
0000
0001
0000
,  // measure 33
0100
0000
0010
0000
,  // measure 34
1000
0000
0100
0000
,  // measure 35
0020
0000
0000
0000
,  // measure 36
0030
0000
0000
0200
,  // measure 37
0000
0000
0000
0000
,  // measure 38
0300
0000
0000
0002
,  // measure 39
0000
0000
0000
0000
,  // measure 40
0003
0000
2000
0000
,  // measure 41
0000
0000
0000
3000
,  // measure 42
0000
0000
0000
0000
0000
0000
0000
0000
0000
0000
0000
0000
0000
0000
0000
0000
0000
0000
0000
0000
0000
0000
0000
0000
0000
0000
0000
0000
0000
0000
0000
0000
0000
0000
0000
0000
0000
0000
0000
0000
0000
0000
0000
0000
0000
0000
0000
0000
0000
0000
0000
0000
0000
0000
0000
0000
0000
0000
0000
0000
0000
0000
0000
0000
0000
0000
0000
0000
0000
0000
0000
0000
0000
0000
0000
0000
0000
0000
0000
0000
0000
0000
0000
0000
0000
0000
0000
0000
0000
0000
0000
0000
0000
0000
0000
0000
0000
0000
0000
0000
0000
0000
0000
0000
0000
0000
0000
0000
0000
0000
0000
0000
0000
0000
0000
0000
0000
0000
0000
0000
0000
0000
0000
0000
0000
0000
0000
0000
0000
0000
0000
0000
0000
0000
2002
0000
0000
0000
0000
0000
0000
0000
0000
0000
0000
0000
0000
0000
0000
0000
0000
0000
0000
0000
0000
0000
0000
0000
0000
0000
0000
0000
0000
0000
0000
0000
0000
0000
0000
0000
0000
0000
0000
0000
0000
0000
0000
0000
0000
0000
0000
0000
0000
0000
0000
0000
0000
0000
0000
0000
0000
0000
,  // measure 43
0000
0000
0000
0000
,  // measure 44
0000
3003
1001
0000
,  // measure 45
1000
0000
0001
0000
,  // measure 46
1000
0000
0001
0000
,  // measure 47
0100
0000
0001
0000
,  // measure 48
1000
0000
0001
0000
,  // measure 49
1000
0000
0001
0000
,  // measure 50
1000
0000
0001
0000
,  // measure 51
1000
0000
0010
0000
,  // measure 52
0010
0000
1000
0000
,  // measure 53
0001
0000
1000
0000
,  // measure 54
1000
0000
0001
0000
,  // measure 55
1000
0000
0001
0000
,  // measure 56
0100
0000
1000
0000
,  // measure 57
1000
0000
0001
0000
,  // measure 58
0100
0000
0001
0000
,  // measure 59
0001
0001
0000
0000
;
