#VERSION:0.83;
#TITLE:JAMES BROWN IS DEAD;
#SUBTITLE:;
#ARTIST:L.A. STYLE;
#TITLETRANSLIT:;
#SUBTITLETRANSLIT:;
#ARTISTTRANSLIT:;
#GENRE:;
#ORIGIN:;
#CREDIT:;
#BANNER:;
#BACKGROUND:DDR CD-bg.JPG;
#PREVIEWVID:;
#JACKET:James Brown is dead-jacket.jpg;
#CDIMAGE:;
#DISCIMAGE:;
#LYRICSPATH:;
#CDTITLE:;
#MUSIC:L.A._Style_-_James_Brown_Is_Dead.ogg;
#OFFSET:-0.040000;
#SAMPLESTART:71.960190;
#SAMPLELENGTH:12.000000;
#SELECTABLE:YES;
#BPMS:0.000=130.000,
72.000=130.920,
80.000=130.080,
152.000=129.600,
208.000=130.000,
232.000=130.100;
#STOPS:;
#DELAYS:;
#WARPS:;
#TIMESIGNATURES:0.000=4=4;
#TICKCOUNTS:0.000=4;
#COMBOS:0.000=1;
#SPEEDS:0.000=1.000=0.000=0;
#SCROLLS:0.000=1.000;
#FAKES:;
#LABELS:0.000=Song Start;
#BGCHANGES:;
#KEYSOUNDS:;
#ATTACKS:
;

//---------------dance-single - ----------------
#NOTEDATA:;
#CHARTNAME:;
#STEPSTYPE:dance-single;
#DESCRIPTION:;
#CHARTSTYLE:;
#DIFFICULTY:Hard;
#METER:14;
#RADARVALUES:0.580725,0.796704,0.510225,0.108737,0.276024,486.000000,425.000000,61.000000,13.000000,0.000000,0.000000,0.000000,0.000000,0.000000,0.580725,0.796704,0.510225,0.108737,0.276024,486.000000,425.000000,61.000000,13.000000,0.000000,0.000000,0.000000,0.000000,0.000000;
#CREDIT:;
#NOTES:
0000
0000
0000
0000
,
0000
0000
0000
0000
,
0000
0000
0000
0000
,
0000
0000
0000
0000
,
1000
0100
1000
0100
1000
0100
1000
0010
1000
0000
0100
0000
1000
0001
0000
0000
,
0001
0100
0001
0100
0001
0100
0001
0010
0001
0000
0100
0001
0000
1000
0010
0000
,
0010
0100
0010
0100
0001
0100
0001
0010
0100
0000
1000
0100
1000
0100
0000
0000
,
1000
0001
1000
0001
0100
0010
0100
0010
1000
0001
1000
0001
0100
0010
0100
0010
,
1000
0100
1000
0100
1000
0010
0100
0010
,
0100
0001
0100
0001
0010
0001
0010
0001
,
0100
0001
0100
0010
1000
0010
1000
0100
,
1000
0010
0100
0010
1000
0010
0100
0010
,
2001
0000
0000
0000
0100
0000
0000
0100
0000
0000
0100
0000
0010
0000
3100
0000
,
1002
0000
0000
0000
0100
0000
0000
0100
0000
0000
0010
0000
1000
0000
0103
0000
,
2001
0000
0000
0000
0100
0000
0000
0010
0000
0000
0001
0000
0010
0000
3100
0000
,
1002
0000
0000
0000
0100
0000
0000
0010
0000
0000
0100
0000
1000
0000
0103
0000
,
2001
0000
0000
0000
0100
0000
0000
0100
0000
0000
0010
0000
0100
0000
3010
0000
,
1002
0000
0000
0000
0100
0000
0000
1000
0000
0000
0100
0000
0010
0000
0013
0000
,
2001
0000
0200
0000
0000
0000
0000
3300
,
1001
0110
1001
0000
,
1000
0100
1000
0010
0100
0001
0100
0001
,
1000
0010
1000
0010
0100
0010
0001
0010
,
0100
0010
1000
0010
0100
0010
0001
0010
,
1000
0010
0001
0010
1000
0010
0001
0010
,
1000
0100
1000
0010
1000
0100
1000
0010
,
1000
0010
0100
0010
1000
0010
0100
0010
,
1000
1000
0001
0001
0100
0100
0001
0001
,
0010
0010
0001
0001
0100
0100
0010
0010
,
1000
0001
0100
0001
1000
0010
1000
0010
,
0100
0001
0100
0010
1000
0010
1000
0100
,
1000
0010
1000
0100
1000
0100
0010
0001
,
0010
0100
1000
0100
0010
0001
0010
0001
,
1001
0100
0001
0000
0001
0001
0001
0000
,
1001
0100
1000
0000
1000
1000
1000
0000
,
1001
0100
0010
0000
0010
0100
0010
0000
,
1001
0010
0100
0000
0010
0100
0010
0000
,
1001
0000
1100
0000
1000
1000
1000
0000
,
1001
0000
0101
0000
0001
0001
0001
0000
,
0110
0000
0101
0000
0010
1000
0100
0000
,
0110
0000
0011
0000
0000
0110
0000
1100
,
1001
0000
0000
0001
0100
0000
0000
0100
0001
0000
0000
0001
0010
0000
0000
0010
,
0001
0000
0000
0001
0100
0000
0000
0100
0010
0000
0000
0010
1000
0000
0000
1000
,
0100
0000
0000
0100
1000
0000
0000
1000
0010
0000
0000
0010
0100
0000
0000
0100
,
0001
0000
0000
0001
0100
0000
0000
0100
0010
0000
0000
0010
1000
0000
0000
1000
,
0100
0000
0000
0100
1000
0000
0000
1000
0010
0000
0000
0010
0100
0000
0000
0100
,
0001
0000
0000
0001
0010
0000
0000
0010
0001
0000
0000
0001
0100
0000
0000
0100
,
0010
0000
0000
0010
1000
0000
0000
1000
0100
0000
0000
0100
0010
0000
0000
0010
,
0001
0000
0000
0001
0100
0000
0000
0100
0010
0000
0000
0010
1000
0000
0000
1000
,
0100
0000
1001
0000
1001
0000
1001
0100
,
1001
0000
1001
0000
1001
0010
1001
0010
,
1001
0000
1001
0000
1001
0000
1001
0100
,
1001
0000
1001
0000
1001
0010
1001
0010
,
0101
0000
0110
0000
0110
0000
0110
0001
,
0110
0000
0110
0000
0110
1000
0110
1000
,
0110
0000
0110
0000
0110
0000
0110
0001
,
0110
0000
0110
0000
0110
1000
0110
1000
,
1001
0100
1000
0100
1000
0010
1000
0010
,
1000
0100
1000
0010
0100
0001
0100
0010
,
1000
0100
0001
0010
1000
0100
0001
0010
,
1000
0100
0001
0010
1000
0100
1000
0100
,
2001
0000
0000
0000
0100
0000
0000
0100
0000
0000
0100
0000
0010
0000
3100
0000
,
1002
0000
0000
0000
0100
0000
0000
0100
0000
0000
0010
0000
1000
0000
0103
0000
,
2001
0000
0000
0000
0100
0000
0000
0010
0000
0000
0001
0000
0010
0000
3100
0000
,
2002
0000
3003
0000
;

//---------------dance-single - ----------------
#NOTEDATA:;
#CHARTNAME:;
#STEPSTYPE:dance-single;
#DESCRIPTION:;
#CHARTSTYLE:;
#DIFFICULTY:Medium;
#METER:9;
#RADARVALUES:0.403879,0.424909,0.217473,0.075279,0.041822,338.000000,312.000000,26.000000,9.000000,0.000000,0.000000,0.000000,0.000000,0.000000,0.403879,0.424909,0.217473,0.075279,0.041822,338.000000,312.000000,26.000000,9.000000,0.000000,0.000000,0.000000,0.000000,0.000000;
#CREDIT:;
#NOTES:
0000
0000
0000
0000
,
0000
0000
0000
0000
,
0000
0000
0000
0000
,
0000
0000
0000
0000
,
1000
1000
1000
1000
0100
0000
0100
0000
,
0001
0001
0001
0001
0100
0000
0100
0000
,
1000
1000
1000
1000
0100
0000
0100
0000
,
0001
0001
0001
0001
0100
0000
0100
0000
,
1000
1000
1000
1000
0100
0000
0100
0000
,
0001
0001
0001
0001
0010
0000
0010
0000
,
1000
1000
1000
1000
0010
0000
0010
0000
,
1001
0100
0100
0100
,
1001
0000
0000
0000
0101
0000
0000
0001
0000
0000
0001
0000
0001
0000
0000
0000
,
1001
0000
0000
0000
1100
0000
0000
1000
0000
0000
1000
0000
1000
0000
0000
0000
,
1001
0000
0000
0000
0110
0000
0000
0100
0000
0000
0010
0000
1000
0000
0000
0000
,
1001
0000
0000
0000
0110
0000
0000
0100
0000
0000
0001
0000
0010
0000
0000
0000
,
1010
0000
0000
0000
0101
0000
0000
0100
0000
0000
0001
0000
0100
0000
0000
0000
,
0011
0000
0000
0000
1100
0000
0000
0100
0000
0000
1000
0000
0100
0000
0000
0000
,
1001
0000
0000
0000
0100
0000
0000
0100
0000
0000
0010
0000
0100
0000
0100
0000
,
0100
1001
1002
0000
,
0103
0000
0100
0001
0100
0001
0100
0000
,
0010
0000
1000
0010
1000
0010
1000
0000
,
0001
0000
0100
0001
0010
0001
0100
0000
,
0010
0000
1000
0100
1000
0010
1000
0000
,
0010
0000
1000
0010
0100
0010
1000
0000
,
0001
0000
0100
0001
0100
0010
0100
0000
,
0001
0000
0010
0001
0010
0100
1000
0000
,
1000
0000
1000
0100
0001
0010
1000
0000
,
1000
0000
1000
0010
0001
0100
1000
0000
,
1000
0000
0001
0100
0001
0010
0001
0000
,
0001
0000
0100
0010
0100
0010
0010
0000
,
2002
0000
0000
3003
,
0001
0001
0001
0001
,
1000
1000
1000
1000
,
0001
0001
1000
1000
,
0001
1000
0001
1000
,
0010
0010
0010
0010
,
0100
0100
0100
0100
,
0010
0010
0100
0100
,
0220
0000
0000
0330
,
0100
0000
0100
0001
0100
0001
0100
0000
,
0010
0000
1000
0010
1000
0010
1000
0000
,
0001
0000
0100
0001
0010
0001
0100
0000
,
0010
0000
1000
0100
1000
0010
1000
0000
,
0010
0000
1000
0010
0100
0010
1000
0000
,
0001
0000
0100
0001
0100
0010
0100
0000
,
0001
0000
0010
0001
0010
0100
1000
0000
,
1000
0000
1000
0100
0001
0010
1000
0000
,
1000
0000
1000
0010
0001
0100
1000
0000
,
1000
0000
0001
0100
0001
0010
0001
0000
,
0001
0000
0100
0010
0100
0010
0010
0000
,
0100
0000
0100
0001
0100
0001
0100
0000
,
0010
0000
1000
0010
1000
0010
1000
0000
,
0001
0000
0100
0001
0010
0001
0100
0000
,
0010
0000
1000
0100
1000
0010
1000
0000
,
0010
0000
1000
0010
0100
0010
1000
0000
,
0001
0000
0100
0001
0100
0010
0100
0000
,
0001
0000
0010
0001
0010
0100
1000
0000
,
1000
0000
1000
0100
0001
0010
1000
0000
,
2002
0000
0000
3003
,
1001
0000
0000
0000
0101
0000
0000
0001
0000
0000
0001
0000
0001
0000
0000
0000
,
1001
0000
0000
0000
1100
0000
0000
1000
0000
0000
1000
0000
1000
0000
0000
0000
,
1001
0000
0000
0000
0110
0000
0000
0100
0000
0000
0010
0000
1000
0000
0000
0000
,
2002
0000
3003
0000
;

//---------------dance-single - ----------------
#NOTEDATA:;
#CHARTNAME:;
#STEPSTYPE:dance-single;
#DESCRIPTION:;
#CHARTSTYLE:;
#DIFFICULTY:Easy;
#METER:7;
#RADARVALUES:0.285583,0.345239,0.175651,0.066915,0.041822,239.000000,218.000000,21.000000,8.000000,0.000000,0.000000,0.000000,0.000000,0.000000,0.285583,0.345239,0.175651,0.066915,0.041822,239.000000,218.000000,21.000000,8.000000,0.000000,0.000000,0.000000,0.000000,0.000000;
#CREDIT:;
#NOTES:
// measure 0
0000
0000
0000
0000
,  // measure 1
0000
0000
0000
0000
,  // measure 2
0000
0000
0000
0000
,  // measure 3
0000
0000
0000
0000
,  // measure 4
0110
0001
0001
0001
,  // measure 5
0110
1000
1000
1000
,  // measure 6
0110
0001
1000
0001
,  // measure 7
0110
1000
0001
1000
,  // measure 8
1001
0001
0001
0001
,  // measure 9
1001
1000
1000
1000
,  // measure 10
1001
1001
0100
0100
,  // measure 11
1001
2002
0000
3003
,  // measure 12
1000
0000
0000
0000
1000
0000
0000
1000
0000
0000
0000
0000
0000
0000
0000
0000
,  // measure 13
0001
0000
0000
0000
0001
0000
0000
0001
0000
0000
0000
0000
0000
0000
0000
0000
,  // measure 14
0100
0000
0000
0000
0100
0000
0000
0100
0000
0000
0000
0000
0000
0000
0000
0000
,  // measure 15
0010
0000
0000
0000
0010
0000
0000
0010
0000
0000
0000
0000
0000
0000
0000
0000
,  // measure 16
1000
0000
0000
0000
1000
0000
0000
1000
0000
0000
0000
0000
0000
0000
0000
0000
,  // measure 17
0001
0000
0000
0000
0001
0000
0000
0001
0000
0000
0000
0000
0000
0000
0000
0000
,  // measure 18
0100
0000
0000
0000
0100
0000
0000
0100
0000
0000
0000
0000
0000
0000
0000
0000
,  // measure 19
0010
0010
0010
0000
,  // measure 20
1001
0100
0001
0100
,  // measure 21
0010
1000
0100
1000
,  // measure 22
0010
0100
0010
1000
,  // measure 23
0100
0001
0100
1000
,  // measure 24
0100
0001
0010
1000
,  // measure 25
0100
0001
0010
1000
,  // measure 26
1000
0100
1000
0010
,  // measure 27
1000
0010
0100
0010
,  // measure 28
1000
0010
0001
0010
,  // measure 29
1000
0010
0001
0010
,  // measure 30
1000
0100
0001
0010
,  // measure 31
2000
0100
0001
3010
,  // measure 32
0010
0100
0001
0100
,  // measure 33
0001
0100
0010
1000
,  // measure 34
0010
1000
0100
1000
,  // measure 35
0010
0100
0001
0100
,  // measure 36
0010
1000
0100
1000
,  // measure 37
0010
0100
0001
0100
,  // measure 38
0010
1000
0100
0010
,  // measure 39
2002
0000
3003
0000
,  // measure 40
1001
0100
0010
0100
,  // measure 41
1001
0010
0100
0010
,  // measure 42
1001
1000
0100
1000
,  // measure 43
1001
0001
0100
0001
,  // measure 44
1100
0010
0100
0010
,  // measure 45
0101
0010
0100
0010
,  // measure 46
0011
0100
0010
0100
,  // measure 47
1010
0100
0010
0100
,  // measure 48
1000
1000
1000
0100
,  // measure 49
1000
1000
1000
0100
,  // measure 50
0001
0001
0001
0010
,  // measure 51
0001
0001
0001
0010
,  // measure 52
1000
1000
1000
0100
,  // measure 53
0001
0001
0001
0010
,  // measure 54
1000
0100
0001
0010
,  // measure 55
1000
0100
0001
0010
,  // measure 56
1000
1000
1000
1000
,  // measure 57
0001
0001
0001
0001
,  // measure 58
1000
1000
0001
0001
,  // measure 59
2002
0000
3003
0000
,  // measure 60
1000
0000
0000
0000
1000
0000
0000
1000
0000
0000
0000
0000
0000
0000
0000
0000
,  // measure 61
0001
0000
0000
0000
0001
0000
0000
0001
0000
0000
0000
0000
0000
0000
0000
0000
,  // measure 62
0100
0000
0000
0000
0100
0000
0000
0100
0000
0000
0000
0000
0000
0000
0000
0000
,  // measure 63
0020
0000
0030
0000
;

//---------------dance-single - ----------------
#NOTEDATA:;
#CHARTNAME:;
#STEPSTYPE:dance-single;
#DESCRIPTION:;
#CHARTSTYLE:;
#DIFFICULTY:Beginner;
#METER:4;
#RADARVALUES:0.156533,0.210782,0.083644,0.000000,0.000000,131.000000,121.000000,10.000000,0.000000,0.000000,0.000000,0.000000,0.000000,0.000000,0.156533,0.210782,0.083644,0.000000,0.000000,131.000000,121.000000,10.000000,0.000000,0.000000,0.000000,0.000000,0.000000,0.000000;
#CREDIT:;
#NOTES:
// measure 0
0000
0000
0000
0000
,  // measure 1
0000
0000
0000
0000
,  // measure 2
0000
0000
0000
0000
,  // measure 3
0000
0000
0000
0000
,  // measure 4
1000
1000
0000
0000
,  // measure 5
1000
1000
0000
0000
,  // measure 6
0100
0100
0000
0000
,  // measure 7
0100
0100
0000
0000
,  // measure 8
0010
0010
0000
0000
,  // measure 9
0010
0010
0000
0000
,  // measure 10
0001
0001
0000
0000
,  // measure 11
0001
0001
0000
0000
,  // measure 12
1001
0000
0000
0000
,  // measure 13
1001
0000
0000
0000
,  // measure 14
1001
0000
0000
0000
,  // measure 15
1001
0000
0000
0000
,  // measure 16
0100
0000
0000
0000
,  // measure 17
0010
0000
0000
0000
,  // measure 18
0100
0000
0000
0000
,  // measure 19
0010
0010
0010
0000
,  // measure 20
1000
1000
0000
0000
,  // measure 21
1000
1000
0000
0000
,  // measure 22
0001
0001
0000
0000
,  // measure 23
0001
0001
0000
0000
,  // measure 24
0100
0100
0000
0000
,  // measure 25
0100
0100
0000
0000
,  // measure 26
0010
0010
0000
0000
,  // measure 27
0010
0010
0000
0000
,  // measure 28
1000
1000
0000
0000
,  // measure 29
0001
0001
0000
0000
,  // measure 30
0100
0100
0000
0000
,  // measure 31
0010
0010
0000
0000
,  // measure 32
1001
0000
1000
0000
,  // measure 33
1000
0000
0001
0000
,  // measure 34
0001
0000
0100
0000
,  // measure 35
0100
0000
0010
0000
,  // measure 36
0010
0000
1000
0000
,  // measure 37
0001
0000
0100
0000
,  // measure 38
0010
0000
0100
0000
,  // measure 39
1001
0000
0000
0000
,  // measure 40
1000
1000
0000
0000
,  // measure 41
1000
1000
0000
0000
,  // measure 42
0100
0100
0000
0000
,  // measure 43
0100
0100
0000
0000
,  // measure 44
0010
0010
0000
0000
,  // measure 45
0010
0010
0000
0000
,  // measure 46
0001
0001
0000
0000
,  // measure 47
0001
0001
0000
0000
,  // measure 48
1000
1000
1000
0000
,  // measure 49
1000
1000
1000
0000
,  // measure 50
0001
0001
0001
0000
,  // measure 51
0001
0001
0001
0000
,  // measure 52
0100
0100
0100
0000
,  // measure 53
0100
0100
0100
0000
,  // measure 54
0010
0010
0010
0000
,  // measure 55
0010
0010
0010
0000
,  // measure 56
1000
1000
1000
0000
,  // measure 57
0100
0100
0100
0000
,  // measure 58
0010
0010
0010
0000
,  // measure 59
0001
0001
0001
0000
,  // measure 60
1001
0000
0000
0000
,  // measure 61
1001
0000
0000
0000
,  // measure 62
1001
0000
0000
0000
,  // measure 63
1001
0000
0000
0000
;
