#VERSION:0.83;
#TITLE:It Just Won't Do;
#SUBTITLE:;
#ARTIST:Tim Deluxe feat. Sam Obernik;
#TITLETRANSLIT:;
#SUBTITLETRANSLIT:;
#ARTISTTRANSLIT:;
#GENRE:;
#ORIGIN:;
#CREDIT:;
#BANNER:;
#BACKGROUND:It Just Won't Do-bg.jpg;
#PREVIEWVID:;
#JACKET:It Just Won't Do-jacket.jpg;
#CDIMAGE:;
#DISCIMAGE:;
#LYRICSPATH:;
#CDTITLE:;
#MUSIC:It Just Won't Do.ogg;
#OFFSET:-0.630000;
#SAMPLESTART:22.760000;
#SAMPLELENGTH:12.000000;
#SELECTABLE:YES;
#DISPLAYBPM:130.000000;
#BPMS:0.000=129.980;
#STOPS:;
#DELAYS:;
#WARPS:;
#TIMESIGNATURES:0.000=4=4;
#TICKCOUNTS:0.000=4;
#COMBOS:0.000=1;
#SPEEDS:0.000=1.000=0.000=0;
#SCROLLS:0.000=1.000;
#FAKES:;
#LABELS:0.000=Song Start;
#BGCHANGES:;
#KEYSOUNDS:;
#ATTACKS:
;

//---------------dance-single - ----------------
#NOTEDATA:;
#CHARTNAME:;
#STEPSTYPE:dance-single;
#DESCRIPTION:;
#CHARTSTYLE:;
#DIFFICULTY:Easy;
#METER:5;
#RADARVALUES:0.226303,0.319254,0.097186,0.524802,0.000000,163.000000,153.000000,10.000000,54.000000,0.000000,0.000000,0.000000,0.000000,0.000000,0.226303,0.319254,0.097186,0.524802,0.000000,163.000000,153.000000,10.000000,54.000000,0.000000,0.000000,0.000000,0.000000,0.000000;
#CREDIT:;
#DISPLAYBPM:130.000000;
#NOTES:
0000
0000
0000
0000
,
0000
0000
0000
0000
,
0000
0000
0000
0000
,
0000
0000
0000
0000
,
1000
1000
0100
0100
,
1000
1000
0001
0001
,
0010
0010
0100
0100
,
1000
1000
0010
0010
,
1000
0001
0100
0000
,
0001
0010
0001
0000
,
1000
0001
1000
0000
,
0001
1000
0001
1000
,
0100
0010
0001
0000
,
1000
0001
0100
0000
,
0001
0100
0010
0010
,
0010
0010
0010
1001
,
2001
0001
0001
3001
,
0210
0010
0010
0310
,
1002
1000
1000
1003
,
0120
0100
0100
0130
,
2010
0010
0010
3010
,
0102
0100
0100
0103
,
2100
0100
0100
3100
,
0012
0010
0010
0013
,
0002
1003
2000
3100
,
0200
0310
0020
0031
,
0002
1003
2000
3100
,
0200
1300
2000
3010
,
0020
0130
0200
0301
,
0002
1003
2000
3002
,
2000
0000
0000
3003
,
2000
0000
0000
0000
,
3002
0000
0000
0000
,
0203
0000
0000
0000
,
0320
0000
0000
0000
,
2030
0000
0000
0000
,
3200
0000
0000
0000
,
0320
0000
0000
0000
,
0032
1000
1003
0000
,
0002
1003
2000
3100
,
0200
0310
0020
0031
,
0002
1003
2000
3100
,
0200
1300
2000
3010
,
0020
0130
0200
0301
,
0002
1003
2000
3001
,
0002
0103
0200
0310
,
0020
1030
2000
3001
,
2001
0000
0000
0000
,
3002
0000
0000
0000
,
0203
0000
0000
0000
,
0320
0000
0000
0000
,
2030
0000
0000
0000
,
3200
0000
0000
0000
,
0320
0000
0000
0000
,
0032
1000
1000
1003
;

//---------------dance-single - ----------------
#NOTEDATA:;
#CHARTNAME:;
#STEPSTYPE:dance-single;
#DESCRIPTION:;
#CHARTSTYLE:;
#DIFFICULTY:Medium;
#METER:9;
#RADARVALUES:0.344314,0.372463,0.427616,0.388742,0.000000,248.000000,204.000000,44.000000,40.000000,0.000000,0.000000,0.000000,0.000000,0.000000,0.344314,0.372463,0.427616,0.388742,0.000000,248.000000,204.000000,44.000000,40.000000,0.000000,0.000000,0.000000,0.000000,0.000000;
#CREDIT:;
#DISPLAYBPM:130.000000;
#NOTES:
// measure 0
0000
0000
0000
0000
,  // measure 1
0000
0000
0000
0000
,  // measure 2
0000
0000
0000
0000
,  // measure 3
0000
0000
0000
0000
,  // measure 4
2001
0001
0001
3001
,  // measure 5
0210
0010
0010
0310
,  // measure 6
1002
1000
1000
1003
,  // measure 7
0120
0100
0100
0130
,  // measure 8
0000
0000
1000
1000
1000
0000
1000
0000
,  // measure 9
0000
0000
0001
0001
0001
0000
0001
0000
,  // measure 10
0000
0000
0100
0100
0100
0000
0100
0000
,  // measure 11
0000
0000
0010
0010
0010
0000
0010
0000
,  // measure 12
0000
0000
1000
1000
0001
0000
1000
0000
,  // measure 13
0000
0000
0010
0010
0100
0000
0010
0000
,  // measure 14
0000
0000
1000
0001
1000
0000
1000
0000
,  // measure 15
0001
0000
0001
1000
0001
0000
1001
0000
,  // measure 16
2001
0001
0001
3001
,  // measure 17
0210
0010
0010
0310
,  // measure 18
1002
1000
1000
1003
,  // measure 19
0120
0100
0100
0130
,  // measure 20
2010
0010
0010
3010
,  // measure 21
0102
0100
0100
0103
,  // measure 22
2100
0100
0100
3100
,  // measure 23
0012
0010
0010
0013
,  // measure 24
2001
3100
1020
0130
,  // measure 25
0210
0301
1002
0103
,  // measure 26
2010
3100
0120
1030
,  // measure 27
0201
0310
1002
0103
,  // measure 28
1002
1003
2001
3001
,  // measure 29
0210
0310
0120
0130
,  // measure 30
2002
0000
0000
3003
,  // measure 31
0000
0000
1000
1000
2000
0000
0000
0000
,  // measure 32
3000
0000
0001
0001
0002
0000
0000
0000
,  // measure 33
0003
0000
0100
0100
0200
0000
0000
0000
,  // measure 34
0300
0000
0010
0010
0020
0000
0000
0000
,  // measure 35
0030
0000
1000
1000
2000
0000
0000
0000
,  // measure 36
3000
0000
0001
0001
0002
0000
0000
0000
,  // measure 37
0003
0000
0100
0100
0100
0000
1001
0000
,  // measure 38
0000
0000
0010
0010
0010
0000
1001
0000
,  // measure 39
1001
0000
1000
1000
1000
0000
1000
0000
,  // measure 40
1001
0000
0001
0001
0001
0000
0001
0000
,  // measure 41
1001
0000
0100
0100
0100
0000
0100
0000
,  // measure 42
1001
0000
0010
0010
0010
0000
0010
0000
,  // measure 43
1001
0000
1000
1000
0001
0000
1000
0000
,  // measure 44
1001
0000
0010
0010
0100
0000
0010
0000
,  // measure 45
1001
0000
1000
0001
1000
0000
1000
0000
,  // measure 46
1001
0000
0001
1000
0001
0000
0001
0000
,  // measure 47
2001
0001
0001
3001
,  // measure 48
0210
0010
0010
0310
,  // measure 49
1002
1000
1000
1003
,  // measure 50
0120
0100
0100
0130
,  // measure 51
2010
0010
0010
3010
,  // measure 52
0102
0100
0100
0103
,  // measure 53
2100
0100
0100
3100
,  // measure 54
0012
0010
0010
0013
;

//---------------dance-single - ----------------
#NOTEDATA:;
#CHARTNAME:;
#STEPSTYPE:dance-single;
#DESCRIPTION:;
#CHARTSTYLE:;
#DIFFICULTY:Hard;
#METER:11;
#RADARVALUES:0.404014,0.505486,0.029156,0.388742,0.160356,291.000000,288.000000,3.000000,40.000000,0.000000,0.000000,0.000000,0.000000,0.000000,0.404014,0.505486,0.029156,0.388742,0.160356,291.000000,288.000000,3.000000,40.000000,0.000000,0.000000,0.000000,0.000000,0.000000;
#CREDIT:;
#DISPLAYBPM:130.000000;
#NOTES:
// measure 0
0000
0000
0000
0000
,  // measure 1
0000
0000
0000
0000
,  // measure 2
0000
0000
0000
0000
,  // measure 3
0000
0000
0000
0000
,  // measure 4
1000
0000
0100
0000
0010
0000
0001
0000
0010
0000
0100
1000
0000
0100
0010
0000
,  // measure 5
0001
0000
0010
0000
0100
0000
1000
0000
0100
0000
0010
0001
0000
0010
0100
0000
,  // measure 6
1000
0000
0100
0000
0010
0000
0001
0000
0010
0000
0100
1000
0000
0100
0010
0000
,  // measure 7
0001
0000
0010
0000
0100
0000
1000
0000
0100
0000
0010
0002
0010
0000
0100
0000
,  // measure 8
2003
0000
0001
0001
0000
0002
3000
0000
,  // measure 9
0100
0000
0100
0100
0200
0000
0000
0000
,  // measure 10
0003
0000
0010
0010
0020
0000
0300
0000
,  // measure 11
0000
1000
2030
0002
,  // measure 12
3000
0000
0100
0100
0200
0000
0000
0000
,  // measure 13
0003
0000
0010
0010
0020
0000
0000
0000
,  // measure 14
0300
2000
0000
0030
,  // measure 15
3001
0000
0001
1000
0001
1000
1001
0000
,  // measure 16
1000
0000
0100
0000
0010
0000
0001
0000
0010
0000
0100
1000
0000
0100
0010
0000
,  // measure 17
0001
0000
0010
0000
0100
0000
1000
0000
0100
0000
0010
0001
0000
0010
0100
0000
,  // measure 18
1000
0000
0100
0000
0010
0000
0001
0000
0010
0000
0100
1000
0000
0100
0010
0000
,  // measure 19
0001
0000
0010
0000
0100
0000
1000
0000
0100
0000
0010
0002
0000
0000
0000
0000
,  // measure 20
0013
0000
0100
0000
1000
0000
0100
0000
0010
0000
0001
0010
0000
0100
1000
0000
,  // measure 21
0100
0000
0010
0000
0001
0000
0010
0000
0100
0000
1000
0100
0000
0010
0001
0000
,  // measure 22
0010
0000
0100
0000
1000
0000
0100
0000
0010
0000
0001
0010
0000
0100
1000
0000
,  // measure 23
0100
0000
0010
0000
0001
0000
0010
0000
0100
0000
1000
0200
1000
0000
0000
0000
,  // measure 24
1300
0000
0000
1000
0001
0000
0000
0001
0200
0000
0000
0000
0320
0000
0000
0000
,  // measure 25
1030
0000
0000
1000
0010
0000
0000
0010
0200
0000
0000
0000
0302
0000
0000
0000
,  // measure 26
0103
0000
0000
0100
0010
0000
0000
0010
2000
0000
0000
0000
3200
0000
0000
0000
,  // measure 27
0310
0000
0000
0010
0001
0000
0000
0001
0020
0000
0000
0000
0032
0000
0000
0000
,  // measure 28
0103
0000
0000
0100
0010
0000
0000
0010
2000
0000
0000
0000
3020
0000
0000
0000
,  // measure 29
0130
0000
0000
0100
0001
0000
0000
0001
2000
0000
0000
0000
3002
0000
0000
0000
,  // measure 30
2000
0000
0000
0000
,  // measure 31
3003
0000
1000
1000
2000
0000
0000
0000
,  // measure 32
3000
0000
0001
0001
0002
0000
0000
0000
,  // measure 33
0003
0000
0100
0100
0200
0000
0000
0000
,  // measure 34
0300
0000
0010
0010
0020
0000
0000
0000
,  // measure 35
0030
0000
1000
1000
2000
0000
0000
0000
,  // measure 36
3000
0000
0001
0001
0002
0000
0000
0000
,  // measure 37
0003
0000
0001
1000
0001
1000
0001
1000
,  // measure 38
0001
1000
0001
1000
1001
0000
0000
0000
,  // measure 39
1000
0100
1000
0010
1000
0100
1000
0010
,  // measure 40
0100
0001
0100
0010
0100
0001
0100
0010
,  // measure 41
1000
0100
1000
0010
0100
0001
0100
0010
,  // measure 42
1000
0100
1000
0010
0100
0001
0100
0010
,  // measure 43
1000
0100
1000
0010
0100
0010
1000
0100
,  // measure 44
0010
0001
0010
0001
0100
0001
0100
0001
,  // measure 45
1000
0001
1000
0001
1000
0010
1000
0010
,  // measure 46
0100
0010
0100
0010
0100
0001
0010
0001
,  // measure 47
2000
0000
0001
0001
0002
0000
3000
0000
,  // measure 48
0100
0000
0100
0100
0200
0000
0000
0000
,  // measure 49
0003
0000
0010
0010
0020
0000
0300
0000
,  // measure 50
0000
1000
2000
0030
,  // measure 51
3002
0000
0100
0100
0200
0000
0000
0000
,  // measure 52
0003
0000
0010
0010
0020
0000
0000
0000
,  // measure 53
0300
0000
1000
1000
2000
0000
0000
0000
,  // measure 54
3000
1000
1030
1001
;

//---------------dance-double - ----------------
#NOTEDATA:;
#CHARTNAME:;
#STEPSTYPE:dance-double;
#DESCRIPTION:;
#CHARTSTYLE:;
#DIFFICULTY:Easy;
#METER:3;
#RADARVALUES:0.234634,0.345859,0.408179,0.000000,0.000000,169.000000,127.000000,42.000000,0.000000,0.000000,0.000000,0.000000,0.000000,0.000000,0.234634,0.345859,0.408179,0.000000,0.000000,169.000000,127.000000,42.000000,0.000000,0.000000,0.000000,0.000000,0.000000,0.000000;
#CREDIT:;
#DISPLAYBPM:130.000000;
#NOTES:
00000000
00000000
00000000
00000000
,
00000000
00000000
00000000
00000000
,
00000000
00000000
00000000
00000000
,
00000000
00000000
00000000
00000000
,
00100000
00000000
00010000
00000000
,
01000000
00000000
00001000
00000000
,
00000001
00000000
00000010
00000000
,
00010000
00000000
00000100
00000000
,
00000000
00010100
00000010
00000000
,
00000000
00000011
00000110
00000000
,
00000000
00010010
00001010
00000000
,
00000000
00001010
00010010
00000011
,
00000000
00000100
00010000
00000000
,
00000000
01000000
00100000
00000000
,
00000000
00001000
01000000
10000000
,
00100000
00010000
10000000
00100000
,
00101000
01000000
11000000
00001000
,
00000000
00000000
00000000
00000000
,
00001001
00001001
00011000
00001010
,
00100000
00000000
10000000
00000000
,
10100000
00010000
00011000
00000100
,
00000000
00000000
00000000
00000000
,
00001100
00000101
00000101
00000101
,
00001100
00000000
00000101
00000000
,
00010000
00100000
00001000
00000100
,
00010000
00000010
00001000
00000001
,
00000100
00000010
00010000
00100000
,
10000000
00010000
00000010
00000100
,
00000001
00000000
00000000
00001000
,
00010000
00000000
00000000
00000100
,
00000110
00000000
00000000
00010100
,
00000001
00000000
00000000
00001000
,
00010000
00000000
00000000
01000000
,
00100000
00000000
00000000
10000000
,
01000000
00000000
00000000
00001000
,
00000001
00000000
00000000
00000100
,
00010000
00000000
00000000
01000000
,
00001000
00000000
00000000
00000100
,
00000001
00000000
00000011
00000000
,
00000011
00000101
00000000
00001000
,
00001010
00000000
00000000
00011000
,
00001001
00000000
00000000
01000000
,
01001000
00000000
00000000
00000000
,
00010000
00000010
00000100
00000001
,
00001000
00000100
00000010
00010000
,
10000000
00000000
01000000
00000000
,
00100000
10000000
01000000
00001000
,
00001001
01001000
00000000
00010000
,
01000000
00000000
00000000
01001000
,
01001000
00000000
00000000
10000000
,
00100000
00000000
00000000
00110000
,
01100000
00000000
00000000
00010000
,
10000000
00000000
00000000
10100000
,
10100000
00000000
00000000
00010000
,
01000000
01100000
11000000
11000000
;

//---------------dance-double - ----------------
#NOTEDATA:;
#CHARTNAME:;
#STEPSTYPE:dance-double;
#DESCRIPTION:;
#CHARTSTYLE:;
#DIFFICULTY:Medium;
#METER:5;
#RADARVALUES:0.331819,0.425673,0.310994,0.000000,0.000000,239.000000,207.000000,32.000000,0.000000,0.000000,0.000000,0.000000,0.000000,0.000000,0.331819,0.425673,0.310994,0.000000,0.000000,239.000000,207.000000,32.000000,0.000000,0.000000,0.000000,0.000000,0.000000,0.000000;
#CREDIT:;
#DISPLAYBPM:130.000000;
#NOTES:
00000000
00000000
00000000
00000000
,
00000000
00000000
00000000
00000000
,
00000000
00000000
00000000
00000000
,
00000000
00000000
00000000
00000000
,
00100000
00010000
01000000
00000000
00001000
00000000
00000001
00000000
,
00000010
00010000
00000100
00000000
00000010
00000000
00000001
00000000
,
00001000
01000000
00010000
00000000
00100000
00000000
10000000
00000000
,
01000000
00010000
00100000
00000000
00001000
00000000
00000100
00000000
,
00000000
00000000
00010000
00000010
00000000
00000001
00000000
00000000
,
00000000
00000000
00000100
00001000
01000000
00000000
00000000
00000000
,
00000000
00000000
00010000
10000000
00100000
00000000
00000000
00000000
,
00000000
00000000
01000000
10000000
00010000
00000000
01000000
00000000
,
00000000
00000000
00001000
00000001
00000100
00000000
00000000
00000000
,
00000000
00000000
00010000
00100000
01000000
00000000
00000000
00000000
,
00000000
00000000
10000000
00010000
,
00001000
00100000
10000000
00010000
,
00110000
10010000
00011000
00010100
,
00010100
00001000
00000100
00000010
,
00000110
00001000
01000000
00010000
,
10010000
00100000
00001000
00000100
,
00000001
00000010
00010000
00011000
,
00100000
00001000
01000000
01010000
,
10000000
00100000
00001000
01001000
,
00010000
00000100
00001000
00001010
,
00010000
00000000
00010100
00000000
,
00110000
00000000
10010000
00000000
,
00110000
00000000
00010100
00000000
,
00010010
00000000
00011000
00000000
,
10010000
00000100
00000010
00001000
,
01000000
10000000
00100000
00001000
,
00011000
00000000
00000000
01001000
,
00100000
00000000
10000000
01000000
00001000
00000000
00000000
00000000
,
00000001
00000000
00000100
00010000
01000000
00000000
00001000
00000000
,
00000100
00000000
00000001
00000010
00010000
00000000
00000000
00000000
,
00001000
00000000
00000001
00000010
00010000
00000000
00100000
00000000
,
10000000
00000000
01000000
00010000
00000100
00000000
00000000
00000000
,
00001000
00000000
00000001
00000100
00001000
00000000
00000000
00000000
,
00000010
00000000
00000001
00001000
00000100
00000000
00000010
00000000
,
00010000
00000000
10000000
01000000
00100000
00000000
00000000
00000000
,
01100000
00000000
00001000
00000001
00000010
00000000
00000110
00000000
,
00000110
00000000
00001000
00000100
00000001
00000000
00001001
00000000
,
00001001
00000000
00000010
00010000
00100000
00000000
00001000
00000000
,
00000010
00010000
01000000
00001000
,
00100000
00000000
10000000
00010000
00000100
00000000
00000010
00000000
,
00010000
00000000
10000000
00100000
00001000
00000000
00010000
00000000
,
10000000
00000000
01000000
00100000
10000000
00000000
01000000
00000000
,
00100000
00001000
01000000
00010000
,
00011000
00000000
00110000
00000000
01000000
00000000
10000000
00100000
,
00001000
00000000
00000100
00000000
00010000
00000000
00100000
10000000
,
00010000
00000000
00001000
00000000
01000000
00000000
00010000
00000010
,
00001000
00000000
00000001
00000000
00000010
00000000
00001000
00000001
,
00000100
00000000
00001100
00000000
00010000
00000000
00000010
00000001
,
00000100
00000000
00000010
00000000
00001000
00000000
01000000
10000000
,
00100000
00000000
00010000
00000000
01000000
00000000
00001000
00100000
,
00010000
00011000
00011000
01010000
;

//---------------dance-double - ----------------
#NOTEDATA:;
#CHARTNAME:;
#STEPSTYPE:dance-double;
#DESCRIPTION:;
#CHARTSTYLE:;
#DIFFICULTY:Hard;
#METER:8;
#RADARVALUES:0.402626,0.505486,0.145778,0.000000,0.145778,290.000000,275.000000,15.000000,0.000000,0.000000,0.000000,0.000000,0.000000,0.000000,0.402626,0.505486,0.145778,0.000000,0.145778,290.000000,275.000000,15.000000,0.000000,0.000000,0.000000,0.000000,0.000000,0.000000;
#CREDIT:;
#DISPLAYBPM:130.000000;
#NOTES:
00000000
00000000
00000000
00000000
,
00000000
00000000
00000000
00000000
,
00000000
00000000
00000000
00000000
,
00000000
00000000
00000000
00000000
00000000
00000000
00000000
00100000
00000000
00000000
00000000
00010000
00000000
00000000
00000000
00000000
,
01000000
00000000
00001000
00000000
00000001
00000000
00000010
00000000
00010000
00000000
00000100
00000010
00000000
00000001
00001000
00000000
,
01000000
00000000
00010000
00000000
00100000
00000000
10000000
00000000
01000000
00000000
00010000
00100000
00000000
00001000
00000100
00000000
,
00010000
00000000
00000010
00000000
00000001
00000000
00000100
00000000
00001000
00000000
01000000
00010000
00000000
10000000
00100000
00000000
,
01000000
00000000
10000000
00000000
00010000
00000000
01000000
00000000
00001000
00000000
00000001
00000100
00000000
00000000
00000000
00000000
,
00010000
00000000
00100000
01000000
00000000
10000000
00000000
00000000
,
00000000
00000000
00000000
00010000
00001000
00000000
00100000
00000000
10000000
00000000
00000000
00000000
00000000
00000000
00000000
00000000
,
00000000
00000000
00010000
01000000
00100000
00000000
00000000
00000000
,
00000000
00000000
10000000
01000000
00001000
00000000
00000010
00000000
,
00000000
00000000
00000100
00001000
00010000
00000000
00000000
00000000
,
00000000
00000000
00000000
00000100
00000010
00000000
00000001
00000000
00001000
00000000
00000000
00000000
00000000
00000000
00000000
00000000
,
00000000
00000000
00000010
00000100
00010000
00000000
00000000
00000000
,
00000000
00000000
00000000
00000000
01000000
00000000
00001000
00000000
00000100
00000000
00000000
00000001
00000010
00000000
00000000
00000000
,
00010000
00100000
01000000
00001000
00010000
00100000
01000000
00001000
,
00010000
00000100
00001000
00000001
00000100
00000010
00001000
00010000
,
00000010
00001000
00100000
00010000
00000100
00001000
00000010
00010000
,
10000000
01000000
00010000
00000010
00000100
00000000
00010100
00000000
,
00001000
00000010
00010000
00000100
00000001
00001000
00010000
01000000
,
00100000
10000000
01000000
00001000
00000001
00000100
00010000
01000000
,
00001000
00000100
00000001
00000010
00010000
00001000
00000001
00000010
,
00010000
00100000
10000000
01000000
00010000
00000000
00010100
00000000
,
00000010
00000000
00000100
00001000
01000000
00100000
00001000
00000010
,
00000100
00001000
00010000
10000000
01000000
00100000
10000000
01000000
,
00001000
00000001
00000010
00001000
00000100
00000010
00000001
00000100
,
00001000
00000010
00000001
00001000
00000100
00000010
00001000
00000000
,
00101000
00001001
00000000
00101000
,
00000000
00000000
00000000
00000000
00101000
00000000
00000000
01000000
00100000
00010000
00000000
00000000
00110000
00000000
00000000
00000000
,
00000000
01010000
00000000
00110000
,
10000000
00000000
00000000
00000000
00000000
00000000
00000000
00000000
00000000
00000000
00000000
00100000
00000000
00000000
01000000
00000000
,
10000000
00000000
00000000
00000000
00000000
00000000
00000000
00000000
00000000
00000000
00000000
00010000
00000000
00000000
00001000
00000000
,
00100000
00000000
00000000
00000000
00000000
00000000
00000000
00000000
00000000
00000000
00000000
10000000
00000000
00000000
01000000
00000000
,
00100000
00000000
00000000
00000000
00000000
00000000
00000000
00000000
00000000
00000000
00000000
10000000
00000000
00000000
01000000
00000000
,
00100000
00000000
00000000
00000000
00000000
00000000
00000000
00000000
00000000
00000000
00000000
00001000
00000000
00000000
01000000
00000000
,
00010000
00000000
00000000
00000000
00000000
00000000
00000000
00000000
00000000
00000000
00000000
00001000
00000000
00000000
00100000
00000000
,
01000000
00000000
00000000
00000000
00000000
10000000
00100000
00001000
,
00000100
00010000
00100000
10000000
00000000
00000000
00000000
00000000
,
10100000
00000000
00010000
01000000
00001000
00000000
00000001
00000000
,
00001001
00000000
00000100
00000010
00000001
00000000
00001000
00000000
,
00000010
00010000
00100000
01000000
00010000
00000000
00000100
00000000
,
00000001
00000000
00000000
00000010
00000000
00000000
00001000
00000000
01000000
00000000
00000000
00000000
00100000
00010000
10000000
00000000
,
01000000
00000000
00001000
00000010
00010000
00000000
00000100
00000000
,
00001000
00000000
00000000
00000010
00000000
00000000
00010000
00000000
10000000
00000000
00000000
00000000
01000000
00000000
00000000
00000000
,
00010000
00000010
00000001
00000100
00000110
00000000
00000001
00000000
,
00000010
00000000
00010000
00100000
01000000
00000000
10000000
00000000
,
10100000
00000000
00000000
00000000
10100000
00000000
00000000
00000000
00010000
00000000
00000000
00000010
00000000
00000000
00000001
00000000
,
00001000
00000000
00000000
00000000
00000010
00000000
00000000
00000000
00000100
00000000
00000000
00001000
00000000
00000000
01000000
00000000
,
10000000
00000000
00000000
00000000
00010000
00000000
00000000
00000000
00000100
00000000
00000000
00000010
00000000
00000000
00000001
00000000
,
00000100
00000000
00000000
00000000
00000010
00000000
00000000
00000000
00010000
00000000
00000000
01000000
00000000
00000000
10000000
00000000
,
00010000
00000000
00000000
00000000
01000000
00000000
00000000
00000000
10000000
00000000
00000000
00010000
00000000
00000000
01000000
00000000
,
00100000
00000000
00000000
00000000
10000000
00000000
00000000
00000000
01000000
00000000
00000000
00010000
00000000
00000000
10000000
00000000
,
01000000
00000000
00000000
00000000
00001000
00000000
00000000
00000000
00010000
00000000
00000000
00000100
00000000
00000000
00001000
00000000
,
01000000
00010000
00000100
00001100
;

//---------------dance-single - ----------------
#NOTEDATA:;
#CHARTNAME:;
#STEPSTYPE:dance-single;
#DESCRIPTION:;
#CHARTSTYLE:;
#DIFFICULTY:Beginner;
#METER:2;
#RADARVALUES:0.130506,0.212836,0.000000,0.019437,0.000000,94.000000,94.000000,0.000000,2.000000,0.000000,0.000000,0.000000,0.000000,0.000000,0.130506,0.212836,0.000000,0.019437,0.000000,94.000000,94.000000,0.000000,2.000000,0.000000,0.000000,0.000000,0.000000,0.000000;
#CREDIT:;
#DISPLAYBPM:130.000000;
#NOTES:
0000
0000
0000
0000
,
0000
0000
0000
0000
,
0000
0000
0000
0000
,
0000
0000
0000
0000
,
1000
1000
0000
0000
,
1000
1000
0000
0000
,
0001
0001
0000
0000
,
0001
0001
0000
0000
,
1000
0000
0100
0000
,
0001
0000
0001
0000
,
1000
0000
1000
0000
,
0001
0000
0001
0000
,
0100
0000
0001
0000
,
1000
0000
0100
0000
,
0001
0000
0010
0010
,
0010
0010
0010
0000
,
0001
0001
0001
0000
,
0010
0010
0010
0000
,
1000
1000
1000
0000
,
0100
0100
0100
0000
,
0010
0010
0010
0000
,
0100
0100
0100
0000
,
0100
0100
0100
0000
,
0010
0010
0010
0000
,
0000
1000
0000
0100
,
0000
0010
0000
0001
,
0000
1000
0000
0100
,
0000
1000
0000
0010
,
0000
0100
0000
0001
,
0000
1000
0000
0000
,
2000
0000
0000
3000
,
1000
0000
0000
0000
,
0001
0000
0000
0000
,
0100
0000
0000
0000
,
0010
0000
0000
0000
,
1000
0000
0000
0000
,
0100
0000
0000
0000
,
0010
0000
0000
0000
,
0001
0000
0000
0000
,
0000
1000
0000
0100
,
0000
0010
0000
0001
,
0000
1000
0000
0100
,
0000
1000
0000
0010
,
0000
0100
0000
0001
,
0000
1000
0000
0001
,
0000
0100
0000
0010
,
0000
1000
0000
0001
,
0001
0000
0000
0000
,
0001
0000
0000
0000
,
0100
0000
0000
0000
,
0010
0000
0000
0000
,
1000
0000
0000
0000
,
0100
0000
0000
0000
,
0010
0000
0000
0000
,
0002
0000
0000
0003
;
