#TITLE:Invisible Enemy;
#SUBTITLE:;
#ARTIST:Roughsketch;
#TITLETRANSLIT:;
#SUBTITLETRANSLIT:;
#ARTISTTRANSLIT:;
#GENRE:GABBA;
#CREDIT:;
#BANNER:Invisible Enemy-bn.png;
#BACKGROUND:Invisible Enemy-bg.png;
#LYRICSPATH:;
#CDTITLE:;
#MUSIC:INVISIBLE ENEMY.ogg;
#OFFSET:-0.019434;
#SAMPLESTART:31.111984;
#SAMPLELENGTH:12.000000;
#SELECTABLE:YES;
#BPMS:0.000000=92.500000
,32.000000=185.000000
,64.000000=370.000000
,192.000000=185.000000
,255.000000=370.000000
,385.000000=185.000000
;
#STOPS:
;
#BGCHANGES:;
#KEYSOUNDS:;
#ATTACKS:;

//---------------dance-single - ----------------
#NOTES:
     dance-single:
     :
     Challenge:
     17:
     0.877168,1.652608,0.658185,0.433017,0.368064,709.000000,633.000000,76.000000,50.000000,0.000000,0.000000,0.877168,1.652608,0.658185,0.433017,0.368064,709.000000,633.000000,76.000000,50.000000,0.000000,0.000000:
// measure 0
0000
0000
0000
0000
,  // measure 1
0000
0000
0000
0000
,  // measure 2
0000
0000
0000
0000
,  // measure 3
0000
0000
0000
0000
,  // measure 4
0001
0100
0010
0001
0100
0010
0001
0100
0010
0001
0100
0010
1000
0100
0010
0001
,  // measure 5
1000
0100
0010
1000
0100
0010
1000
0100
0010
1000
0100
0010
1000
0100
0010
0001
,  // measure 6
1000
0001
0100
1000
0001
0100
1000
0001
0100
1000
0001
0100
0001
0010
0100
1000
,  // measure 7
0001
1000
0100
0001
1000
0100
0001
1000
0100
0001
1000
0100
1000
0001
0100
0010
,  // measure 8
2002
0000
0000
0000
,  // measure 9
0000
0000
0000
0000
0000
0000
0000
0000
0000
0000
0000
0000
3003
0000
0001
2000
,  // measure 10
0002
0000
0000
3003
,  // measure 11
0001
0010
0100
1000
0000
0000
0000
0000
,  // measure 12
0001
0000
0000
1000
0001
0000
0000
0000
0100
0000
0000
0000
0010
0000
1000
0000
,  // measure 13
0000
0100
0000
0000
1000
0000
0001
0000
0010
0000
0000
0000
0001
0000
0000
0000
,  // measure 14
1000
0000
0000
0001
1000
0000
0000
0000
0010
0000
0100
0000
0001
0000
1000
0000
,  // measure 15
0000
0000
0000
0000
0000
0000
0000
0000
0000
0000
0001
1000
0001
0000
0000
0000
,  // measure 16
1001
0000
0010
0100
0010
0000
1010
0000
,  // measure 17
0001
0011
1000
1100
,  // measure 18
0001
0100
1000
0100
,  // measure 19
0001
0010
0100
0001
,  // measure 20
1001
0000
0010
0100
0010
0000
0011
0000
,  // measure 21
1000
1010
0001
0101
,  // measure 22
1000
0100
0001
0100
,  // measure 23
1000
0010
0110
1010
,  // measure 24
1001
0000
1000
0001
1000
0000
1100
0000
,  // measure 25
0001
0011
1000
1010
,  // measure 26
0001
0101
1000
0101
,  // measure 27
0001
1100
0001
1100
,  // measure 28
1001
0000
0110
1000
,  // measure 29
0100
0010
0002
0003
,  // measure 30
0110
0001
0100
0010
,  // measure 31
2000
0000
3000
0000
0200
0000
0302
0003
,  // measure 32
0011
0000
1000
0001
1000
0000
0010
0000
,  // measure 33
0100
1000
0100
0001
,  // measure 34
0010
0100
0010
0000
0001
1000
0001
0000
,  // measure 35
0100
0010
0100
0000
0010
1000
0010
0000
,  // measure 36
1001
0000
0001
1000
0001
0000
0010
0000
,  // measure 37
0100
0001
0100
1000
,  // measure 38
0001
0010
0100
0000
0010
0100
1000
0000
,  // measure 39
0001
0100
0010
0000
1001
0000
0000
0000
,  // measure 40
0101
0000
0000
1001
0000
0000
0011
0000
,  // measure 41
1100
0000
0000
1001
0000
0000
1010
0000
,  // measure 42
0110
0000
0000
0101
0000
0000
1010
0000
,  // measure 43
0011
0000
0000
1100
0000
0000
1001
0000
,  // measure 44
1000
0000
1000
0010
0100
0000
0001
0000
,  // measure 45
0001
0010
0100
0000
1000
0001
1000
0000
,  // measure 46
0001
0010
0100
1000
0010
0100
0001
1000
,  // measure 47
1000
0010
0100
0001
0010
0100
1000
0001
,  // measure 48
2000
0000
3020
0000
0230
0000
0302
0000
1003
0100
0001
0100
2000
0000
0000
0000
,  // measure 49
3001
0000
0000
0000
0100
0010
0100
0000
0001
0010
0100
0000
2000
0000
0000
0000
,  // measure 50
3001
0100
1000
0100
0001
0000
0020
0000
0130
1000
0010
0000
0200
0000
0000
0000
,  // measure 51
0302
0000
0000
0000
0013
0001
1000
0000
0010
0100
0001
0000
1000
0001
1000
0000
,  // measure 52
0002
0000
0023
0000
0230
0000
2300
0000
3001
0100
1000
0100
0002
0000
0000
0000
,  // measure 53
2003
0000
0000
0000
3100
0010
0100
0000
1000
0010
0100
0000
0002
0000
0000
0000
,  // measure 54
1003
0100
0001
0100
1000
0000
0020
0000
0130
0001
0010
0000
0200
0000
0320
0000
,  // measure 55
0031
0000
0100
0010
1000
0000
0100
0010
0001
0000
1000
0000
1000
0000
0000
0000
,  // measure 56
0201
0000
0320
0000
2030
0000
3002
0000
0013
0100
1000
0010
0200
0000
0000
0000
,  // measure 57
0302
0000
0000
0000
0013
0100
0010
0000
0001
0000
1000
0000
0020
0000
0000
0000
,  // measure 58
0130
0001
1000
0100
0010
0001
1000
0000
0020
0000
0230
0000
0302
0000
0000
0000
,  // measure 59
2003
0000
3000
0000
1000
0100
1000
0000
0001
0000
0010
0000
0110
0000
0000
0000
,  // measure 60
1200
0000
0320
0000
0032
0000
2003
0000
3010
0100
0001
0010
0200
0000
0000
0000
,  // measure 61
2300
0000
0000
0000
3010
0100
0010
0000
1000
0000
0001
0000
0020
0000
0000
0000
,  // measure 62
0130
1000
0001
0100
0010
1000
0001
0000
0020
0000
0230
0000
2300
0000
0000
0000
,  // measure 63
3001
0000
0000
1001
,  // measure 64
1001
0000
1001
0000
0010
1000
0010
0000
,  // measure 65
0100
0001
0010
0000
0100
0000
1000
0000
,  // measure 66
0001
0000
0010
0100
0010
0000
0001
0000
,  // measure 67
1000
0000
0010
0000
0010
0100
0001
0000
,  // measure 68
1000
0000
0100
0000
0010
0001
0010
0000
,  // measure 69
0100
1000
0010
0000
0100
0000
0001
0000
,  // measure 70
1000
0000
0010
0100
0010
0000
1000
0000
,  // measure 71
0001
0000
0010
0000
0010
0100
1000
0000
,  // measure 72
0001
0000
1000
0000
0010
0001
0010
0000
,  // measure 73
1000
0100
0010
0000
0001
0000
0100
0000
,  // measure 74
0010
0000
1000
0001
0010
0000
0100
0000
,  // measure 75
0010
0000
0001
0000
0001
1000
0100
0000
,  // measure 76
0010
0000
0001
0000
0010
1000
0010
0000
,  // measure 77
0001
0100
0010
0000
1000
0000
0100
0000
,  // measure 78
0010
0000
0001
1000
0010
0000
0100
0001
,  // measure 79
0010
0000
0100
1000
0001
0000
1001
0000
,  // measure 80
0000
0000
0010
0000
0001
0100
1000
0000
,  // measure 81
1000
0100
0001
0000
1000
0000
0010
0000
,  // measure 82
0100
0000
0001
0010
0100
0000
1000
0000
,  // measure 83
0001
1000
0010
1010
,  // measure 84
0000
0101
0000
0011
,  // measure 85
0000
1100
0000
1010
,  // measure 86
0000
1001
0100
0010
,  // measure 87
0100
0002
0000
0013
,  // measure 88
0000
0000
1000
0000
1000
0100
0001
0000
,  // measure 89
0110
0000
0001
0100
1000
0000
0110
0000
,  // measure 90
0000
0000
1001
0000
0010
1000
0001
0000
,  // measure 91
1001
0000
0010
0001
1000
0000
1001
0000
,  // measure 92
0000
0110
0101
0011
,  // measure 93
0110
0000
1100
0000
1001
0000
1000
0001
,  // measure 94
1000
0001
0000
0000
0000
0000
0000
0000
,  // measure 95
0000
0000
1000
0100
0010
0000
0110
0000
,  // measure 96
0000
0000
0000
0000
0001
0000
0000
0000
0101
0000
0000
1000
0010
0000
1000
0000
,  // measure 97
1100
0000
0000
0000
0001
0000
0000
0000
1100
0000
0000
1000
0001
0000
0001
0000
,  // measure 98
0101
0000
0000
0000
0001
0000
0000
0000
1100
0000
0000
0001
0010
0000
0001
0000
,  // measure 99
0101
0000
0000
0000
1000
0000
0000
0000
0101
0000
0000
0001
1000
0000
1000
0000
,  // measure 100
1100
0000
0000
0000
0010
0000
0000
0000
0101
0000
0000
0010
1000
0000
0010
0000
,  // measure 101
0110
0000
0000
0000
0001
0000
0000
0000
1100
0000
0000
0010
0001
0000
1000
0000
,  // measure 102
1100
0000
0000
0000
0010
0000
0000
0000
0101
0000
0000
0010
1000
0000
0010
0000
,  // measure 103
0110
0000
0000
0000
0000
0000
1000
0000
0001
0000
1000
0000
0001
0000
1000
0100
,  // measure 104
1000
0000
0001
0010
0100
0010
1000
0010
,  // measure 105
0100
0010
0001
0010
0100
1000
0010
1000
,  // measure 106
0001
0100
0010
1000
0010
0100
0010
0001
,  // measure 107
0010
0100
0010
1000
0100
0010
0001
1000
,  // measure 108
0100
0010
0010
1000
0010
0100
0010
0001
,  // measure 109
0010
0100
0010
0001
1000
0100
0001
0100
,  // measure 110
0010
0000
0001
0000
1000
0010
0001
0010
1000
0100
0010
0001
0100
0001
1000
0010
,  // measure 111
1000
0100
1000
0001
0100
0000
0010
0000
0001
0000
0010
0000
0100
0000
0010
0000
,  // measure 112
1000
0020
0030
0000
0000
0000
0000
0000
;

//---------------dance-single - ----------------
#NOTES:
     dance-single:
     :
     Hard:
     15:
     0.810360,1.652608,0.588903,0.129905,0.307442,655.000000,587.000000,68.000000,15.000000,0.000000,0.000000,0.810360,1.652608,0.588903,0.129905,0.307442,655.000000,587.000000,68.000000,15.000000,0.000000,0.000000:
// measure 0
0000
0000
0000
0000
,  // measure 1
0000
0000
0000
0000
,  // measure 2
0000
0000
0000
0000
,  // measure 3
0000
0000
0000
0000
,  // measure 4
0001
0100
0001
1000
0100
1000
0001
0100
0001
1000
0100
1000
0010
0100
0001
1000
,  // measure 5
0001
0010
0100
1000
0010
0100
0001
0010
0100
1000
0010
0100
0001
1000
0010
1000
,  // measure 6
0100
1000
0001
0100
0001
1000
0100
1000
0001
0100
0001
1000
0100
0010
0001
0100
,  // measure 7
0010
1000
0001
0010
0001
1000
0010
1000
0001
0010
0001
1000
0010
0100
0001
0010
,  // measure 8
0220
0000
0000
0000
,  // measure 9
0000
0000
0000
0000
0000
0000
0000
0000
0000
0000
0000
0000
0330
0000
1000
0002
,  // measure 10
2000
0000
0000
3003
,  // measure 11
1000
0010
0100
0001
0000
0000
0000
0000
,  // measure 12
1000
0000
0000
1000
0010
0000
0000
0000
1000
0000
0000
0000
0010
0000
0100
0000
,  // measure 13
0000
0100
0000
0000
0010
0000
1000
0000
0100
0000
0000
0000
1000
0000
0000
0000
,  // measure 14
0001
0000
0000
0001
0010
0000
0000
0000
0100
0000
1000
0000
0001
0000
0100
0000
,  // measure 15
0000
0000
0000
0000
0000
0000
0000
0000
0000
0000
0001
1000
0001
0000
0000
0000
,  // measure 16
1001
1000
0100
0001
,  // measure 17
0100
1000
0010
1010
,  // measure 18
0000
0011
0000
0101
,  // measure 19
0000
1100
1000
0001
,  // measure 20
0011
0001
0100
1000
,  // measure 21
0100
0001
1000
1010
,  // measure 22
0000
1001
0000
0011
,  // measure 23
0000
2001
0200
3300
,  // measure 24
0011
0001
0100
0001
,  // measure 25
1000
0010
0100
1010
,  // measure 26
0000
0101
0000
0011
,  // measure 27
0000
1100
0010
0001
,  // measure 28
0101
0000
1010
0010
,  // measure 29
0100
0001
1000
0000
,  // measure 30
0011
0010
0100
1000
,  // measure 31
0001
0000
2000
3200
,  // measure 32
0301
0100
0010
0001
,  // measure 33
1000
0000
0010
0000
0100
0001
0100
0000
,  // measure 34
0000
0101
0000
1010
,  // measure 35
0000
1100
1000
0001
,  // measure 36
0010
0100
1000
0010
,  // measure 37
0001
0000
0010
0000
1000
0001
1000
0000
,  // measure 38
0000
0011
0000
0110
,  // measure 39
0100
1000
0200
0300
,  // measure 40
0011
0000
0000
0101
0000
0000
1001
0000
,  // measure 41
1001
0000
0000
1100
0000
0000
1001
0000
,  // measure 42
1001
0000
0000
1010
0000
0000
0110
0000
,  // measure 43
0101
0000
0000
0011
0000
0000
0110
0000
,  // measure 44
1000
0000
0010
0100
0010
0000
1000
0000
,  // measure 45
0001
1000
0001
0000
0010
0000
0100
1000
,  // measure 46
0100
0010
0000
0001
0100
0000
0010
0100
,  // measure 47
0001
0100
0000
0010
1000
0000
0100
0000
,  // measure 48
1002
0000
0013
0100
1000
0010
0100
0000
,  // measure 49
0001
0000
1000
0100
1000
0001
0010
0000
,  // measure 50
0100
1000
0100
0000
0010
0001
0010
0000
0100
0000
1000
0000
0001
0000
0000
0000
,  // measure 51
2001
0000
0000
0000
3010
0000
0100
0000
0010
0000
1000
0000
0001
0100
0001
0000
,  // measure 52
1000
0000
0000
0000
0010
0000
0100
0000
0001
1000
0001
1000
0001
0000
0000
0000
,  // measure 53
0010
0000
0100
0000
1000
0001
1000
0000
0010
0100
0010
0000
1000
0000
0000
0000
,  // measure 54
0001
0100
0001
0100
0001
0000
0100
0001
0100
0001
0100
0000
0010
0100
0000
0000
,  // measure 55
1010
0000
0001
0000
0002
0003
1000
0000
2000
3000
0000
0000
0000
0000
0000
0000
,  // measure 56
0110
0000
0001
0000
0010
0000
0100
0000
1000
0001
1000
0001
1000
0000
0000
0000
,  // measure 57
0011
0000
0000
0000
0100
1000
0001
0000
1000
0000
0100
0000
0010
0000
0000
0000
,  // measure 58
1000
0001
1000
0001
1000
0001
1000
0000
0010
0000
0100
0000
0001
0000
0000
0000
,  // measure 59
1001
0000
0000
0000
0100
0010
0100
0000
1000
0000
0001
0000
0001
0000
0000
0000
,  // measure 60
0110
0000
0001
0000
0100
0000
0010
0000
1000
0010
1000
0010
1000
0000
0000
0000
,  // measure 61
0001
0000
0100
0000
0010
0100
0001
0000
1000
0000
0100
0000
0010
0000
0000
0000
,  // measure 62
0001
1000
0001
1000
0001
1000
0001
0000
1000
0000
0010
0000
0100
0000
0001
0000
,  // measure 63
1000
0000
0000
1001
,  // measure 64
1001
0000
1001
0000
0010
1000
0010
0000
,  // measure 65
0100
0001
0010
0000
0100
0000
1000
0000
,  // measure 66
0001
0000
0010
0100
0010
0000
0001
0000
,  // measure 67
1000
0000
0010
0000
0010
0100
0001
0000
,  // measure 68
1000
0000
0100
0000
0010
0001
0010
0000
,  // measure 69
0100
1000
0010
0000
0100
0000
0001
0000
,  // measure 70
1000
0000
0010
0100
0010
0000
1000
0000
,  // measure 71
0001
0000
0010
0000
0010
0100
1000
0000
,  // measure 72
0001
0000
1000
0000
0010
0001
0010
0000
,  // measure 73
1000
0100
0010
0000
0001
0000
0100
0000
,  // measure 74
0010
0000
1000
0001
0010
0000
0100
0000
,  // measure 75
0010
0000
0001
0000
0001
1000
0100
0000
,  // measure 76
0010
0000
0001
0000
0010
1000
0010
0000
,  // measure 77
0001
0100
0010
0000
1000
0000
0100
0000
,  // measure 78
0010
0000
0001
1000
0010
0000
0100
0001
,  // measure 79
0010
0000
0100
1000
0001
0000
1001
0000
,  // measure 80
0000
0000
0010
0000
0001
0100
1000
0000
,  // measure 81
1000
0100
0001
0000
1000
0000
0010
0000
,  // measure 82
0100
0000
0001
0010
0100
0000
1000
0000
,  // measure 83
0001
1000
0010
1010
,  // measure 84
0000
0101
0000
0011
,  // measure 85
0000
1100
0000
1010
,  // measure 86
0000
1001
0100
0010
,  // measure 87
0100
0002
0000
0013
,  // measure 88
0000
0000
1000
0000
0001
0100
0001
0000
,  // measure 89
1000
0000
0001
0100
0001
0000
1000
0000
,  // measure 90
0000
0000
0001
0000
1000
0100
1000
0000
,  // measure 91
0001
0000
1000
0100
1000
0000
0001
0000
,  // measure 92
0000
0010
0100
1000
,  // measure 93
0010
0000
0100
0000
0001
0000
1000
0001
,  // measure 94
1000
0001
0000
0000
0000
0000
0000
0000
,  // measure 95
0000
0000
1000
0001
1000
0000
0110
0000
,  // measure 96
0000
0000
0001
0000
0101
0000
1000
1000
,  // measure 97
0101
0000
0001
0000
1100
0000
0001
0001
,  // measure 98
1100
0000
0010
0000
1001
0000
0100
0100
,  // measure 99
1001
0000
0010
0000
1001
0000
0100
0100
,  // measure 100
1010
0000
0001
0000
0011
0000
1000
1000
,  // measure 101
1100
0000
0010
0000
1100
0000
0001
0001
,  // measure 102
0101
0000
1000
0000
1010
0000
0010
0010
,  // measure 103
1010
0000
0000
0000
0000
0000
0001
0000
0100
0000
0001
0000
1000
0000
0001
0010
,  // measure 104
0100
0000
1000
0100
0010
0100
0001
0100
,  // measure 105
0010
0100
1000
0010
0100
0001
1000
0010
,  // measure 106
1000
0001
0001
0100
0010
0100
1000
0100
,  // measure 107
0010
0100
0001
1000
0100
1000
0001
0010
,  // measure 108
0100
1000
1000
0100
0100
0010
0010
0001
,  // measure 109
0001
1000
1000
0010
0010
0100
0100
0001
,  // measure 110
0001
0000
1000
0000
0100
0010
0100
0010
0001
1000
0001
1000
0010
0100
0010
0100
,  // measure 111
0001
0100
0001
0100
0010
0000
1000
0000
0100
0000
0001
0000
1000
0000
0010
0000
,  // measure 112
0001
0200
0300
0000
0000
0000
0000
0000
;

//---------------dance-single - ----------------
#NOTES:
     dance-single:
     :
     Medium:
     13:
     0.643339,1.604002,0.181867,0.103924,0.164546,520.000000,499.000000,21.000000,12.000000,0.000000,0.000000,0.643339,1.604002,0.181867,0.103924,0.164546,520.000000,499.000000,21.000000,12.000000,0.000000,0.000000:
// measure 0
0000
0000
0000
0000
,  // measure 1
0000
0000
0000
0000
,  // measure 2
0000
0000
0000
0000
,  // measure 3
0000
0000
0000
0000
,  // measure 4
0001
0010
0100
1000
0010
0100
0001
0010
0100
1000
0010
0100
0001
0100
0001
0100
,  // measure 5
0010
1000
0001
0010
0001
1000
0010
1000
0001
0010
0001
1000
0100
1000
0100
1000
,  // measure 6
0010
0100
0001
0010
0100
1000
0010
0100
0001
0010
0100
1000
0001
0010
0001
0010
,  // measure 7
0100
1000
0001
0100
0001
1000
0100
1000
0001
0100
0001
1000
0100
0010
0001
2000
,  // measure 8
0002
0000
0000
0000
,  // measure 9
0000
0000
0000
0000
0000
0000
0000
0000
0000
0000
0000
0000
3003
0000
0001
2000
,  // measure 10
0002
0000
0000
3003
,  // measure 11
0001
0100
0010
1000
0000
0000
0000
0000
,  // measure 12
0100
0000
0000
0100
0010
0000
0000
0000
0001
0000
0000
0000
0100
0000
0010
0000
,  // measure 13
0000
0010
0000
0000
1000
0000
0001
0000
1000
0000
0000
0000
0100
0000
0000
0000
,  // measure 14
0010
0000
0000
0010
0001
0000
0000
0000
1000
0000
0100
0000
1000
0000
0001
0000
,  // measure 15
0000
0000
0000
0000
0000
0000
0000
0000
0000
0000
1000
0001
1000
0000
0000
0000
,  // measure 16
0001
0100
1000
0100
,  // measure 17
0001
0010
0100
1000
,  // measure 18
0000
1000
0000
0001
,  // measure 19
0010
0001
0100
0010
,  // measure 20
1000
0001
1000
0100
,  // measure 21
0010
0001
0100
0010
,  // measure 22
0000
0010
0000
0001
,  // measure 23
0100
0002
1003
0000
,  // measure 24
1000
0100
0001
0100
,  // measure 25
1000
0010
0100
0001
,  // measure 26
0000
0001
0000
0100
,  // measure 27
0001
0010
0100
1000
,  // measure 28
0001
0000
1001
0000
,  // measure 29
1000
0010
0100
0000
,  // measure 30
1001
0000
0001
0010
,  // measure 31
0100
0000
1000
1000
,  // measure 32
0100
0000
0010
0001
,  // measure 33
0100
0010
1000
0001
,  // measure 34
0000
0101
0000
1000
,  // measure 35
0000
0101
0001
0010
,  // measure 36
0100
1000
0100
0010
,  // measure 37
0001
1000
0100
1000
,  // measure 38
0000
1100
0000
0001
,  // measure 39
0010
0100
1000
0000
,  // measure 40
0010
0000
0000
0010
0000
0000
0100
0000
,  // measure 41
0001
0000
0000
0001
0000
0000
1000
0000
,  // measure 42
0100
0000
0000
0010
0000
0000
0001
0000
,  // measure 43
1000
0000
0000
0010
0000
0000
0100
0000
,  // measure 44
0010
1000
0100
0001
,  // measure 45
0010
0001
1000
0010
,  // measure 46
0100
0000
0000
0100
0000
0000
0010
0000
,  // measure 47
1000
0000
0000
1000
0000
0000
0001
0000
,  // measure 48
0100
0000
1010
0000
0001
0100
0010
0000
,  // measure 49
1010
0000
0001
0100
0010
0000
1000
0000
,  // measure 50
0001
0010
0001
1000
0100
1000
0001
0000
,  // measure 51
1000
0000
1000
0100
0001
0000
1000
0000
,  // measure 52
0100
0000
0011
0000
1000
0100
0010
0000
,  // measure 53
0011
0000
1000
0100
0010
0000
0001
0000
,  // measure 54
1000
0010
1000
0001
0100
0001
1000
0000
,  // measure 55
0001
0000
0001
0100
1000
0000
0001
0000
,  // measure 56
0110
0000
1000
0000
0001
1000
0100
0000
,  // measure 57
0110
0000
0001
0000
1000
0001
0100
0000
,  // measure 58
0010
1000
0100
1000
0001
0100
0010
0000
,  // measure 59
2000
0100
0001
3010
,  // measure 60
0001
0010
0001
0000
1000
0010
1000
0000
,  // measure 61
0001
0100
0001
0000
1000
0100
1000
0000
,  // measure 62
0001
0010
0100
1000
0001
1000
0010
0100
,  // measure 63
0000
0000
0000
0001
,  // measure 64
1000
0000
0001
0000
0000
0001
0010
0000
,  // measure 65
0000
0100
1000
0001
,  // measure 66
0010
0000
0000
0010
0000
0000
0100
0000
,  // measure 67
1000
0000
0001
0000
0000
0001
0100
0000
,  // measure 68
0000
0000
0010
0000
0000
1000
0001
0000
,  // measure 69
0000
0010
0100
1000
,  // measure 70
0100
0000
0000
0100
0000
0000
0010
0000
,  // measure 71
0001
0000
1000
0000
0000
0001
0010
0000
,  // measure 72
0100
0000
1000
0000
0000
1000
0010
0000
,  // measure 73
0000
0100
0001
1000
,  // measure 74
0010
0000
0000
0010
0000
0000
0100
0000
,  // measure 75
0001
0000
1000
0000
0000
1000
0100
0000
,  // measure 76
0000
0000
0010
0000
0000
0001
1000
0000
,  // measure 77
0000
0010
0100
0001
,  // measure 78
0100
0000
0010
0100
0010
0000
0100
0001
,  // measure 79
0100
0000
0001
1000
0001
0000
1000
0000
,  // measure 80
0000
1100
0100
0010
,  // measure 81
0001
0101
0100
0010
,  // measure 82
1000
1010
0010
1000
,  // measure 83
0001
1001
1000
0200
,  // measure 84
0300
0011
0000
1100
,  // measure 85
0000
1001
0000
0101
,  // measure 86
0000
0110
1000
0001
,  // measure 87
1000
0001
0000
0110
,  // measure 88
0000
0000
1000
0000
0001
0100
0001
0000
,  // measure 89
1000
0000
0001
0100
0001
0000
1000
0000
,  // measure 90
0000
0000
0001
0000
1000
0100
1000
0000
,  // measure 91
0001
0000
1000
0100
1000
0000
0001
0000
,  // measure 92
0000
0010
0100
1000
,  // measure 93
0100
0000
0010
0000
0001
0000
1000
0001
,  // measure 94
1000
0001
0000
0000
0000
0000
0000
0000
,  // measure 95
0000
0000
1000
0001
1000
0000
0001
0000
,  // measure 96
0000
0000
1000
0000
0010
0000
0100
0001
,  // measure 97
0010
0000
0100
0000
1000
0000
0001
1000
,  // measure 98
0100
0000
0010
0000
0001
0000
1000
0001
,  // measure 99
0100
0000
0010
0000
1000
0000
0001
0100
,  // measure 100
0010
0000
1000
0000
0100
0000
0010
0001
,  // measure 101
1000
0000
0100
0000
1000
0000
0001
0100
,  // measure 102
0010
0000
1000
0000
0001
0000
0100
0010
,  // measure 103
1000
0000
0000
0000
0000
0000
0010
0000
0100
0000
0010
0000
0100
0000
0001
1000
,  // measure 104
0001
0000
0010
0001
0010
0001
0010
1000
,  // measure 105
0010
1000
0010
0001
0100
0010
1000
0100
,  // measure 106
1000
0001
0001
0100
0001
0100
1000
0100
,  // measure 107
1000
0100
0001
1000
0100
0010
1000
0010
,  // measure 108
0001
1000
1000
0100
0100
0010
0010
0001
,  // measure 109
0001
1000
1000
0010
0010
0100
0100
0001
,  // measure 110
0001
1000
0200
0000
0320
0000
0032
0000
,  // measure 111
2003
0000
3010
0100
0010
1000
0010
0001
,  // measure 112
0010
0200
0300
0000
0000
0000
0000
0000
;

//---------------dance-single - ----------------
#NOTES:
     dance-single:
     :
     Easy:
     10:
     0.492402,0.825384,0.458998,0.242489,0.000000,398.000000,345.000000,53.000000,28.000000,0.000000,0.000000,0.492402,0.825384,0.458998,0.242489,0.000000,398.000000,345.000000,53.000000,28.000000,0.000000,0.000000:
// measure 0
0000
0000
0000
0000
,  // measure 1
0000
0000
0000
0000
,  // measure 2
0000
0000
0000
0000
,  // measure 3
0000
0000
0000
0000
,  // measure 4
2002
0000
0000
0003
,  // measure 5
0200
0000
0000
3000
,  // measure 6
0020
0000
0000
0300
,  // measure 7
0002
0000
0000
0033
,  // measure 8
1001
0000
0000
0000
,  // measure 9
0000
0000
0000
0000
,  // measure 10
0020
0000
0000
0000
,  // measure 11
0130
0010
0100
0010
0000
0000
0000
0000
,  // measure 12
0002
0000
0000
0000
,  // measure 13
0000
0000
0000
0000
,  // measure 14
2000
0000
0000
0000
,  // measure 15
3003
0000
0000
0000
,  // measure 16
0101
0000
0010
0000
,  // measure 17
1000
0100
0001
0000
,  // measure 18
1100
0000
0010
0000
,  // measure 19
0001
0100
1000
0000
,  // measure 20
0110
0000
0001
0000
,  // measure 21
1000
0100
0001
0000
,  // measure 22
0110
0000
1000
0000
,  // measure 23
0001
0100
1000
0000
,  // measure 24
1010
0000
0100
0000
,  // measure 25
0001
0010
0100
0000
,  // measure 26
0011
0000
0100
0000
,  // measure 27
1000
0010
0100
0000
,  // measure 28
1010
0000
0101
0000
,  // measure 29
0001
1000
0001
0000
,  // measure 30
1100
0000
1000
0001
,  // measure 31
1000
0000
0110
0000
,  // measure 32
1001
0000
0101
0000
,  // measure 33
1000
0100
1000
0100
,  // measure 34
0000
0010
0000
0010
,  // measure 35
0000
0001
1000
0100
,  // measure 36
1000
0000
0101
0000
,  // measure 37
0010
1000
0010
1000
,  // measure 38
0000
0001
0000
0001
,  // measure 39
0100
0010
0100
0000
,  // measure 40
0001
0000
0000
1000
0000
0000
0100
0000
,  // measure 41
0010
0000
0000
0001
0000
0000
0100
0000
,  // measure 42
0010
0000
0000
1000
0000
0000
0100
0000
,  // measure 43
1000
0000
0000
0001
0000
0000
0010
0000
,  // measure 44
0100
1000
0100
0000
,  // measure 45
0010
0001
0010
0000
,  // measure 46
0001
0100
0001
0000
,  // measure 47
1000
0010
1000
0000
,  // measure 48
0020
0100
1000
0130
,  // measure 49
0001
0000
1000
0000
0001
1000
0001
0000
,  // measure 50
0020
0100
0001
0130
,  // measure 51
1000
0001
1000
0000
0001
1000
0001
0000
,  // measure 52
0020
0000
0130
0000
1000
0001
1000
0000
,  // measure 53
0020
0000
0130
0000
0001
1000
0001
0000
,  // measure 54
0200
0000
0310
0200
0000
0310
0200
0000
,  // measure 55
0301
0000
1000
0100
0001
0000
1000
0000
,  // measure 56
0110
0001
0100
1000
,  // measure 57
0110
1000
0100
0001
,  // measure 58
0110
0001
0100
1000
,  // measure 59
0110
0000
1000
0001
0200
0000
0310
0000
,  // measure 60
0001
0000
1000
0100
1000
0000
0020
0000
,  // measure 61
0130
0001
1000
0200
,  // measure 62
0310
0001
0010
0000
0100
1000
0100
0000
,  // measure 63
0020
0000
0000
0031
,  // measure 64
0100
0010
0000
1010
,  // measure 65
0000
1100
0000
1001
,  // measure 66
0000
0101
0000
0011
,  // measure 67
0000
1002
0000
0100
,  // measure 68
0000
1003
0000
1010
,  // measure 69
0000
1100
0000
0101
,  // measure 70
0000
0011
0000
0101
,  // measure 71
0000
1100
0000
2010
,  // measure 72
0000
3001
0000
0101
,  // measure 73
0000
0110
0000
1010
,  // measure 74
0000
1100
0000
0110
,  // measure 75
0000
0011
0000
2001
,  // measure 76
0000
3100
0000
1010
,  // measure 77
0000
0101
0000
0011
,  // measure 78
0000
2001
0000
0100
,  // measure 79
0000
0001
0000
3100
,  // measure 80
0000
0011
0000
0001
,  // measure 81
0000
0100
0010
0100
,  // measure 82
0000
1100
0000
0100
,  // measure 83
0000
0010
0100
0010
,  // measure 84
0000
1001
0000
1010
,  // measure 85
0000
1001
0000
1010
,  // measure 86
0000
0001
1000
0001
,  // measure 87
1000
0001
0000
0100
,  // measure 88
0000
0110
0000
1000
,  // measure 89
0100
0000
1000
0100
,  // measure 90
0000
1001
0000
0001
,  // measure 91
0100
0000
0001
0100
,  // measure 92
0000
0010
1000
0010
,  // measure 93
1000
0010
0100
0002
,  // measure 94
0000
1003
0000
0000
,  // measure 95
0000
0010
0010
0110
,  // measure 96
0000
0000
1000
0000
0100
0000
0001
0001
,  // measure 97
0100
0000
1000
0000
0100
0000
0001
0001
,  // measure 98
0100
0000
1000
0000
0100
0000
0001
0001
,  // measure 99
0100
0000
1000
0000
0100
0000
0001
0001
,  // measure 100
0100
0000
0001
0000
0100
0000
1000
1000
,  // measure 101
0100
0000
0001
0000
0100
0000
1000
1000
,  // measure 102
0100
0000
0001
0000
0100
0000
1000
1000
,  // measure 103
0100
0000
0000
1000
0001
1000
0001
0000
,  // measure 104
0101
0000
0010
0001
0010
0001
0010
0001
,  // measure 105
0010
0001
0010
0001
0010
0001
0010
0001
,  // measure 106
0010
0001
1000
0100
1000
0100
1000
0100
,  // measure 107
1000
0100
1000
0100
1000
0100
1000
0100
,  // measure 108
1000
0100
0010
0001
0010
0001
0010
0001
,  // measure 109
0010
0001
1000
0100
1000
0100
1000
0100
,  // measure 110
1000
0100
0020
0000
0032
0000
0203
0000
,  // measure 111
2300
0000
3010
0100
0010
0100
0010
0100
,  // measure 112
0010
0100
0000
0000
0000
0000
0000
0000
;

//---------------dance-single - ----------------
#NOTES:
     dance-single:
     :
     Beginner:
     6:
     0.299400,0.824464,0.129905,0.112584,0.000000,242.000000,227.000000,15.000000,13.000000,0.000000,0.000000,0.299400,0.824464,0.129905,0.112584,0.000000,242.000000,227.000000,15.000000,13.000000,0.000000,0.000000:
// measure 0
0000
0000
0000
0000
,  // measure 1
0000
0000
0000
0000
,  // measure 2
0000
0000
0000
0000
,  // measure 3
0000
0000
0000
0000
,  // measure 4
0020
0000
0000
0000
,  // measure 5
0030
0000
0000
0000
,  // measure 6
0200
0000
0000
0000
,  // measure 7
0300
0000
0000
0000
,  // measure 8
2002
0000
0000
0000
,  // measure 9
3003
0000
0000
0000
,  // measure 10
0002
0000
0003
0000
,  // measure 11
1000
0010
0100
0000
,  // measure 12
0010
1000
0100
0000
,  // measure 13
0010
0001
0100
0000
,  // measure 14
0010
0010
0010
0000
,  // measure 15
2002
0000
3003
0000
,  // measure 16
0001
0000
0001
0000
,  // measure 17
0100
0000
0100
0000
,  // measure 18
0001
0000
0001
0000
,  // measure 19
0100
0001
0100
0000
,  // measure 20
0010
0000
0010
0000
,  // measure 21
1000
0000
1000
0000
,  // measure 22
0010
0000
0010
0000
,  // measure 23
1000
0100
1000
0000
,  // measure 24
0001
0000
0001
0000
,  // measure 25
0010
0000
0010
0000
,  // measure 26
0100
0000
0100
0000
,  // measure 27
0010
0001
0010
0000
,  // measure 28
0100
0000
1000
0000
,  // measure 29
0001
0000
0001
0000
,  // measure 30
1000
0000
0010
0000
,  // measure 31
0200
0000
0300
0000
,  // measure 32
0010
0000
1000
0000
,  // measure 33
0001
0000
0001
0000
,  // measure 34
1000
0000
0100
0000
,  // measure 35
0010
0000
0010
0000
,  // measure 36
0100
0000
1000
0000
,  // measure 37
0001
0000
0001
0000
,  // measure 38
1000
0000
0100
0000
,  // measure 39
0010
0000
0010
0000
,  // measure 40
0001
0000
0000
0000
,  // measure 41
0001
0000
0000
0000
,  // measure 42
1000
0000
0000
0000
,  // measure 43
1000
0000
0000
0000
,  // measure 44
0010
0000
0001
0000
,  // measure 45
0100
0000
1000
0000
,  // measure 46
0010
0000
1000
0000
,  // measure 47
0100
0000
0010
0000
,  // measure 48
0002
0003
0001
0000
,  // measure 49
1000
0000
1000
0000
,  // measure 50
0020
0030
0010
0000
,  // measure 51
0100
0000
0100
0000
,  // measure 52
0001
0000
0001
0000
,  // measure 53
0010
0000
0010
0000
,  // measure 54
0100
0000
1000
0000
,  // measure 55
0001
0001
0001
0000
,  // measure 56
1000
1000
1000
1000
,  // measure 57
0001
0001
0001
0001
,  // measure 58
0010
0010
0010
0010
,  // measure 59
0100
0100
0100
0100
,  // measure 60
1000
0100
0001
0010
,  // measure 61
1000
0100
0001
0010
,  // measure 62
1000
0100
0010
0001
,  // measure 63
0200
0300
0000
0001
,  // measure 64
0000
0001
0000
1000
,  // measure 65
0000
1000
0000
0010
,  // measure 66
0000
0010
0000
0100
,  // measure 67
0000
0100
0000
1000
,  // measure 68
0010
1000
0000
0001
,  // measure 69
0000
0001
0000
0010
,  // measure 70
0000
0010
0000
0100
,  // measure 71
0000
0100
0000
0001
,  // measure 72
0010
0001
0000
0100
,  // measure 73
0000
0100
0000
0010
,  // measure 74
0000
0010
0000
1000
,  // measure 75
0000
1000
0000
0100
,  // measure 76
0000
0100
0000
0010
,  // measure 77
0000
0010
0000
0001
,  // measure 78
0000
1000
0000
0001
,  // measure 79
0000
1000
0000
1001
,  // measure 80
0000
0110
0000
0100
,  // measure 81
0000
0100
0000
0100
,  // measure 82
0000
0010
0000
0010
,  // measure 83
0000
0010
0000
0010
,  // measure 84
0000
1000
0000
0001
,  // measure 85
0000
1000
0000
0001
,  // measure 86
0000
1000
0001
1000
,  // measure 87
0001
1000
0000
0000
,  // measure 88
0000
0001
0000
0000
,  // measure 89
0001
0000
0000
0001
,  // measure 90
0000
1000
0000
0000
,  // measure 91
1000
0000
0000
1000
,  // measure 92
0000
0010
0000
0001
,  // measure 93
0000
0100
0000
1000
,  // measure 94
0000
0020
0000
0000
,  // measure 95
0000
0000
0000
0030
,  // measure 96
0000
1001
0000
1000
,  // measure 97
0000
0001
0000
0001
,  // measure 98
0000
0010
0000
0010
,  // measure 99
0000
0100
0000
0100
,  // measure 100
0000
1000
0000
1000
,  // measure 101
0000
0001
0000
0001
,  // measure 102
0000
0100
0000
0100
,  // measure 103
0000
0010
0000
0000
,  // measure 104
0000
1000
1100
0100
,  // measure 105
0000
0010
0001
0100
,  // measure 106
0010
0101
1000
0010
,  // measure 107
0100
0001
0010
0100
,  // measure 108
1000
1100
1100
1100
,  // measure 109
1100
0101
0101
0101
,  // measure 110
0101
0020
0000
0000
,  // measure 111
0000
0000
0000
0000
,  // measure 112
0030
0000
0000
0000
;
