#VERSION:0.83;
#TITLE:INNOCENCE OF SILENCE;
#SUBTITLE:(Cube--Hard's Not So Innocent Remix);
#ARTIST:nc feat. NRG FACTORY;
#TITLETRANSLIT:;
#SUBTITLETRANSLIT:;
#ARTISTTRANSLIT:;
#GENRE:Drum'n Bass;
#ORIGIN:;
#CREDIT:;
#BANNER:INNOCENCE OF SILENCE (Cube--Hard's Not So Innocent Mix)-bn.png;
#BACKGROUND:INNOCENCE OF SILENCE (Cube--Hard's Not So Innocent Mix)-bg.png;
#PREVIEWVID:;
#JACKET:INNOCENCE OF SILENCE (Cube--Hard's Not So Innocent Mix)-jacket.png;
#CDIMAGE:;
#DISCIMAGE:;
#LYRICSPATH:;
#CDTITLE:;
#MUSIC:Innocence Of Silence (Cube-Hard's Not So Innocent Remix).ogg;
#OFFSET:-1.103418;
#SAMPLESTART:56.229000;
#SAMPLELENGTH:12.000000;
#SELECTABLE:YES;
#BPMS:0.000=174.000,
64.000=87.000,
80.000=174.000;
#STOPS:;
#DELAYS:;
#WARPS:;
#TIMESIGNATURES:0.000=4=4;
#TICKCOUNTS:0.000=4;
#COMBOS:0.000=1;
#SPEEDS:0.000=1.000=0.000=0;
#SCROLLS:0.000=1.000;
#FAKES:;
#LABELS:0.000=Song Start;
#BGCHANGES:;
#KEYSOUNDS:;
#ATTACKS:
;

//---------------dance-single - ----------------
#NOTEDATA:;
#CHARTNAME:;
#STEPSTYPE:dance-single;
#DESCRIPTION:;
#CHARTSTYLE:;
#DIFFICULTY:Hard;
#METER:13;
#RADARVALUES:0.590699,0.666594,0.451079,0.150360,0.442726,495.000000,441.000000,54.000000,18.000000,0.000000,0.000000,0.000000,0.000000,0.000000,0.590699,0.666594,0.451079,0.150360,0.442726,495.000000,441.000000,54.000000,18.000000,0.000000,0.000000,0.000000,0.000000,0.000000;
#CREDIT:;
#NOTES:
0000
0000
0000
0000
,
0000
0000
0000
0000
,
0000
0000
0000
0000
,
0000
0000
0000
0000
,
0000
0000
0000
0000
,
0000
0000
0000
0000
,
0000
0000
0000
0000
,
0000
0000
0000
0000
,
1000
0000
0010
0000
1000
0000
0001
1000
0000
0100
0000
0100
0000
0000
1000
0000
,
0001
0000
0010
0000
0001
0000
1000
0001
0000
0100
0000
0100
0000
0000
0001
0000
,
1000
0000
0100
0000
1000
0000
0001
0010
0000
0001
0000
0001
0000
0000
1000
0000
,
0100
0000
1000
0000
0001
0000
1000
0010
0000
1000
0000
1000
0000
0000
0001
0000
,
0100
0000
0010
0000
1000
0000
0100
1000
0000
0001
0000
0001
0000
0000
1000
0000
,
0100
0000
1000
0000
0010
0000
0100
0001
0000
1000
0000
1000
0000
0000
0001
0000
,
0010
0000
0001
0000
1000
0000
0100
0010
0000
0100
0000
0100
0000
0000
0010
0000
,
0220
0000
0000
0330
,
0001
0000
1000
0100
0000
0000
0000
0000
0000
0001
0100
0001
0000
1000
0100
1000
,
0000
0001
0100
0010
0000
0000
0000
0000
0010
1000
0001
0010
0000
0100
1000
0001
,
0000
1000
0100
0010
0000
0000
0000
0000
0010
0001
0010
0100
0000
1000
0010
1000
,
0000
0001
0100
0010
0000
0000
0000
0000
1000
0100
0010
0001
0000
0010
0100
1000
,
0010
0000
1010
0000
0001
0100
0010
0000
,
1000
0000
0000
0000
1100
0000
0000
0001
0010
0000
0001
0000
1000
0000
0000
0000
,
0100
0000
0011
0000
1000
0100
0010
0000
,
0001
0000
0000
0000
0101
0000
0000
1000
0010
0000
1000
0000
0001
0000
0000
0000
,
0100
0000
1010
0000
0001
1000
0100
0000
,
0010
0000
0000
0000
0011
0000
0000
1000
0100
0000
1000
0000
0010
0000
0000
0000
,
0100
0000
0011
0000
1000
0001
0100
0000
,
0010
1000
2010
0010
3000
0001
0011
0000
,
1000
0100
0000
0010
0000
0001
0000
1000
,
0000
0010
0000
0100
0000
1001
0000
0110
,
0000
0000
0001
0010
0000
0000
0010
0100
0000
0000
1000
0010
0000
0000
0010
0100
,
0000
0000
0001
1000
0000
0000
1000
0100
0000
0000
1001
0000
0000
0000
0110
0000
,
0000
0000
1000
0100
0000
0000
0100
0010
0000
0000
0001
0100
0000
0000
0100
0010
,
0000
0000
1000
0001
0000
0000
0001
0100
0000
0000
0100
0010
0000
1000
0001
1000
,
0000
0000
0100
0010
0000
0000
0010
0001
0000
0000
0001
1000
0000
0000
1000
0010
,
0000
0000
0010
0100
0000
0000
0100
0001
0000
0000
1001
0000
0000
0000
0200
0000
,
0010
0000
2000
0000
3000
0020
0000
0030
,
0002
0000
0003
0020
0000
0000
0330
0000
,
0001
0000
0000
0000
1100
0000
0000
0101
0000
0000
1100
0000
0000
0101
0000
0000
,
0010
0000
0000
0000
0101
0000
0000
1100
0000
0000
0101
0000
0000
1100
0000
0000
,
0010
0010
0200
0000
0000
2300
0000
0000
,
3020
0000
0000
0200
0000
0000
0330
0000
,
0002
0000
0000
0000
0103
0000
0000
0100
0000
0000
0010
0000
0000
1000
0000
0000
,
0101
0000
0000
1100
0000
0000
1001
0000
0010
0000
0001
0000
0100
0000
0000
0000
,
0001
0010
0100
0001
0100
0010
0001
0100
,
0010
0001
0010
1000
0001
0001
0100
0000
,
1000
0000
0010
0000
1000
0000
0000
1010
0000
0000
0001
0000
0000
0011
0000
0000
,
1001
0000
0000
0000
0001
0000
0000
0011
0000
0000
1000
0000
0000
1010
0000
0000
,
1000
0010
0100
1000
0100
0010
1000
0100
,
0010
1000
0010
0001
1000
1000
0100
0000
,
0110
0000
0001
0001
1001
1000
0100
0000
,
0110
0000
1000
1000
1001
0001
0100
0000
,
1010
0001
1000
0100
0010
0001
0100
0010
,
1000
1000
0100
0010
0010
0001
1000
0000
,
0001
0000
0100
0000
0001
0000
0000
0101
0000
0000
0011
0000
0000
1001
0000
0000
,
1001
0000
0000
0000
1001
0000
0000
1010
0000
0000
1100
0000
0000
1001
0000
0000
,
1001
1000
0100
1000
0010
0100
0001
0010
,
0100
0100
1000
0001
0001
0010
0100
0000
,
1000
0000
0000
0000
0101
0000
0000
1100
0000
0000
0011
0000
0000
1010
0000
0000
,
1001
0000
0000
1001
0000
0000
0010
0000
0100
0000
0001
0000
0010
0000
0000
0000
,
0100
0000
1000
0000
0001
0000
1000
0000
0010
1000
0000
1000
0000
0000
0100
0000
,
1000
0000
0001
0000
0010
0000
0001
0000
0100
0001
0000
0001
0000
0000
1000
0000
,
0010
0100
0001
0001
0010
0100
0100
1000
,
0001
0001
0100
1000
1000
0100
0001
0000
,
0010
0000
0100
0000
1000
0000
0100
0000
0010
0100
0000
0100
0000
0000
1000
0000
,
0010
0000
0100
0000
0001
0000
0100
0000
0010
0100
0000
0100
0000
0000
0001
0000
,
0010
0000
0100
0000
1000
0000
0000
0010
0000
0000
0001
0000
0000
0100
0000
0000
,
1001
0000
0000
0000
0001
0000
0000
0010
0000
0000
1000
0000
0000
0100
0000
0000
,
1001
0000
0001
0000
0010
0000
0001
0000
0100
0001
0000
0001
0000
0000
1000
0000
,
0100
0000
1000
0000
0010
0000
1000
0000
0100
1000
0000
1000
0000
0000
0001
0000
,
0010
0100
1000
1000
0001
0100
0100
0001
,
0010
0010
0100
0001
0001
0100
1000
0000
,
0110
0000
0100
0000
0001
0000
1000
0000
0100
1000
0000
0100
0000
0000
0010
0000
,
0001
0000
0100
0000
0010
0000
1000
0000
0001
0010
0000
0001
0000
0000
1000
0000
,
0200
0000
0320
0000
0030
2000
0000
0000
,
3200
0000
0000
0002
0000
0000
0000
0000
,
0303
0000
0000
0000
;

//---------------dance-single - ----------------
#NOTEDATA:;
#CHARTNAME:;
#STEPSTYPE:dance-single;
#DESCRIPTION:;
#CHARTSTYLE:;
#DIFFICULTY:Medium;
#METER:9;
#RADARVALUES:0.344872,0.539624,0.008353,0.175420,0.071003,289.000000,288.000000,1.000000,21.000000,0.000000,0.000000,0.000000,0.000000,0.000000,0.344872,0.539624,0.008353,0.175420,0.071003,289.000000,288.000000,1.000000,21.000000,0.000000,0.000000,0.000000,0.000000,0.000000;
#CREDIT:;
#NOTES:
0000
0000
0000
0000
,
0000
0000
0000
0000
,
0000
0000
0000
0000
,
0000
0000
0000
0000
,
0000
0000
0000
0000
,
0000
0000
0000
0000
,
0000
0000
0000
0000
,
0000
0000
0000
0000
,
1000
1000
0001
0001
,
1000
0000
1000
0000
0010
0100
0010
0000
,
1000
1000
0001
0001
,
1000
0000
1000
0000
0100
0010
0100
0000
,
0001
0001
1000
1000
,
0001
0000
0001
0000
0010
0100
0010
0000
,
0001
0001
1000
1000
,
0001
0000
0001
0000
0100
0010
0100
0000
,
0010
0000
1000
0100
0000
0000
0000
0000
0010
0000
0001
0000
0100
0000
0010
0000
,
1000
0000
0001
0100
0000
0000
0000
0000
0010
0000
0010
0000
0100
0000
0100
0000
,
0001
0000
0010
0100
0000
0000
0000
0000
0010
0001
0010
0000
0100
1000
0100
0000
,
0010
0000
0001
0100
0000
0000
0000
0000
1000
0000
0010
0000
0100
0000
0001
0000
,
1000
0000
1000
0000
0001
0100
0001
0000
,
1000
0000
1000
0000
0001
0100
0001
0000
,
0001
0000
0001
0000
1000
0100
1000
0000
,
0001
0000
0001
0000
1000
0100
1000
0000
,
0001
0000
0010
0000
0100
0010
0100
0000
,
0010
0000
0001
0000
1000
0010
0100
0000
,
1000
0000
0001
0000
1000
0010
0100
0000
,
0001
0010
0100
0020
0000
0030
0001
0000
,
1000
0010
0100
0100
,
0001
0010
0100
0100
,
1000
0001
0000
1000
0000
0001
0000
1000
,
0000
0010
0000
0010
0000
0100
0000
0100
,
0000
0001
0000
0010
0000
0100
0000
1000
,
0000
0001
0000
0010
0000
0100
0000
1000
,
0000
0001
0000
0001
0000
1000
0000
1000
,
0000
0001
0000
0001
0000
1000
0000
0010
,
0100
0000
0002
0000
0000
0023
0000
0000
,
0230
0000
0000
0000
0000
0000
2300
0000
0000
0000
0000
0000
0000
3000
0000
0000
,
0001
0000
0000
0000
0100
0000
0000
0100
0000
0000
0100
0000
0000
0100
0000
0000
,
0100
0000
0000
0000
0010
0000
0000
0010
0000
0000
0010
0000
0000
0010
0000
0000
,
2000
0000
0000
0000
,
0000
0000
0000
0000
,
3000
0000
0000
0000
,
0001
0000
0000
0010
0000
0000
0100
0000
1000
0000
0001
0000
1000
0000
0000
0000
,
0010
0000
0100
0000
0001
0010
0000
0001
,
0010
0000
0100
0000
1000
0010
0000
1000
,
0010
0100
0001
1000
,
0220
0330
0001
0010
,
0100
0000
0010
0000
0001
0100
0000
0001
,
0100
0000
0010
0000
1000
0100
0000
1000
,
0100
0010
0010
0001
,
1000
0100
0020
0030
,
0100
1000
0001
1000
,
0010
1000
0010
0000
1000
0010
1000
0000
,
0001
0100
0020
0030
,
0100
0001
0020
0030
,
0100
1000
0100
0010
,
0001
1000
0001
0000
0100
0010
0100
0000
,
0001
0010
0100
1000
,
0001
0000
0000
1000
0000
0000
0001
0000
0000
0000
1000
0000
0001
0000
0000
0000
,
0100
0000
0010
0000
1000
0100
1000
0000
,
0010
0000
0100
0000
0001
0010
0001
0000
,
1000
0000
0200
0000
0000
0320
0000
0000
,
0032
0000
0000
0203
0000
0000
0300
0000
,
0010
0000
1000
0000
0001
0100
0001
0000
,
1000
0000
0100
0000
0010
0100
0010
0000
,
1000
0000
0000
0000
0001
0000
0000
0001
0000
0000
0001
0000
0000
0001
0000
0000
,
0001
0000
0000
0000
1000
0000
0000
1000
0000
0000
1000
0000
0000
1000
0000
0000
,
0010
0100
0001
0010
,
0100
0010
0001
0100
,
0010
0000
2000
0000
0000
3200
0000
0000
,
0320
0000
0000
0032
0000
0000
0003
0000
,
1000
1000
0100
0100
,
0010
0010
0001
0100
,
0020
0000
0000
0000
,
0000
0200
0000
0000
0000
0000
0000
0000
0000
0000
0000
0000
0000
0000
0000
0000
,
0330
0000
0000
0000
;

//---------------dance-single - ----------------
#NOTEDATA:;
#CHARTNAME:;
#STEPSTYPE:dance-single;
#DESCRIPTION:;
#CHARTSTYLE:;
#DIFFICULTY:Easy;
#METER:6;
#RADARVALUES:0.273273,0.349168,0.058473,0.066826,0.000000,229.000000,222.000000,7.000000,8.000000,0.000000,0.000000,0.000000,0.000000,0.000000,0.273273,0.349168,0.058473,0.066826,0.000000,229.000000,222.000000,7.000000,8.000000,0.000000,0.000000,0.000000,0.000000,0.000000;
#CREDIT:;
#NOTES:
0000
0000
0000
0000
,
0000
0000
0000
0000
,
0000
0000
0000
0000
,
0000
0000
0000
0000
,
0000
0000
0000
0000
,
0000
0000
0000
0000
,
0000
0000
0000
0000
,
0000
0000
0000
0000
,
1000
0001
1000
0000
,
0001
1000
0001
0000
,
0100
0100
0100
0000
,
0010
0010
0010
0000
,
1000
0100
0010
0000
,
0001
0100
0010
0000
,
1000
0001
1000
0000
,
0001
1000
0001
0000
,
0200
0300
0020
0030
,
2000
3000
0002
0003
,
0020
0030
0020
0030
,
0200
0300
2000
3000
,
0001
0100
0000
0010
,
1000
0100
0000
0010
,
0001
1000
0000
0010
,
1000
0001
0000
0100
,
0010
1000
0000
0100
,
0010
0001
0000
1000
,
0100
0010
0000
0001
,
1000
0001
1000
0001
,
0100
0010
0010
0010
,
1000
0100
0100
0100
,
0001
0010
0010
0010
,
0001
1000
1000
1000
,
0001
0100
1000
0010
,
0001
0100
1000
0010
,
0001
0010
1000
0100
,
0001
0010
1000
0100
,
0010
0000
0001
0000
0000
0100
0000
0000
,
0010
0000
0000
1000
0000
0000
0000
0000
,
0001
0010
0010
0000
,
1000
0010
0010
0000
,
0001
0000
1000
0000
0000
0010
0000
0000
,
0001
0000
0000
0100
0000
0000
0000
0000
,
0010
1000
1000
0000
,
0001
0100
1001
0000
,
1001
1000
0001
1000
,
0100
0010
0001
0100
,
0010
1000
1000
0001
,
0110
0001
0010
0100
,
1000
0001
0001
1000
,
0100
0010
0001
1000
,
0010
0001
0100
1000
,
0010
0010
0010
0000
,
1000
0100
0010
0001
,
1000
0010
0100
0001
,
0100
0010
1000
0001
,
0010
0110
1000
0001
,
0010
0010
0100
1000
,
0001
0100
0010
1000
,
0001
1000
0110
0110
,
0001
1000
0001
0000
,
1000
0100
1000
0000
,
0001
0100
0001
0000
,
1000
0000
1000
0000
0000
0010
0000
0000
,
0100
0000
0000
0100
0000
0000
0000
0000
,
0001
1000
0001
0000
,
0001
0010
0100
0000
,
1000
0001
0001
0010
,
0100
0010
0001
1000
,
0001
0100
0010
0000
,
1000
0100
0010
0100
,
0001
0000
0001
0000
0000
0100
0000
0000
,
0010
0000
0000
1000
0000
0000
0000
0000
,
0001
0100
0010
0000
,
1000
0100
0010
0000
,
0001
0000
1000
0000
0000
1000
0000
0000
,
0001
0000
0000
0001
0000
0000
0000
0000
,
0110
0000
0000
0000
;

//---------------dance-single - ----------------
#NOTEDATA:;
#CHARTNAME:;
#STEPSTYPE:dance-single;
#DESCRIPTION:;
#CHARTSTYLE:;
#DIFFICULTY:Beginner;
#METER:3;
#RADARVALUES:0.128880,0.222198,0.075180,0.116946,0.000000,108.000000,99.000000,9.000000,14.000000,0.000000,0.000000,0.000000,0.000000,0.000000,0.128880,0.222198,0.075180,0.116946,0.000000,108.000000,99.000000,9.000000,14.000000,0.000000,0.000000,0.000000,0.000000,0.000000;
#CREDIT:;
#NOTES:
// measure 0
0000
0000
0000
0000
,  // measure 1
0000
0000
0000
0000
,  // measure 2
0000
0000
0000
0000
,  // measure 3
0000
0000
0000
0000
,  // measure 4
0000
0000
0000
0000
,  // measure 5
0000
0000
0000
0000
,  // measure 6
0000
0000
0000
0000
,  // measure 7
0000
0000
0000
0000
,  // measure 8
1000
0000
0000
0000
,  // measure 9
1000
0000
0000
0000
,  // measure 10
0001
0000
0000
0000
,  // measure 11
0001
0000
0000
0000
,  // measure 12
0010
0000
0000
0000
,  // measure 13
0010
0000
0000
0000
,  // measure 14
0100
0000
0000
0000
,  // measure 15
0100
0000
0000
0000
,  // measure 16
0020
0000
0030
0000
,  // measure 17
0200
0000
0300
0000
,  // measure 18
0002
0000
0003
0000
,  // measure 19
2000
0000
3000
0000
,  // measure 20
0010
0000
0010
0000
,  // measure 21
0010
0000
0000
0000
,  // measure 22
0100
0000
0100
0000
,  // measure 23
0100
0000
0000
0000
,  // measure 24
0001
0000
0001
0000
,  // measure 25
0001
0000
0000
0000
,  // measure 26
1000
0000
1000
0000
,  // measure 27
1000
0000
0000
0000
,  // measure 28
0100
0000
0010
0000
,  // measure 29
0100
0000
0000
0000
,  // measure 30
0010
0000
0100
0000
,  // measure 31
0010
0000
0000
0000
,  // measure 32
0001
0000
1000
0000
,  // measure 33
0001
0000
0000
0000
,  // measure 34
1000
0000
0001
0000
,  // measure 35
1000
0000
0000
0000
,  // measure 36
0020
0000
0000
0000
,  // measure 37
0030
0000
0000
0000
,  // measure 38
0100
0000
0000
0000
,  // measure 39
0100
0000
0000
0000
,  // measure 40
0002
0000
0003
0000
,  // measure 41
2000
0000
3000
0000
,  // measure 42
0100
0000
0000
0000
,  // measure 43
0110
0000
0000
0000
,  // measure 44
1001
0000
1000
0000
,  // measure 45
1000
0000
0010
0000
,  // measure 46
0001
0000
0100
0000
,  // measure 47
0020
0000
0030
0000
,  // measure 48
0100
0000
0001
0000
,  // measure 49
0010
0000
0100
0000
,  // measure 50
0020
0000
0030
0000
,  // measure 51
2000
0000
3000
0000
,  // measure 52
0001
0000
0001
0000
,  // measure 53
1000
0000
1000
0000
,  // measure 54
0100
0000
0100
0000
,  // measure 55
0010
0000
0010
0000
,  // measure 56
0001
0000
0001
0000
,  // measure 57
0100
0000
0100
0000
,  // measure 58
0010
0000
0010
0000
,  // measure 59
1000
0000
1000
0000
,  // measure 60
1001
0000
0010
0000
,  // measure 61
1001
0000
0100
0000
,  // measure 62
0001
0000
0010
0000
,  // measure 63
1000
0000
0100
0000
,  // measure 64
1001
0000
0010
0000
,  // measure 65
1001
0000
0100
0000
,  // measure 66
2000
0000
3000
0000
,  // measure 67
0002
0000
0003
0000
,  // measure 68
1000
0000
1000
0000
,  // measure 69
0010
0000
0001
0000
,  // measure 70
0110
0000
0000
0000
,  // measure 71
1001
0000
0000
0000
,  // measure 72
0001
0000
0001
0000
,  // measure 73
1000
0000
1000
0000
,  // measure 74
0200
0000
0300
0000
,  // measure 75
0020
0000
0030
0000
,  // measure 76
1001
0000
0000
0000
;
