#TITLE:IMPLANTATION;
#SUBTITLE:;
#ARTIST:TOMOSUKE;
#TITLETRANSLIT:;
#SUBTITLETRANSLIT:;
#ARTISTTRANSLIT:;
#GENRE:;
#CREDIT:;
#BANNER:IMPLANTATION.png;
#BACKGROUND:IMPLANTATION-bg.png;
#LYRICSPATH:;
#CDTITLE:;
#MUSIC:IMPLANTATION.ogg;
#OFFSET:-0.720000;
#SAMPLESTART:50.339958;
#SAMPLELENGTH:15.499997;
#SELECTABLE:YES;
#BPMS:0.000000=290.000000
;
#STOPS:
;
#BGCHANGES:;
#KEYSOUNDS:;
#ATTACKS:;

//---------------dance-single - ----------------
#NOTES:
     dance-single:
     :
     Hard:
     16:
     0.821551,1.008255,0.263902,0.351869,0.000000,523.000000,499.000000,24.000000,32.000000,0.000000,0.000000,0.821551,1.008255,0.263902,0.351869,0.000000,523.000000,499.000000,24.000000,32.000000,0.000000,0.000000:
0000
0000
0000
0000
,
0000
0000
0000
0000
,
0000
0000
0000
0000
,
0000
0000
0000
0000
,
2000
0000
0000
0000
,
3002
0000
0000
0000
,
2003
0000
0000
0000
,
3002
0000
0000
0000
,
0203
0000
0000
0000
,
0320
0000
0000
0000
,
0230
0000
0000
0000
,
0320
0000
0000
0000
,
1030
0100
1000
0100
1000
0000
0001
0000
,
0100
0010
1000
0001
,
0100
0001
0100
0001
0100
0000
0010
0000
,
1000
0100
1000
0100
,
0010
0001
0010
0001
0010
0000
0001
0000
,
0100
0010
1000
0010
,
0100
0010
0100
0010
0100
0000
0001
0000
,
1000
0100
1000
0010
,
1000
0001
1000
0001
1000
0000
0001
0000
,
0100
0001
0010
0001
,
0100
0001
0100
0001
0100
0000
0010
0000
,
1000
0100
0010
0001
,
1000
0100
1000
0100
1000
0000
0001
0000
,
0100
0001
0100
0010
,
1000
0100
1000
0100
1000
0000
0001
0000
,
0100
0001
1000
0100
,
1001
0000
1000
0001
0100
0001
0000
0001
,
0000
1000
0000
0100
1000
0000
1001
0000
,
0101
0000
0001
0010
0100
1000
0000
1000
,
0000
0100
0000
1000
0010
1000
0010
0000
,
0110
0000
0100
0001
0100
0010
0000
0010
,
0000
1000
0000
0100
0010
0000
0001
0000
,
1001
0000
0001
0010
0001
0010
0000
0001
,
0000
1000
0000
1000
0100
1000
0010
0000
,
1001
0000
0001
1000
0001
1000
0000
0001
,
0000
1000
0000
0001
1000
0000
0001
0000
,
0110
0000
0010
0100
0010
0100
0000
0010
,
0000
1000
0000
0100
0010
0001
1000
0000
,
1001
0000
0100
1000
0100
1000
0000
0001
,
0000
0001
0000
0100
0010
0000
0101
0000
,
0011
0000
0001
0010
0100
1000
0000
1000
,
0000
0100
0000
1000
0100
0010
0001
0000
,
2002
0000
0000
0000
,
0000
0000
0000
0000
,
0000
0000
0000
0000
,
3003
0000
0000
0000
,
0220
0000
0000
0000
,
0000
0000
0000
0000
,
0000
0000
0000
0000
,
0330
0000
0000
0000
,
1000
0100
1000
0000
0001
0100
0001
0000
,
1000
0100
1000
0000
0001
0100
0001
0000
,
1000
0100
0010
0000
0001
0010
0100
0000
,
1000
0100
0010
0000
0001
0010
0100
0000
,
1000
0001
1000
0000
0001
1000
0001
0000
,
0100
0010
0100
0000
0010
0100
0010
0000
,
1000
0010
1000
0000
0001
0010
0001
0000
,
1000
0010
1000
0000
0001
0010
0001
0000
,
1001
0000
1000
0000
0001
0100
0010
1000
,
0100
1000
0010
0100
0001
0100
0010
1000
,
0100
0000
1001
0000
0001
0100
0001
1000
,
0001
0100
0001
0010
0001
0100
0001
1000
,
0100
0000
1001
0000
1000
0010
0100
0010
,
1000
0010
0100
0010
1000
0010
0100
0010
,
1000
0000
1001
0000
1000
0100
0010
0001
,
1000
0100
0010
0001
1000
0100
0010
0001
,
1000
0000
1001
0000
0001
1000
0010
0100
,
0001
1000
0010
0100
0001
1000
0010
0100
,
0001
0000
1001
0000
1000
0100
1000
0001
,
0100
0010
0100
0001
1000
0100
1000
0010
,
0100
0000
1001
0000
1000
0100
0010
0001
,
0010
0100
1000
0100
0010
0100
1000
0010
,
0100
0000
1001
0000
0001
0100
0001
0010
,
0100
1000
0100
0010
0001
0100
0010
1000
,
0200
0000
1000
0000
1300
0100
0010
0001
,
0100
0010
0100
0001
0100
0010
1000
0100
,
2000
0000
0001
0000
3001
0100
0010
1000
,
0100
1000
0010
0100
0001
1000
0100
1000
,
0020
0230
0302
2003
,
3200
0320
0032
0203
,
0320
2030
3200
2300
,
3002
0203
0320
0230
,
0301
1000
0001
0000
1000
0000
0100
1000
,
0000
0010
0000
1000
0001
0000
1001
0000
,
0001
1000
0100
0000
1000
0000
0001
0100
,
0000
0001
0000
1000
0100
0000
1001
0000
,
1000
0010
0100
0000
0001
0000
0100
0010
,
0000
1000
0000
0010
0100
0000
1001
0000
,
0001
0100
0010
0000
1000
0000
0100
0000
,
2002
0000
0000
3003
,
0001
1000
0100
1000
,
0010
0000
0100
0000
0100
0001
0010
0001
,
0100
0010
1000
0100
,
1000
0000
0001
0000
0100
0001
0010
0001
,
1000
0100
1000
0010
,
0100
0000
0010
0000
1000
0100
1000
0010
,
0100
0001
0100
0010
,
1000
0000
0010
0000
1000
0100
0010
0100
,
1000
0001
0100
0010
,
0100
0000
0001
0000
0010
0001
0100
0001
,
0010
0001
1000
0100
,
0010
0000
0001
0000
1000
0100
0010
0001
,
0000
0001
1000
0000
0100
0000
1000
0100
,
0000
0100
1000
0100
0010
0001
0100
0001
,
0000
0001
1000
0000
0100
0000
1000
0010
,
1000
0100
0010
0001
0100
0010
1000
0100
;

//---------------dance-single - ----------------
#NOTES:
     dance-single:
     :
     Challenge:
     18:
     1.079169,1.008255,0.296889,0.021992,0.000000,687.000000,660.000000,27.000000,2.000000,0.000000,0.000000,1.079169,1.008255,0.296889,0.021992,0.000000,687.000000,660.000000,27.000000,2.000000,0.000000,0.000000:
0000
0000
0000
0000
,
0000
0000
0000
0000
,
0000
0000
0000
0000
,
0000
0000
0000
0000
,
1001
0000
0100
0001
0000
0001
0100
0000
,
1001
0000
0100
1000
0000
1000
0100
0000
,
1001
0000
0010
0001
0000
1000
0100
0000
,
1001
0000
0010
1000
0000
0001
0100
0000
,
1001
0000
1000
0001
0000
0100
0010
0000
,
1001
0000
0100
0010
0000
1000
0001
0000
,
1001
0000
1000
0100
0000
0001
0010
0000
,
1001
0000
0001
0010
0000
1000
0100
0000
,
1000
0100
1000
0100
1000
0010
0100
0001
,
0100
0001
0010
0000
0001
0000
1000
0001
,
0100
0001
0100
0001
0100
0010
1000
0100
,
1000
0010
0100
0000
0001
0000
0100
0010
,
1000
0001
0010
0001
0010
0001
1000
0100
,
1000
0001
0010
0000
0001
0000
1000
0001
,
0100
0010
0100
0010
0100
0010
0001
0010
,
0100
0001
1000
0000
1000
0100
0010
0001
,
1000
0001
1000
0001
1000
0010
0100
0001
,
0100
0001
0010
0000
0010
0001
1000
0001
,
0100
0001
0100
0001
0100
0010
1000
0100
,
1000
0001
0100
0000
0010
1000
0001
0100
,
0001
0100
1000
0100
0001
0100
1000
0100
,
0010
0100
0001
0000
0010
0001
0010
0100
,
1000
0100
1000
0100
1000
0010
0100
0001
,
0100
0010
1000
0000
1000
0100
0010
0001
,
1001
0000
1000
0001
0100
0001
0000
0001
,
0000
1000
0000
0100
1000
0000
1001
0000
,
0101
0000
0001
0010
0100
1000
0000
1000
,
0000
0100
0000
1000
0010
1000
0010
0000
,
0110
0000
0100
0001
0100
0010
0000
0010
,
0000
1000
0000
0100
0010
0000
0001
0000
,
1001
0000
0001
0010
0001
0010
0000
0001
,
0000
1000
0000
1000
0100
1000
0010
0000
,
1001
0000
0001
1000
0001
1000
0000
0001
,
0000
1000
0000
0001
1000
0000
0001
0000
,
0110
0000
0010
0100
0010
0100
0000
0010
,
0000
1000
0000
0100
0010
0001
1000
0000
,
1001
0000
0100
1000
0100
1000
0000
0001
,
0000
0001
0000
0100
0010
0000
0101
0000
,
0011
0000
0001
0010
0100
1000
0000
1000
,
0000
0100
0000
1000
0100
0010
0001
0000
,
0001
0100
0001
0000
0001
1000
0001
0000
,
0001
0010
0001
0000
0001
1000
0001
0000
,
1000
0100
1000
0000
1000
0001
1000
0000
,
1000
0010
1000
0000
1000
0001
1000
0000
,
1000
0010
0100
0000
0001
0100
0010
0000
,
1000
0100
0010
0000
0001
0010
0100
0000
,
1000
0010
0100
0000
0001
0100
0010
0000
,
1000
0100
0010
0000
0001
0010
0100
0000
,
1000
0100
1000
0000
0001
0100
0001
0000
,
1000
0100
1000
0000
0001
0100
0001
0000
,
1000
0100
0010
0000
0001
0010
0100
0000
,
1000
0100
0010
0000
0001
0010
0100
0000
,
1000
0001
1000
0000
0001
1000
0001
0000
,
0100
0010
0100
0000
0010
0100
0010
0000
,
1000
0010
1000
0000
0001
0010
0001
0000
,
1000
0010
1000
0000
0001
0010
0001
0000
,
1001
0000
1000
0000
0001
0100
0010
1000
,
0100
1000
0010
0100
0001
0100
0010
1000
,
0100
1000
0001
1000
0001
0100
0001
1000
,
0001
0100
0001
0010
0001
0100
0001
1000
,
0001
1000
0001
1000
0010
0100
0010
1000
,
0010
0100
0010
1000
0010
0100
0010
1000
,
0100
1000
0001
1000
0001
0100
0010
1000
,
0100
0010
0001
1000
0100
0010
0001
1000
,
0001
0000
1000
0000
0001
1000
0010
0100
,
0001
1000
0010
0100
0001
1000
0010
0100
,
0001
1000
0001
1000
0100
1000
0010
0100
,
0010
1000
0100
1000
0001
0100
0010
1000
,
0100
1000
0001
1000
0100
0010
0001
0010
,
0100
1000
0100
0010
0001
0010
0100
1000
,
0100
1000
0001
0100
0001
0100
0001
0010
,
0100
1000
0100
0010
0001
0100
0010
1000
,
0200
0000
1000
0000
1300
0100
0010
0001
,
0100
0010
0100
0001
0100
0010
1000
0100
,
1000
0010
1000
0100
1000
0100
0010
0001
,
0010
0100
1000
0100
0010
0100
1000
0010
,
0100
0001
0100
0001
1000
0100
1000
0100
,
0010
0001
0010
0001
0100
0001
0100
0001
,
0010
0001
1000
0010
0100
0010
1000
0100
,
1000
0100
1000
0010
0100
0010
1000
0100
,
1000
0100
0010
0000
1001
0000
0100
1000
,
0000
0010
0000
1000
0001
0000
1001
0000
,
0001
1000
0100
0000
1001
0000
0001
0100
,
0000
0001
0000
1000
0100
0000
1001
0000
,
1000
0010
0100
0000
1001
0000
0100
0010
,
0000
1000
0000
0010
0100
0000
1001
0000
,
0001
0100
0010
0000
1001
0000
0100
0000
,
1002
0000
1003
0100
0010
0001
0010
0100
,
1000
0001
1000
0000
0100
0000
1000
0010
,
0000
1000
0001
0100
0001
0010
0001
1000
,
0000
0100
0010
0000
0001
0000
0100
0001
,
0000
1000
0000
0001
0100
0001
0010
0001
,
0000
1000
0100
0000
1000
0000
0010
0100
,
0000
0001
0010
0100
1000
0100
1000
0010
,
0000
0100
0001
0000
0100
0000
0010
1000
,
0000
0010
0000
1000
0100
0010
0100
1000
,
0000
0001
0100
0000
0010
0000
0100
0001
,
0000
0010
0001
0100
0001
0010
0001
1000
,
0000
0100
1000
0000
0100
0000
0010
0001
,
0000
1000
0000
0100
0010
0001
1000
0001
,
0000
1000
0100
0000
1000
0000
0100
1000
,
0000
0100
1000
0100
0010
0001
0100
0001
,
0000
0001
1000
0000
0100
0000
1000
0010
,
1000
0100
0010
0001
0100
0010
1000
0100
;

//---------------dance-single - ----------------
#NOTES:
     dance-single:
     :
     Medium:
     12:
     0.581212,0.771019,0.296889,0.373861,0.000000,370.000000,343.000000,27.000000,34.000000,0.000000,0.000000,0.581212,0.771019,0.296889,0.373861,0.000000,370.000000,343.000000,27.000000,34.000000,0.000000,0.000000:
0000
0000
0000
0000
,
0000
0000
0000
0000
,
0000
0000
0000
0000
,
0000
0000
0000
0000
,
2000
0000
0000
0000
,
3002
0000
0000
0000
,
2003
0000
0000
0000
,
3002
0000
0000
0000
,
0203
0000
0000
0000
,
0320
0000
0000
0000
,
0230
0000
0000
0000
,
0320
0000
0000
0000
,
1030
1000
1000
0001
,
0100
0010
1000
0001
,
0100
0100
0100
0010
,
1000
0100
1000
0100
,
0010
0010
0010
0001
,
0100
0010
1000
0010
,
0100
0100
0100
0001
,
1000
0100
1000
0010
,
1000
1000
1000
0001
,
0100
0001
0010
0001
,
0100
0100
0100
0010
,
1000
0100
0010
0001
,
1000
1000
1000
0001
,
0100
0001
0100
0010
,
1000
1000
1000
0001
,
0100
0001
1000
0100
,
1001
0100
0001
0100
,
1001
0100
1000
0100
,
1001
1000
0100
0010
,
1001
0001
0010
0100
,
1001
1000
0100
1000
,
1001
0001
0100
0010
,
1001
1000
0100
0010
,
1001
0010
0100
0001
,
1001
1000
0100
0010
,
1001
0100
0010
1000
,
1001
0001
0010
0100
,
1001
0100
0010
0001
,
1001
0100
0010
0100
,
1001
0010
0100
0001
,
1000
1000
1000
1000
,
1000
0001
1000
0001
1000
0001
1000
0000
,
2002
0000
0000
0000
,
0000
0000
0000
0000
,
0000
0000
0000
0000
,
3003
0000
0000
0000
,
0220
0000
0000
0000
,
0000
0000
0000
0000
,
0000
0000
0000
0000
,
0330
0000
0000
0000
,
2002
0000
0000
0000
,
0000
0000
0000
0000
,
0000
0000
0000
0000
,
3003
0000
0000
0000
,
0220
0000
0000
0000
,
0000
0000
0300
0000
,
0100
0000
0100
0000
,
0100
0000
0130
0000
,
1001
1000
0001
0010
,
0100
0010
0001
0010
,
0100
1001
0001
0100
,
0001
0100
0001
1000
,
0100
1001
1000
0100
,
0010
0100
1000
0100
,
1000
1001
1000
0010
,
1000
0010
1000
0010
,
0100
1001
0001
0010
,
0001
0010
0001
1000
,
0100
1001
1000
1000
,
0100
0100
0010
0010
,
0001
1001
1000
0010
,
0001
0100
1000
0010
,
0010
1001
0001
0001
,
0100
0100
0010
0010
,
1000
1000
1000
0010
,
0100
0100
0100
0001
,
1000
0001
0001
0010
,
0100
0010
0001
0100
,
0020
0230
0302
2003
,
3200
0320
0032
0203
,
0320
2030
3200
2300
,
3002
0203
0320
0230
,
0301
1000
0001
0000
1000
0000
0001
1000
,
0000
0100
0000
1000
0001
0000
1000
0000
,
0001
1000
0001
0000
1000
0000
0001
1000
,
0000
0100
0000
1000
0001
0000
1000
0000
,
0001
1000
0001
0000
1000
0000
0001
1000
,
0000
0100
0000
1000
0001
0000
1000
0000
,
0001
0010
1000
0100
,
2002
0000
0000
3003
,
0001
1000
0100
1000
,
0010
0100
0100
0010
,
0100
0010
1000
0100
,
1000
0001
0100
0010
,
1000
0100
1000
0010
,
0100
0010
1000
1000
,
0100
0001
0100
1000
,
0001
0010
0100
1000
,
0010
0100
0001
0010
,
0100
0010
0001
0100
,
0010
1000
0010
0100
,
0010
0001
0010
0100
,
0010
1000
0100
1000
,
0100
0010
0001
0100
,
0010
1000
0100
0010
,
0001
0000
0010
0000
0100
0000
1000
0001
;

//---------------dance-single - ----------------
#NOTES:
     dance-single:
     :
     Easy:
     9:
     0.419415,0.592404,0.065975,0.285893,0.000000,267.000000,261.000000,6.000000,26.000000,0.000000,0.000000,0.419415,0.592404,0.065975,0.285893,0.000000,267.000000,261.000000,6.000000,26.000000,0.000000,0.000000:
0000
0000
0000
0000
,
0000
0000
0000
0000
,
0000
0000
0000
0000
,
0000
0000
0000
0000
,
2000
0000
0000
0000
,
3002
0000
0000
0000
,
2003
0000
0000
0000
,
3002
0000
0000
0000
,
0203
0000
0000
0000
,
0320
0000
0000
0000
,
0230
0000
0000
0000
,
0320
0000
0000
0000
,
1030
1000
1000
0000
,
0100
0000
1000
0000
,
0100
0100
0100
0000
,
1000
0000
1000
0000
,
0010
0010
0010
0000
,
0100
0000
1000
0000
,
0100
0100
0100
0000
,
1000
0000
1000
0000
,
1000
1000
1000
0000
,
0100
0000
0010
0000
,
0100
0100
0100
0000
,
1000
0000
0010
0000
,
0001
0001
0001
0000
,
0100
0000
0100
0000
,
0001
0001
0001
0000
,
0100
0000
1000
0000
,
1000
0100
0001
0100
,
1000
0100
1000
0100
,
1000
1000
0100
0010
,
0001
0001
0010
0100
,
1000
1000
0100
1000
,
0001
0001
0100
0010
,
1000
1000
0100
0010
,
0001
0010
0100
1000
,
0001
1000
0100
0010
,
0001
0100
0010
1000
,
0001
0001
0010
0100
,
1000
0100
0010
0001
,
1000
0100
0010
0100
,
1000
0010
0100
0001
,
1000
0001
1000
0001
,
1000
0001
1000
0001
,
2002
0000
0000
0000
,
0000
0000
0000
0000
,
0000
0000
0000
0000
,
3003
0000
0000
0000
,
0220
0000
0000
0000
,
0000
0000
0000
0000
,
0000
0000
0000
0000
,
0330
0000
0000
0000
,
2002
0000
0000
0000
,
0000
0000
0000
0000
,
0000
0000
0000
0000
,
3003
0000
0000
0000
,
0220
0000
0000
0000
,
0000
0000
0300
0000
,
0100
0000
0100
0000
,
0100
0000
0130
0000
,
1001
0000
0001
0000
,
0100
0000
0001
0000
,
0100
0000
0001
0000
,
0001
0000
0001
0000
,
0100
0000
1000
0000
,
0010
0000
1000
0000
,
1000
0000
1000
0000
,
1000
0000
1000
0000
,
0100
0000
0001
0000
,
0001
0000
0001
0000
,
0100
0000
1000
0000
,
0100
0000
0010
0000
,
0001
0000
1000
0000
,
0001
0000
1000
0000
,
0010
0000
0001
0000
,
0100
0000
0010
0000
,
1000
0000
1000
0000
,
0100
0000
0100
0000
,
1000
0000
0001
0000
,
0100
0000
0001
0000
,
2000
0000
3002
0000
,
0203
0000
0302
0000
,
2003
0000
3020
0000
,
0230
0000
0320
0000
,
1030
0001
1000
0001
,
1000
0100
1000
1000
,
0001
0001
1000
0001
,
0010
0001
0001
1000
,
0001
1000
0010
1000
,
0100
0010
0001
1000
,
0001
0010
0001
0100
,
2002
0000
0000
3003
,
0001
1000
0100
1000
,
0010
0100
0100
0010
,
0100
0010
1000
0100
,
1000
0001
0100
0010
,
1000
0100
1000
0010
,
0100
0010
1000
1000
,
0100
0001
0100
1000
,
0001
0010
0100
1000
,
0010
0100
0001
0010
,
0100
0010
0001
0100
,
0010
1000
0010
0100
,
0010
0001
0010
0100
,
0010
1000
0100
1000
,
0100
0010
0001
0100
,
0010
1000
0100
0010
,
0001
0010
0100
1000
;

//---------------dance-single - ----------------
#NOTES:
     dance-single:
     :
     Beginner:
     5:
     0.232485,0.354618,0.054979,0.186930,0.000000,148.000000,143.000000,5.000000,17.000000,0.000000,0.000000,0.232485,0.354618,0.054979,0.186930,0.000000,148.000000,143.000000,5.000000,17.000000,0.000000,0.000000:
// measure 0
0000
0000
0000
0000
,  // measure 1
0000
0000
0000
0000
,  // measure 2
0000
0000
0000
0000
,  // measure 3
0000
0000
0000
0000
,  // measure 4
1000
0000
0000
0000
,  // measure 5
0001
0000
0000
0000
,  // measure 6
1000
0000
0000
0000
,  // measure 7
0001
0000
0000
0000
,  // measure 8
0100
0000
0000
0000
,  // measure 9
0010
0000
0000
0000
,  // measure 10
0100
0000
0000
0000
,  // measure 11
0010
0000
0000
0000
,  // measure 12
2000
0000
3000
0000
,  // measure 13
0100
0000
1000
0000
,  // measure 14
0200
0000
0300
0000
,  // measure 15
1000
0000
1000
0000
,  // measure 16
0002
0000
0003
0000
,  // measure 17
0100
0000
1000
0000
,  // measure 18
0200
0000
0300
0000
,  // measure 19
1000
0000
1000
0000
,  // measure 20
2000
0000
3000
0000
,  // measure 21
0100
0000
0010
0000
,  // measure 22
0200
0000
0300
0000
,  // measure 23
1000
0000
0010
0000
,  // measure 24
0002
0000
0003
0000
,  // measure 25
0100
0000
0100
0000
,  // measure 26
0002
0000
0003
0000
,  // measure 27
0100
0000
1000
0000
,  // measure 28
1000
0000
0001
0000
,  // measure 29
1000
0000
1000
0000
,  // measure 30
1000
0000
0100
0000
,  // measure 31
0001
0000
0010
0000
,  // measure 32
1000
0000
0100
0000
,  // measure 33
0001
0000
0100
0000
,  // measure 34
1000
0000
0100
0000
,  // measure 35
0001
0000
0100
0000
,  // measure 36
0001
0000
0100
0000
,  // measure 37
0001
0000
0010
0000
,  // measure 38
0001
0000
0010
0000
,  // measure 39
1000
0000
0010
0000
,  // measure 40
1000
0000
0010
0000
,  // measure 41
1000
0000
0100
0000
,  // measure 42
1000
0000
0001
0000
,  // measure 43
1000
0000
0001
0000
,  // measure 44
2002
0000
0000
0000
,  // measure 45
0000
0000
0000
0000
,  // measure 46
0000
0000
0000
0000
,  // measure 47
3003
0000
0000
0000
,  // measure 48
0220
0000
0000
0000
,  // measure 49
0000
0000
0000
0000
,  // measure 50
0000
0000
0000
0000
,  // measure 51
0330
0000
0000
0000
,  // measure 52
2002
0000
0000
0000
,  // measure 53
0000
0000
0000
0000
,  // measure 54
0000
0000
0000
0000
,  // measure 55
3003
0000
0000
0000
,  // measure 56
0220
0000
0000
0000
,  // measure 57
0000
0000
0000
0000
,  // measure 58
0000
0000
0000
0000
,  // measure 59
0330
0000
0000
0000
,  // measure 60
1001
0000
0000
0000
,  // measure 61
0100
0000
0000
0000
,  // measure 62
0100
0000
0000
0000
,  // measure 63
0001
0000
0000
0000
,  // measure 64
0100
0000
0000
0000
,  // measure 65
0010
0000
0000
0000
,  // measure 66
1000
0000
0000
0000
,  // measure 67
1000
0000
0000
0000
,  // measure 68
0100
0000
0000
0000
,  // measure 69
0001
0000
0000
0000
,  // measure 70
0100
0000
0000
0000
,  // measure 71
0100
0000
0000
0000
,  // measure 72
0001
0000
0000
0000
,  // measure 73
0001
0000
0000
0000
,  // measure 74
0010
0000
0000
0000
,  // measure 75
0100
0000
0000
0000
,  // measure 76
1000
0000
0000
0000
,  // measure 77
0100
0000
0000
0000
,  // measure 78
1000
0000
0000
0000
,  // measure 79
0100
0000
0000
0000
,  // measure 80
1000
0000
0001
0000
,  // measure 81
0100
0000
0001
0000
,  // measure 82
1000
0000
0010
0000
,  // measure 83
0100
0000
0010
0000
,  // measure 84
1000
0000
1000
0000
,  // measure 85
1000
0000
1000
0000
,  // measure 86
0001
0000
0001
0000
,  // measure 87
0001
0000
0001
0000
,  // measure 88
0100
0000
0100
0000
,  // measure 89
0100
0000
0100
0000
,  // measure 90
0010
0000
0010
0000
,  // measure 91
0020
0000
0000
0030
,  // measure 92
0010
0000
0100
0000
,  // measure 93
0010
0000
0100
0000
,  // measure 94
0100
0000
1000
0000
,  // measure 95
1000
0000
0100
0000
,  // measure 96
1000
0000
1000
0000
,  // measure 97
0100
0000
1000
0000
,  // measure 98
0100
0000
0001
0000
,  // measure 99
0001
0000
0100
0000
,  // measure 100
0010
0000
0001
0000
,  // measure 101
0100
0000
0001
0000
,  // measure 102
0010
0000
0010
0000
,  // measure 103
0010
0000
0010
0000
,  // measure 104
0010
0000
0100
0000
,  // measure 105
0100
0000
0001
0000
,  // measure 106
0010
0000
0100
0000
,  // measure 107
0100
0000
0100
0000
;
