#VERSION:0.83;
#TITLE:I'LL SHOW YOU LOVING;
#SUBTITLE:;
#ARTIST:BASSMONKEYS feat. NATASHA ANDERSON;
#TITLETRANSLIT:;
#SUBTITLETRANSLIT:;
#ARTISTTRANSLIT:;
#GENRE:;
#ORIGIN:;
#CREDIT:;
#BANNER:;
#BACKGROUND:DDR CD-bg.JPG;
#PREVIEWVID:;
#JACKET:I'll show you loving-jacket.jpg;
#CDIMAGE:;
#DISCIMAGE:;
#LYRICSPATH:;
#CDTITLE:;
#MUSIC:Ill_Show_You_Loving.ogg;
#OFFSET:-1.880000;
#SAMPLESTART:37.700035;
#SAMPLELENGTH:14.999991;
#SELECTABLE:YES;
#BPMS:0.000=128.000;
#STOPS:;
#DELAYS:;
#WARPS:;
#TIMESIGNATURES:0.000=4=4;
#TICKCOUNTS:0.000=4;
#COMBOS:0.000=1;
#SPEEDS:0.000=1.000=0.000=0;
#SCROLLS:0.000=1.000;
#FAKES:;
#LABELS:0.000=Song Start;
#BGCHANGES:;
#KEYSOUNDS:;
#ATTACKS:
;

//---------------dance-single - ----------------
#NOTEDATA:;
#CHARTNAME:;
#STEPSTYPE:dance-single;
#DESCRIPTION:;
#CHARTSTYLE:;
#DIFFICULTY:Beginner;
#METER:2;
#RADARVALUES:0.120900,0.178878,0.087928,0.043964,0.000000,77.000000,69.000000,8.000000,4.000000,0.000000,0.000000,0.000000,0.000000,0.000000,0.120900,0.178878,0.087928,0.043964,0.000000,77.000000,69.000000,8.000000,4.000000,0.000000,0.000000,0.000000,0.000000,0.000000;
#CREDIT:;
#NOTES:
// measure 0
0000
0000
0000
0000
,  // measure 1
0000
0000
0000
0000
,  // measure 2
0000
0000
0000
0000
,  // measure 3
0000
0000
0000
0000
,  // measure 4
1000
0000
1000
0000
,  // measure 5
1000
0000
1000
0000
,  // measure 6
0001
0000
0001
0000
,  // measure 7
0001
0000
0001
0000
,  // measure 8
0100
0000
0100
0000
,  // measure 9
0100
0000
0100
0000
,  // measure 10
0010
0000
0010
0000
,  // measure 11
0010
0000
0010
0000
,  // measure 12
1000
1000
0000
0000
,  // measure 13
1000
1000
0000
0000
,  // measure 14
0001
0001
0000
0000
,  // measure 15
0001
0001
0000
0000
,  // measure 16
0100
0100
0000
0000
,  // measure 17
0100
0100
0000
0000
,  // measure 18
0010
0010
0010
0010
,  // measure 19
0010
0000
0000
0000
,  // measure 20
1001
0000
0000
0000
,  // measure 21
1001
0000
0000
0000
,  // measure 22
1001
0000
0000
0000
,  // measure 23
1001
0000
0000
0000
,  // measure 24
1000
0000
0001
0000
,  // measure 25
1000
0000
0001
0000
,  // measure 26
0100
0000
0010
0000
,  // measure 27
0100
0000
0010
0000
,  // measure 28
2000
0000
0000
0000
,  // measure 29
3000
0000
0000
0000
,  // measure 30
0002
0000
0000
0000
,  // measure 31
0003
0000
0000
0000
,  // measure 32
1000
1000
0000
0000
,  // measure 33
1000
1000
0000
0000
,  // measure 34
0001
0001
0000
0000
,  // measure 35
0001
0001
0000
0000
,  // measure 36
1001
0000
0000
0000
,  // measure 37
1001
0000
0000
0000
,  // measure 38
1001
0000
0000
0000
,  // measure 39
1001
0000
0000
0000
,  // measure 40
1000
0000
0001
0000
,  // measure 41
1000
0000
0001
0000
,  // measure 42
0100
0000
0010
0000
,  // measure 43
0100
0000
0010
0000
,  // measure 44
0200
0000
0000
0000
,  // measure 45
0300
0000
0000
0000
,  // measure 46
0020
0000
0030
0000
;

//---------------dance-single - ----------------
#NOTEDATA:;
#CHARTNAME:;
#STEPSTYPE:dance-single;
#DESCRIPTION:;
#CHARTSTYLE:;
#DIFFICULTY:Hard;
#METER:9;
#RADARVALUES:0.392534,0.434417,0.032973,0.263783,0.000000,250.000000,247.000000,3.000000,24.000000,0.000000,0.000000,0.000000,0.000000,0.000000,0.392534,0.434417,0.032973,0.263783,0.000000,250.000000,247.000000,3.000000,24.000000,0.000000,0.000000,0.000000,0.000000,0.000000;
#CREDIT:;
#NOTES:
// measure 0
0000
0000
0000
0000
,  // measure 1
0000
0000
0000
0000
,  // measure 2
0000
0000
0000
0000
,  // measure 3
0000
0000
0000
0000
,  // measure 4
0001
1000
0001
0100
0001
1000
0001
0001
,  // measure 5
1000
0001
1000
0100
1000
0001
1000
1000
,  // measure 6
0001
1000
0001
0010
0001
1000
0001
0001
,  // measure 7
1000
0001
1000
0010
1000
0001
1000
1000
,  // measure 8
0010
0100
0001
0100
0010
0100
0001
0100
,  // measure 9
0010
1000
0010
0100
0010
1000
0010
0100
,  // measure 10
0001
0100
0010
1000
0100
1000
0010
0100
,  // measure 11
0001
0100
0010
0100
0001
1000
0100
1000
,  // measure 12
0002
0103
0020
1030
,  // measure 13
0200
1300
0020
0130
,  // measure 14
0002
0103
0020
1030
,  // measure 15
2000
3010
0200
0301
,  // measure 16
0002
0103
0020
1030
,  // measure 17
0002
0000
1003
0000
2000
3000
0010
0000
,  // measure 18
0020
0230
0302
2003
,  // measure 19
0200
0000
0000
3300
,  // measure 20
1000
0100
1000
0010
1000
0100
1000
0010
,  // measure 21
1000
0100
1000
0010
1000
0100
0010
0001
,  // measure 22
0001
0100
0001
0010
0001
0100
0001
0010
,  // measure 23
0001
0100
0001
0010
0001
1000
0010
0100
,  // measure 24
0010
1000
0010
0100
0010
0001
0010
0100
,  // measure 25
0010
1000
0010
0100
0010
0001
0010
0100
,  // measure 26
0001
1000
0100
1000
0001
0100
0001
1000
,  // measure 27
0100
1000
0001
0100
0001
1000
0100
0000
,  // measure 28
2002
0000
0000
0000
0000
0000
3003
0001
,  // measure 29
0000
1000
0000
0001
0000
1000
0000
0200
,  // measure 30
0000
1000
0000
1000
0000
0000
0000
0000
,  // measure 31
0000
0000
0300
1001
,  // measure 32
1000
1000
1000
1000
,  // measure 33
1000
1000
1000
1000
,  // measure 34
0001
0001
0001
0001
,  // measure 35
0001
0001
0001
0001
,  // measure 36
1000
0100
1000
0010
1000
0100
1000
0010
,  // measure 37
1000
0100
1000
0010
1000
0100
0010
0001
,  // measure 38
0001
0100
0001
0010
0001
0100
0001
0010
,  // measure 39
0001
0100
0001
0010
0001
1000
0010
0100
,  // measure 40
0010
1000
0010
0100
0010
0001
0010
0100
,  // measure 41
0010
1000
0010
0100
0010
0001
0010
0100
,  // measure 42
0001
1000
0100
1000
0001
0100
0001
1000
,  // measure 43
0100
1000
0001
0100
0001
1000
0100
0000
,  // measure 44
2002
0000
3000
0000
,  // measure 45
0200
0000
0003
0000
,  // measure 46
0020
0000
0330
0000
;

//---------------dance-single - ----------------
#NOTEDATA:;
#CHARTNAME:;
#STEPSTYPE:dance-single;
#DESCRIPTION:;
#CHARTSTYLE:;
#DIFFICULTY:Medium;
#METER:7;
#RADARVALUES:0.320307,0.408863,0.087928,0.164864,0.000000,204.000000,196.000000,8.000000,15.000000,0.000000,0.000000,0.000000,0.000000,0.000000,0.320307,0.408863,0.087928,0.164864,0.000000,204.000000,196.000000,8.000000,15.000000,0.000000,0.000000,0.000000,0.000000,0.000000;
#CREDIT:;
#NOTES:
// measure 0
0000
0000
0000
0000
,  // measure 1
0000
0000
0000
0000
,  // measure 2
0000
0000
0000
0000
,  // measure 3
0000
0000
0000
0000
,  // measure 4
1000
0000
0001
0000
0100
0010
0100
0000
,  // measure 5
0001
0000
0100
0000
0010
1000
0010
0000
,  // measure 6
1000
0000
0100
0000
1000
0010
0100
0000
,  // measure 7
0001
0000
0100
0000
0010
1000
0010
0000
,  // measure 8
1000
0000
0001
0000
0100
0001
1000
0000
,  // measure 9
0100
0000
1000
0000
0001
1000
0100
0000
,  // measure 10
1000
0000
0010
0000
0100
0001
0100
0000
,  // measure 11
0001
0000
0100
0000
0010
1000
0010
0000
,  // measure 12
1001
0000
0100
0000
0010
0100
0010
0000
,  // measure 13
1000
0100
1000
0010
,  // measure 14
0100
0001
0100
0010
,  // measure 15
1000
0100
1000
0001
,  // measure 16
1001
0000
0010
0000
0100
0001
0100
0000
,  // measure 17
0010
1000
0100
0010
,  // measure 18
0001
0010
0100
1000
,  // measure 19
2002
0000
0000
3003
,  // measure 20
1000
0001
1000
0000
1000
0100
1000
0000
,  // measure 21
0001
1000
0001
0000
0001
0100
0001
0000
,  // measure 22
1000
1000
0001
0001
,  // measure 23
1000
0001
1000
0001
1000
0001
1000
0000
,  // measure 24
0001
0100
0001
0000
0001
0010
0001
0000
,  // measure 25
1000
0001
1000
0000
1000
0100
1000
0000
,  // measure 26
0010
0100
0010
0100
0010
0100
0010
0000
,  // measure 27
1000
0001
1000
0001
1000
0001
1000
0001
,  // measure 28
0200
0000
0000
0000
0000
0000
0000
0320
,  // measure 29
0000
2030
0000
3200
0000
2300
0000
3020
,  // measure 30
0000
0230
0000
0000
,  // measure 31
0000
0301
0000
0001
,  // measure 32
1001
0100
0100
0100
,  // measure 33
1001
0100
0100
0100
,  // measure 34
1001
0100
0100
0100
,  // measure 35
2002
0000
0000
3003
,  // measure 36
1000
0001
1000
0000
1000
0100
1000
0000
,  // measure 37
0001
1000
0001
0000
0001
0100
0001
0000
,  // measure 38
1000
1000
0001
0001
,  // measure 39
1000
0001
1000
0001
1000
0001
1000
0000
,  // measure 40
0001
0100
0001
0000
0001
0010
0001
0000
,  // measure 41
1000
0001
1000
0000
1000
0100
1000
0000
,  // measure 42
0010
0100
0010
0100
0010
0100
0010
0000
,  // measure 43
1000
0001
1000
0001
1000
0001
1000
0001
,  // measure 44
2000
0000
3000
0000
,  // measure 45
0002
0000
0003
0000
,  // measure 46
0220
0000
0330
0000
;

//---------------dance-single - ----------------
#NOTEDATA:;
#CHARTNAME:;
#STEPSTYPE:dance-single;
#DESCRIPTION:;
#CHARTSTYLE:;
#DIFFICULTY:Easy;
#METER:4;
#RADARVALUES:0.237090,0.281093,0.164864,0.153873,0.000000,151.000000,136.000000,15.000000,14.000000,0.000000,0.000000,0.000000,0.000000,0.000000,0.237090,0.281093,0.164864,0.153873,0.000000,151.000000,136.000000,15.000000,14.000000,0.000000,0.000000,0.000000,0.000000,0.000000;
#CREDIT:;
#NOTES:
// measure 0
0000
0000
0000
0000
,  // measure 1
0000
0000
0000
0000
,  // measure 2
0000
0000
0000
0000
,  // measure 3
0000
0000
0000
0000
,  // measure 4
0001
0100
0001
0100
,  // measure 5
0001
1000
0001
1000
,  // measure 6
0001
0010
0001
0010
,  // measure 7
0001
1000
0001
1000
,  // measure 8
0010
1000
0010
1000
,  // measure 9
0100
1000
0100
1000
,  // measure 10
0010
1000
0010
1000
,  // measure 11
0100
1000
0001
0100
,  // measure 12
0010
0010
0010
0000
,  // measure 13
1000
1000
1000
0000
,  // measure 14
0001
0001
0001
0000
,  // measure 15
0100
0100
0100
0000
,  // measure 16
0001
0001
0001
0000
,  // measure 17
0010
0010
0010
0000
,  // measure 18
0100
0100
0100
0000
,  // measure 19
2002
0000
0000
3003
,  // measure 20
1100
0100
1000
0100
,  // measure 21
1000
0010
0100
0001
,  // measure 22
0101
0001
0010
0100
,  // measure 23
0010
0001
0010
0001
,  // measure 24
0011
0001
0100
0010
,  // measure 25
1000
0001
1000
0010
,  // measure 26
1010
0010
0100
0001
,  // measure 27
0100
0010
1000
0100
,  // measure 28
2002
0000
0000
0000
,  // measure 29
3003
0000
0000
0000
,  // measure 30
0220
0000
0000
0000
,  // measure 31
0330
0000
0000
0000
,  // measure 32
1000
1000
0001
0001
,  // measure 33
1000
1000
0001
0001
,  // measure 34
0100
0010
0100
0010
,  // measure 35
0220
0000
0000
0330
,  // measure 36
1010
0100
1000
0100
,  // measure 37
1000
0010
0100
0001
,  // measure 38
0011
0001
0010
0100
,  // measure 39
0010
0001
0010
0001
,  // measure 40
0101
0001
0100
0010
,  // measure 41
1000
0001
1000
0010
,  // measure 42
1100
0010
0100
0001
,  // measure 43
0100
0010
1000
0100
,  // measure 44
2002
0000
3003
0000
,  // measure 45
0220
0000
0330
0000
,  // measure 46
2002
0000
3003
0000
;
