#VERSION:0.83;
#TITLE:I TURN TO YOU;
#SUBTITLE:;
#ARTIST:MELANIE C;
#TITLETRANSLIT:;
#SUBTITLETRANSLIT:;
#ARTISTTRANSLIT:;
#GENRE:Trance;
#ORIGIN:;
#CREDIT:;
#BANNER:;
#BACKGROUND:DDR CD-bg.JPG;
#PREVIEWVID:;
#JACKET:I Turn To You-jacket.jpg;
#CDIMAGE:;
#DISCIMAGE:;
#LYRICSPATH:;
#CDTITLE:;
#MUSIC:I Turn To You.ogg;
#OFFSET:-0.109166;
#SAMPLESTART:53.900566;
#SAMPLELENGTH:12.000000;
#SELECTABLE:YES;
#BPMS:0.000=138.018;
#STOPS:;
#DELAYS:;
#WARPS:;
#TIMESIGNATURES:0.000=4=4;
#TICKCOUNTS:0.000=4;
#COMBOS:0.000=1;
#SPEEDS:0.000=1.000=0.000=0;
#SCROLLS:0.000=1.000;
#FAKES:;
#LABELS:0.000=Song Start;
#BGCHANGES:;
#KEYSOUNDS:;
#ATTACKS:
;

//---------------dance-single - ----------------
#NOTEDATA:;
#CHARTNAME:;
#STEPSTYPE:dance-single;
#DESCRIPTION:;
#CHARTSTYLE:;
#DIFFICULTY:Hard;
#METER:11;
#RADARVALUES:0.377320,0.468846,0.243970,0.127289,0.063644,249.000000,226.000000,23.000000,12.000000,0.000000,0.000000,0.000000,0.000000,0.000000,0.377320,0.468846,0.243970,0.127289,0.063644,249.000000,226.000000,23.000000,12.000000,0.000000,0.000000,0.000000,0.000000,0.000000;
#CREDIT:;
#NOTES:
0000
0000
0000
0000
,
0000
0000
0000
0000
,
0000
0000
0000
0000
,
0000
0000
0000
0000
,
0001
0000
1000
0100
0000
0000
1000
0000
0001
0000
1000
0100
0000
0000
1000
0000
,
0000
0000
0000
0000
,
1000
0010
0100
0001
1000
0100
0010
0001
,
1000
1000
0100
0100
0010
0010
0001
0001
,
1000
0000
1000
0001
0000
0000
0100
0000
0001
0000
0001
1000
0000
0000
0100
0000
,
1000
1010
0001
0101
,
1000
0000
1000
0100
0000
0000
0010
0000
0001
0000
0001
0100
0000
0000
0010
0000
,
1000
1100
0001
0011
,
1000
0000
0001
0100
0000
0000
0001
0000
1000
0000
0001
0100
0000
0000
0001
0000
,
1000
0000
1000
0100
0000
0000
0010
0000
0100
0000
1000
0100
0000
0000
0010
0000
,
0001
0000
0001
0100
0000
0000
0010
0000
0100
0000
0001
0100
0000
0000
0010
0000
,
1000
0100
0010
0001
0100
0010
1000
0001
,
0010
0000
1000
0100
1000
0100
0000
1001
,
0000
1001
0000
0001
0100
0001
0000
0110
,
0000
1001
0000
0201
0000
0310
0000
1000
,
0000
0100
0000
0001
0000
0010
0000
1000
,
0000
0100
1000
0100
0000
0010
0001
0010
,
0000
0100
1000
0001
0100
0001
0000
1002
,
0000
0013
0000
0100
0000
1000
0000
0010
,
0000
0100
0000
0001
0000
1000
0000
0010
,
0000
1000
1000
0100
0000
0001
0001
0010
,
0000
0001
0100
1000
0100
0001
0000
0110
,
0000
1010
0000
1000
0000
0100
0000
0110
,
0000
0011
0000
0100
0000
0010
0000
1000
,
0001
1000
0000
0110
0000
1001
0000
1100
,
0000
0101
0000
0010
1000
0000
1000
0100
,
0000
0100
0010
0000
0010
0001
0000
0001
,
2000
0000
3010
0000
0002
0000
0103
0010
,
0000
1010
0000
1100
0000
0000
0001
1000
,
0100
1000
0000
1000
0000
0001
0000
0100
,
0010
0000
0010
1000
0000
1000
0100
0000
,
0002
0000
0013
0000
2000
0000
3100
0010
,
0000
0011
0000
0101
0000
0000
0000
1000
,
1000
0000
0001
0001
0000
0010
0000
0200
,
0000
0000
0300
0000
,
0000
0010
0001
1000
0000
1000
0000
0100
,
0020
0000
0030
0000
,
0000
0001
0001
0100
0000
1000
0000
0010
,
0020
0000
0030
0000
,
0000
0000
1000
0000
1000
0000
1000
0002
,
0000
0100
1000
0010
,
2003
0100
0001
3010
,
1000
0100
0001
0100
1000
0010
0001
0010
,
1000
0010
0100
0001
1000
0100
0010
0002
,
0000
0000
0000
0000
,
0000
0000
0000
0000
,
0003
0000
0000
0000
,
0000
0000
0000
0000
,
1001
0000
0000
0000
;

//---------------dance-single - ----------------
#NOTEDATA:;
#CHARTNAME:;
#STEPSTYPE:dance-single;
#DESCRIPTION:;
#CHARTSTYLE:;
#DIFFICULTY:Medium;
#METER:8;
#RADARVALUES:0.274276,0.386109,0.127289,0.106074,0.010607,181.000000,169.000000,12.000000,10.000000,0.000000,0.000000,0.000000,0.000000,0.000000,0.274276,0.386109,0.127289,0.106074,0.010607,181.000000,169.000000,12.000000,10.000000,0.000000,0.000000,0.000000,0.000000,0.000000;
#CREDIT:;
#NOTES:
0000
0000
0000
0000
,
0000
0000
0000
0000
,
0000
0000
0000
0000
,
0000
0000
0000
0000
,
1000
0000
0000
1000
0000
0000
0000
0000
0001
0000
0000
0001
0000
0000
0000
0000
,
0000
0000
0000
0000
,
0010
0010
0100
0100
,
0001
1000
0001
1000
0001
0000
0100
0000
,
1000
1000
0010
0010
,
0001
0000
0001
0000
0100
0000
0010
1000
,
0001
0010
1000
0100
,
0001
0000
0010
0000
1000
0000
0100
0010
,
0100
0011
0100
1010
,
0100
1001
0010
1001
,
0002
0103
2000
3100
,
0002
0010
1000
0100
,
1003
0000
0010
0001
,
1000
1000
0010
0100
,
0001
0001
1000
0100
,
0001
0010
1000
0001
,
0100
0000
0010
0010
,
1000
0100
1000
0001
,
0100
0010
0001
1000
,
0100
1000
0001
0000
,
1000
1000
0010
0010
,
0100
0000
0100
0000
0001
1000
0000
2002
,
0000
0000
0000
3003
,
1000
0100
0001
0100
,
1000
0001
0100
0010
,
1000
0000
0001
0000
0010
0000
0100
0010
,
0000
0000
0000
0000
,
1001
0000
0010
0000
1000
0000
0100
0010
,
0000
0000
0000
0001
,
0001
1000
1000
0010
,
0100
0000
0001
1000
0000
0000
0000
0000
,
0001
0000
0100
0000
1000
0000
0100
0010
,
0000
0001
0100
1000
,
0100
0000
0001
1000
0000
0010
0000
0100
,
0000
0010
1000
0100
,
0010
0001
0100
1000
,
0110
1000
0001
1000
,
0110
0001
1000
0001
,
0011
1000
0100
1000
,
1010
0000
0001
0000
0100
0000
0001
1000
,
0020
0100
1000
0100
,
2030
0100
0001
0100
,
3002
0010
1000
0013
,
1000
0100
1000
0001
0010
0000
0100
0000
,
2002
0000
0000
0000
,
0000
0000
0000
0000
,
3003
0000
0000
0000
,
0000
0000
0000
0000
,
1010
0000
0000
0000
;

//---------------dance-single - ----------------
#NOTEDATA:;
#CHARTNAME:;
#STEPSTYPE:dance-single;
#DESCRIPTION:;
#CHARTSTYLE:;
#DIFFICULTY:Easy;
#METER:5;
#RADARVALUES:0.233362,0.303371,0.084859,0.297007,0.000000,154.000000,146.000000,8.000000,28.000000,0.000000,0.000000,0.000000,0.000000,0.000000,0.233362,0.303371,0.084859,0.297007,0.000000,154.000000,146.000000,8.000000,28.000000,0.000000,0.000000,0.000000,0.000000,0.000000;
#CREDIT:;
#NOTES:
0000
0000
0000
0000
,
0000
0000
0000
0000
,
0000
0000
0000
0000
,
0000
0000
0000
0000
,
2000
3000
0002
0003
,
0000
0000
0000
0000
,
0020
0030
0200
0300
,
1000
0010
0001
0100
,
1001
1000
0010
1000
,
0100
1000
0001
0010
,
1001
0001
0100
0001
,
1000
0001
0010
0100
,
0010
0010
0001
0001
,
0100
0100
0010
0010
,
1000
1000
0100
0100
,
0010
0010
0001
1000
,
0020
0030
0100
0001
,
1000
0100
0010
0001
,
2000
3000
2000
3000
,
0001
0100
0010
0000
,
0002
0003
0100
0010
,
0100
0001
0010
0100
,
2000
3000
0002
0003
,
0020
0030
0200
0300
,
0010
0110
0001
0100
,
0010
0110
1000
0100
,
0010
0100
0010
0100
,
1000
0001
1000
0010
,
1000
0100
0001
0010
,
0001
0100
1000
0010
,
0200
0310
0200
0310
,
2000
0001
0001
3001
,
0220
0000
0000
0330
,
1000
0001
0100
0010
,
2000
0000
3000
0000
,
0001
0010
0100
1000
,
0002
0000
0003
0000
,
0010
0100
0010
0001
,
0200
0000
0300
0000
,
0010
1000
0100
0010
,
2001
0100
3001
0000
,
0001
0100
0010
0000
,
1002
0100
1003
0000
,
1000
0100
0010
0001
,
2000
0100
0100
3100
,
0020
0001
0001
0031
,
0200
0001
0001
0301
,
0020
0100
0100
0130
,
2002
0000
0000
0000
,
0000
0000
0000
0000
,
3003
0000
0000
0000
,
0000
0000
0000
0000
,
0010
0000
0000
0000
;

//---------------dance-single - ----------------
#NOTEDATA:;
#CHARTNAME:;
#STEPSTYPE:dance-single;
#DESCRIPTION:;
#CHARTSTYLE:;
#DIFFICULTY:Beginner;
#METER:2;
#RADARVALUES:0.100012,0.165475,0.042430,0.095466,0.000000,66.000000,62.000000,4.000000,9.000000,0.000000,0.000000,0.000000,0.000000,0.000000,0.100012,0.165475,0.042430,0.095466,0.000000,66.000000,62.000000,4.000000,9.000000,0.000000,0.000000,0.000000,0.000000,0.000000;
#CREDIT:;
#NOTES:
// measure 0
0000
0000
0000
0000
,  // measure 1
0000
0000
0000
0000
,  // measure 2
0000
0000
0000
0000
,  // measure 3
0000
0000
0000
0000
,  // measure 4
0001
0000
1000
0000
,  // measure 5
0001
0000
0000
0000
,  // measure 6
0010
0000
0010
0000
,  // measure 7
0010
0000
0000
0000
,  // measure 8
0100
0000
0100
0000
,  // measure 9
0010
0000
0010
0000
,  // measure 10
0002
0000
0000
0000
,  // measure 11
0003
0000
0000
0000
,  // measure 12
1000
0000
0001
0000
,  // measure 13
0100
0000
0010
0000
,  // measure 14
2000
0000
0000
0000
,  // measure 15
3000
0000
0000
0000
,  // measure 16
0010
0000
0000
0000
,  // measure 17
0100
0000
0000
0000
,  // measure 18
0010
0000
0000
0000
,  // measure 19
0100
0000
0000
0000
,  // measure 20
1001
0000
1000
0000
,  // measure 21
1000
0000
1000
0000
,  // measure 22
0001
0000
0001
0000
,  // measure 23
0001
0000
0001
0000
,  // measure 24
0010
0000
0100
0000
,  // measure 25
1000
0000
0010
0000
,  // measure 26
0200
0000
0300
0000
,  // measure 27
0000
0000
0000
0000
,  // measure 28
0001
0000
0010
0000
,  // measure 29
0100
0000
1000
0000
,  // measure 30
0002
0000
0003
0000
,  // measure 31
0100
0000
0000
0000
,  // measure 32
0110
0000
0000
0000
,  // measure 33
0010
0000
1000
0000
,  // measure 34
0100
0000
0000
0000
,  // measure 35
0010
0000
0010
0000
,  // measure 36
0001
0000
0000
0000
,  // measure 37
1000
0000
0001
0000
,  // measure 38
1000
0000
0000
0000
,  // measure 39
0010
0000
0100
0000
,  // measure 40
1001
0000
0000
0000
,  // measure 41
0001
0000
0001
0000
,  // measure 42
0200
0000
0000
0000
,  // measure 43
0300
0000
0000
0000
,  // measure 44
0020
0000
0030
0000
,  // measure 45
0200
0000
0300
0000
,  // measure 46
2000
0000
3000
0000
,  // measure 47
0001
0000
1000
0000
,  // measure 48
0020
0000
0000
0000
,  // measure 49
0000
0000
0000
0000
,  // measure 50
0030
0000
0000
0000
,  // measure 51
0000
0000
0000
0000
,  // measure 52
0110
0000
0000
0000
;
