#VERSION:0.83;
#TITLE:I LOVE YOU BABY;
#SUBTITLE:;
#ARTIST:PANDERA;
#TITLETRANSLIT:;
#SUBTITLETRANSLIT:;
#ARTISTTRANSLIT:;
#GENRE:;
#ORIGIN:;
#CREDIT:;
#BANNER:I LOVE YOU BABY.png;
#BACKGROUND:I LOVE YOU BABY-bg.png;
#PREVIEWVID:;
#JACKET:I LOVE YOU BABY-jacket.png;
#CDIMAGE:;
#DISCIMAGE:;
#LYRICSPATH:;
#CDTITLE:;
#MUSIC:I Love You Baby.ogg;
#OFFSET:1.980000;
#SAMPLESTART:31.599998;
#SAMPLELENGTH:15.000006;
#SELECTABLE:YES;
#BPMS:0.000=100.000;
#STOPS:;
#DELAYS:;
#WARPS:;
#TIMESIGNATURES:0.000=4=4;
#TICKCOUNTS:0.000=4;
#COMBOS:0.000=1;
#SPEEDS:0.000=1.000=0.000=0;
#SCROLLS:0.000=1.000;
#FAKES:;
#LABELS:0.000=Song Start;
#BGCHANGES:3.000=I LOVE YOU BABY.mp4=1.000=1=0=1===CrossFade==,
169.000=I LOVE YOU BABY-bg.png=1.000=0=0=1=====,
99999=-nosongbg-=1.000=0=0=0 // don't automatically add -songbackground-
;
#KEYSOUNDS:;
#ATTACKS:
;

//---------------dance-single - ----------------
#NOTEDATA:;
#CHARTNAME:;
#STEPSTYPE:dance-single;
#DESCRIPTION:;
#CHARTSTYLE:;
#DIFFICULTY:Hard;
#METER:14;
#RADARVALUES:0.556623,0.685324,0.108782,0.079114,0.647745,394.000000,383.000000,11.000000,8.000000,0.000000,0.000000,0.000000,0.000000,0.000000,0.556623,0.685324,0.108782,0.079114,0.647745,394.000000,383.000000,11.000000,8.000000,0.000000,0.000000,0.000000,0.000000,0.000000;
#CREDIT:;
#NOTES:
0000
0000
0000
0000
,
0000
0000
0000
0000
,
0000
0000
0000
0000
,
0000
0000
0000
0000
,
1000
0000
0001
0000
0100
0000
0001
1000
0000
0000
1000
0000
0100
0000
0010
0000
,
0001
0000
0010
0000
0100
0000
1000
0010
0000
0100
0002
0000
0100
0000
1003
0000
,
0000
1000
0010
0100
0001
1000
0000
1000
0001
1000
0001
1000
0100
0000
0100
0000
,
0000
1000
0010
0100
0001
0100
0000
0100
0010
0100
0001
1000
0001
1000
0001
0010
,
0000
0010
0001
0010
0100
1000
0000
1000
0100
0010
0001
0100
0010
0000
0100
0000
,
0000
0001
1000
0100
0010
0100
0000
1000
0100
1000
0100
0010
0001
0010
0001
0000
,
0000
1000
0010
0100
0001
1000
0000
0001
1000
0001
1000
0100
1000
0000
0001
0000
,
0000
0100
0001
0100
0010
0100
0000
0001
1000
0100
0010
0001
0010
0100
1000
0001
,
0000
1000
0001
0100
0001
0010
0000
0001
0100
0001
0010
0001
1000
0000
0100
0000
,
0000
1000
0010
0100
0001
0100
0000
0010
1000
0100
0010
0001
0010
0001
0100
0000
,
1001
0100
1001
0100
0010
0100
0001
0100
,
0010
0001
0010
0100
0001
0100
0010
0000
,
1001
0100
1001
0100
1000
0100
0010
0100
,
1000
0010
0100
0010
1000
0100
1000
0000
,
1001
0100
1001
0100
0001
0010
0100
1000
,
0010
0100
0001
0010
0100
1000
0001
0000
,
1001
0100
1001
0100
0010
0100
0010
0100
,
1002
0000
0000
0100
0000
0000
0010
0000
0000
0100
0000
0000
1003
0000
0000
0000
,
0000
1000
0001
0100
0010
0000
0000
1000
0001
0100
0010
1000
0001
0100
0010
0000
,
1000
0100
0010
0001
0010
0100
1000
0100
0010
0000
0001
0010
0100
1000
0100
0010
,
0001
0000
1000
0000
0001
1000
0001
1000
0001
0100
0010
0000
0100
0000
0001
0000
,
0001
1000
0001
1000
0001
0000
0001
1000
0001
1000
0100
1000
0010
1000
0100
1000
,
0010
1000
0100
0010
0100
1000
0010
0100
0010
1000
0100
0010
0001
0010
0001
0100
,
0010
1000
0100
1000
0010
0100
0001
0100
0010
1000
0100
1000
0010
0100
0001
0100
,
0010
1000
0100
1000
0010
0100
0001
0100
,
0010
1000
0100
0010
0001
0100
1001
0000
,
1000
0000
0001
0000
0100
0000
0001
1000
0000
0000
1000
0000
0100
0000
0010
0000
,
0001
0000
0010
0000
0100
0000
1000
0010
0000
0100
0002
0000
0100
0000
1003
0000
,
0001
0000
1000
0000
0010
0000
1000
0001
0000
0000
0001
0000
0010
0000
0100
0000
,
1000
0000
0100
0000
0010
0000
0001
0100
0000
0010
2000
0000
0010
0000
3001
0000
,
2000
0001
0000
0001
0000
0001
0000
3001
,
0002
0100
0000
0100
0000
0100
0000
0103
,
0200
0010
0000
0010
0000
0010
0000
0310
,
0020
1000
0000
1000
0000
1000
0000
1030
,
0000
1000
0010
0100
0001
1000
0000
1000
0001
1000
0001
1000
0100
0000
0100
0000
,
0000
1000
0010
0100
0001
0100
0000
0100
0010
0100
0001
1000
0001
1000
0001
0010
,
0000
0010
0001
0010
0100
1000
0000
1000
0100
0010
0001
0100
0010
0000
0100
0000
,
0000
0001
1000
0100
0010
0100
0000
1000
0100
1000
0100
0010
0001
0010
0001
0000
,
1001
0000
0000
0000
;

//---------------dance-single - ----------------
#NOTEDATA:;
#CHARTNAME:;
#STEPSTYPE:dance-single;
#DESCRIPTION:;
#CHARTSTYLE:;
#DIFFICULTY:Medium;
#METER:8;
#RADARVALUES:0.323519,0.332278,0.306566,0.079114,0.014834,229.000000,198.000000,31.000000,8.000000,0.000000,0.000000,0.000000,0.000000,0.000000,0.323519,0.332278,0.306566,0.079114,0.014834,229.000000,198.000000,31.000000,8.000000,0.000000,0.000000,0.000000,0.000000,0.000000;
#CREDIT:;
#NOTES:
0000
0000
0000
0000
,
0000
0000
0000
0000
,
0000
0000
0000
0000
,
0000
0000
0000
0000
,
1000
0001
1000
0001
1000
0001
1000
0000
,
0001
1000
0001
1000
0001
1000
0001
0000
,
1001
0000
0001
0000
1000
0100
1000
0000
,
1001
0000
1000
0000
0001
0100
0001
0000
,
1001
0000
0010
0000
1000
0010
1000
0000
,
1001
0000
0100
0000
0001
1000
0001
0000
,
1001
0000
0100
0000
0010
0001
0010
0000
,
1001
0000
1000
0000
0001
0100
0001
0000
,
1001
0000
0100
1000
0001
0000
0100
0000
,
1001
0000
0010
1000
0001
0100
0001
0000
,
2001
0000
0100
0100
0100
0000
3001
0000
,
1002
0000
0100
0000
1000
0100
1003
0000
,
2001
0000
0010
0010
0010
0000
3001
0000
,
1002
0000
0000
1000
0000
0000
1000
0000
0100
0000
0100
0000
0103
0000
0000
0000
,
2001
0000
0100
0100
0100
0000
3010
0000
,
1002
0000
0010
0010
0010
0000
1003
0000
,
2001
0000
0100
0100
0100
0000
3010
0000
,
1002
0000
0000
0100
0000
0000
0010
0000
0000
0100
0000
0000
1003
0000
0000
0000
,
1001
0000
0001
0000
1000
0010
1000
0000
,
1001
0000
0100
0000
0001
1000
0001
0000
,
1001
0000
0100
0000
1000
0001
1000
0000
,
1001
0000
0100
0000
0001
1000
0010
0000
,
1001
0000
0001
0000
0100
0001
0010
0000
,
1001
0000
0001
0000
0100
1000
0001
0000
,
1001
0000
1000
0000
0100
0010
0100
0000
,
1001
0000
0001
0000
1000
0001
1000
0001
,
1000
1000
1000
0000
0001
0001
0001
0000
,
1000
1000
1000
0000
0001
0001
0001
0000
,
0100
0100
0100
0000
0010
0010
0010
0000
,
0100
0100
0100
0000
0010
0010
0010
0000
,
1001
0100
0001
0100
,
0010
1000
0010
1000
,
1001
0100
1000
0100
,
0010
0001
0010
0001
,
1001
0000
0001
0000
1000
0100
1000
0000
,
1001
0000
1000
0000
0001
0100
0001
0000
,
1001
0000
0010
0000
1000
0010
1000
0000
,
1001
0000
0100
0000
0001
1000
0001
0000
,
1001
0000
0000
0000
;

//---------------dance-single - ----------------
#NOTEDATA:;
#CHARTNAME:;
#STEPSTYPE:dance-single;
#DESCRIPTION:;
#CHARTSTYLE:;
#DIFFICULTY:Easy;
#METER:4;
#RADARVALUES:0.197785,0.207674,0.029668,0.118671,0.000000,140.000000,137.000000,3.000000,12.000000,0.000000,0.000000,0.000000,0.000000,0.000000,0.197785,0.207674,0.029668,0.118671,0.000000,140.000000,137.000000,3.000000,12.000000,0.000000,0.000000,0.000000,0.000000,0.000000;
#CREDIT:;
#NOTES:
0000
0000
0000
0000
,
0000
0000
0000
0000
,
0000
0000
0000
0000
,
0000
0000
0000
0000
,
0010
1000
0010
0100
,
0010
1000
0100
0001
,
0100
1000
0001
1000
,
0100
1000
0010
1000
,
0001
1000
0010
0100
,
0001
0010
0001
0010
,
0100
1000
0010
0100
,
0001
1000
0100
1000
,
0001
1000
0001
1000
,
0100
0010
0100
0010
,
0001
1000
0020
0030
,
0100
0001
0200
0300
,
1000
1000
0002
0003
,
1000
0010
2000
3000
,
0010
0010
0002
0003
,
1000
0001
0200
0300
,
1000
0001
0200
0300
,
0001
1000
0200
0300
,
1000
1000
0001
0001
,
1000
0001
0100
0001
,
1000
0001
1000
0001
,
0010
0100
0010
0100
,
1000
0100
0010
0001
,
1000
0010
1000
0001
,
0100
0010
0100
0010
,
1000
0100
0010
0001
,
2002
0000
0000
3003
,
0001
0010
0100
1000
,
2002
0000
0000
3003
,
1000
0001
0100
0010
,
1000
1000
1000
1000
,
1000
1000
1000
0000
,
0001
0001
0001
0001
,
0001
0001
0001
0000
,
0100
1000
0001
1000
,
0100
1000
0010
1000
,
0001
1000
0010
0100
,
0001
0010
0001
0010
,
1001
0000
0000
0000
;

//---------------dance-single - ----------------
#NOTEDATA:;
#CHARTNAME:;
#STEPSTYPE:dance-single;
#DESCRIPTION:;
#CHARTSTYLE:;
#DIFFICULTY:Beginner;
#METER:2;
#RADARVALUES:0.127147,0.145372,0.000000,0.108782,0.000000,90.000000,90.000000,0.000000,11.000000,0.000000,0.000000,0.000000,0.000000,0.000000,0.127147,0.145372,0.000000,0.108782,0.000000,90.000000,90.000000,0.000000,11.000000,0.000000,0.000000,0.000000,0.000000,0.000000;
#CREDIT:;
#NOTES:
0000
0000
0000
0000
,
0000
0000
0000
0000
,
0000
0000
0000
0000
,
0000
0000
0000
0000
,
1000
0000
1000
0000
,
0001
0000
0001
0000
,
0100
0100
0100
0000
,
0010
0010
0010
0000
,
1000
1000
1000
0000
,
0100
0100
0100
0000
,
0001
0001
0001
0000
,
0010
0010
0010
0000
,
0100
0100
0100
0000
,
0010
0010
0010
0000
,
2000
3000
1000
0000
,
0200
0300
0100
0000
,
0020
0030
0010
0000
,
0002
0003
0001
0000
,
2000
3000
1000
0000
,
0200
0300
0100
0000
,
0020
0030
0010
0000
,
0002
0003
0001
0000
,
1000
1000
1000
0000
,
0100
0100
0100
0000
,
0010
0010
0010
0000
,
0100
0100
0100
0000
,
0001
0001
0001
0000
,
0010
0010
0010
0000
,
0001
0001
0001
0000
,
0100
0100
0100
0000
,
0010
0000
0010
0000
,
1000
0000
1000
0000
,
0100
0000
0100
0000
,
0010
0000
0010
0000
,
2000
0000
0000
0000
,
3000
0000
0000
0000
,
0002
0000
0000
0000
,
0003
0000
0000
0000
,
0100
0100
0100
0000
,
0010
0010
0010
0000
,
0100
0100
0100
0000
,
0010
0010
0020
0000
,
0030
0000
0000
0000
;
