#VERSION:0.83;
#TITLE:I Got My Mind Made Up;
#SUBTITLE:;
#ARTIST:INSTANT FUNK;
#TITLETRANSLIT:;
#SUBTITLETRANSLIT:;
#ARTISTTRANSLIT:;
#GENRE:;
#ORIGIN:;
#CREDIT:;
#BANNER:;
#BACKGROUND:I Got My Mind Made Up-bg.png;
#PREVIEWVID:;
#JACKET:I Got My Mind Made Up-jacket.png;
#CDIMAGE:;
#DISCIMAGE:;
#LYRICSPATH:;
#CDTITLE:;
#MUSIC:I Got My Mind Made Up.ogg;
#OFFSET:-0.128000;
#SAMPLESTART:48.525131;
#SAMPLELENGTH:12.000000;
#SELECTABLE:YES;
#BPMS:0.000=113.043;
#STOPS:;
#DELAYS:;
#WARPS:;
#TIMESIGNATURES:0.000=4=4;
#TICKCOUNTS:0.000=4;
#COMBOS:0.000=1;
#SPEEDS:0.000=1.000=0.000=0;
#SCROLLS:0.000=1.000;
#FAKES:;
#LABELS:0.000=Song Start;
#BGCHANGES:;
#KEYSOUNDS:;
#ATTACKS:
;

//---------------dance-single - Nifara----------------
#NOTEDATA:;
#CHARTNAME:Nifara;
#STEPSTYPE:dance-single;
#DESCRIPTION:Nifara;
#CHARTSTYLE:;
#DIFFICULTY:Hard;
#METER:12;
#RADARVALUES:0.390378,0.464353,0.122227,0.034922,0.471447,313.000000,299.000000,14.000000,4.000000,0.000000,0.000000,0.000000,0.000000,0.000000,0.390378,0.464353,0.122227,0.034922,0.471447,313.000000,299.000000,14.000000,4.000000,0.000000,0.000000,0.000000,0.000000,0.000000;
#CREDIT:Nifara;
#NOTES:
0000
0000
0000
0000
,
0000
0000
0000
0000
,
1000
0001
0000
1000
0000
0000
2000
0000
0000
0000
0000
0000
0000
0000
3000
0000
,
0010
1000
0100
0010
,
0100
0010
0000
0010
0000
0000
0100
0000
0000
0000
0000
0000
0000
0000
0000
0000
,
1000
0010
0001
0100
1000
0010
1000
0001
,
1000
0100
0000
0010
0000
0000
2000
0000
0000
0000
0000
0000
3000
0000
0000
0000
,
1000
0000
0000
0100
0000
0000
0010
0000
0000
1000
0000
0000
0001
0000
0100
0000
,
0010
0000
0000
1000
0000
0000
0001
0000
0100
0000
0010
0000
0100
0000
0010
0000
,
1000
0000
0000
0100
0000
0000
0001
0000
0000
0100
0000
0000
0010
0000
0100
0000
,
1000
0000
0000
1000
0000
0000
0010
0000
0000
0000
0100
0000
0001
0000
1000
0000
,
0010
0000
0000
0000
0100
0000
0001
0100
0001
0100
0010
0000
1000
0000
0000
0000
,
0100
0000
0000
0000
0001
0000
0000
0000
0100
0001
0100
0010
1000
0000
0010
0000
,
0000
0000
0000
0000
0100
0000
0000
0000
0010
1000
0010
0100
0010
0000
0000
0000
,
1000
0000
0000
0000
0100
0000
0000
0000
1000
0100
1000
0100
1000
0000
0000
0000
,
0001
0000
0000
0000
0001
0000
0000
0000
0100
0001
1000
0001
1000
0000
0000
0000
,
0010
0000
0000
0000
0100
0000
0000
0001
0000
0000
0100
0000
0010
0000
0100
0010
,
0100
0010
0000
0000
0010
0000
0000
0000
0100
0001
0100
0001
0100
0000
0000
0000
,
1001
0000
0000
0000
1001
0000
0000
0000
1001
0000
0000
0000
1001
0000
1000
0010
,
0000
0000
0000
0000
0100
0000
0000
0100
0000
0000
0000
0000
0001
0000
0000
0000
,
0100
0010
0001
0010
,
1000
0100
0001
0000
1000
0000
0100
0000
,
0001
0000
0000
0000
0010
0000
0100
0000
0000
0000
0001
0000
0000
0001
0010
0100
,
0010
0000
0100
0000
1000
0000
0010
1000
0000
0000
0001
0000
0100
0001
0000
0000
,
0100
0010
0000
0100
0000
0000
0000
0000
0000
0000
0000
0000
0010
1000
0000
1010
,
0000
0000
0000
0000
0100
0000
0000
0000
0000
0000
0000
0010
0100
0010
0000
0110
,
0000
0000
0000
0000
0000
0000
0000
0000
0000
0000
0000
0000
0000
1000
0100
0010
,
0001
0000
0100
0000
1000
0000
0100
0010
0000
0000
1000
0100
1000
0100
0000
0000
,
0100
0010
0000
0011
0000
0000
0000
0000
0000
0000
0000
0000
1000
0010
0000
0010
,
0000
0000
0000
1000
0000
0000
1000
0000
0000
0000
0000
1000
0001
0010
0000
0011
,
0000
0000
0000
0000
0000
0000
0000
0000
0000
0000
0000
0000
0000
0100
0010
0001
,
0010
0000
0100
0000
0001
0000
1000
0100
0000
0000
1000
0001
1000
0001
0000
0000
,
0010
0001
0000
0011
0000
0000
0000
0000
0000
0000
0000
0000
1000
0010
0000
0100
,
0000
0000
0000
0100
0000
0000
0100
0000
0000
0000
0000
1000
0010
1000
0000
1010
,
0000
0000
0000
0000
0000
0000
0000
0000
0000
0000
0000
0000
0000
0100
0010
0100
,
0010
0000
0001
0000
0100
0000
1000
0010
0000
0000
0100
0001
0100
0001
0000
0000
,
1000
0100
0000
1100
0000
0000
0000
0000
0000
0000
0000
0000
0100
0010
0000
0110
,
0000
0000
0100
0000
0000
0010
0000
0000
0000
0000
0000
1000
0100
1000
0000
1100
,
0000
0000
0000
0000
,
0010
0000
0000
1000
0100
0000
0000
0000
0100
0000
0000
0010
0100
0000
0000
0000
,
0100
0000
0000
0010
0100
0000
0000
0000
0100
0000
0000
0000
1000
0000
0000
0000
,
0010
0000
1000
0100
0000
0100
0010
0000
0000
0000
0010
0000
0000
0000
0000
0000
,
1000
0000
0000
0000
0000
0000
0010
0000
0000
0100
0000
0000
0000
0000
0000
0001
0000
0000
0000
0000
0010
0000
0000
0000
0000
0000
0000
0000
0010
0000
0000
0000
0000
0000
0000
0000
0000
0000
0000
0000
0000
0000
0000
0000
0000
0000
0000
0000
,
0100
0000
0010
1000
0000
0001
0100
0000
0000
0000
0000
0000
0000
0000
0000
0000
,
1000
0001
0100
0010
,
1000
0000
0001
0100
0000
0010
0100
0000
0000
0000
1000
0000
0000
0000
0000
0000
,
0100
0000
0010
1000
0000
0001
0100
0000
0000
0000
0010
0000
0000
0000
0000
0000
,
1000
0000
1000
0010
0000
0010
1000
0000
0000
0000
0010
0000
0000
0000
0000
0000
,
0100
0000
0001
1000
0000
0001
0100
0000
0220
0000
0000
0000
0000
0000
0000
0000
,
0000
0000
0000
0000
0000
0000
0000
0330
,
1000
0000
0000
0100
0000
0000
0010
0000
0000
0001
0000
0000
0001
0000
0100
0000
,
0010
0000
0000
1000
0000
0000
0001
0000
0100
0000
0100
0000
0001
0100
0001
0010
,
0001
0000
0010
0000
0001
0000
1000
0100
0000
0000
0100
0010
0100
0010
0000
0000
,
0010
0001
0000
0100
0000
0000
0000
0000
0000
0000
0000
0000
0000
0000
0000
0000
;

//---------------dance-single - Nifara----------------
#NOTEDATA:;
#CHARTNAME:;
#STEPSTYPE:dance-single;
#DESCRIPTION:Nifara;
#CHARTSTYLE:;
#DIFFICULTY:Medium;
#METER:8;
#RADARVALUES:0.311804,0.371919,0.183340,0.026191,0.052383,250.000000,229.000000,21.000000,3.000000,0.000000,0.000000,0.000000,0.000000,0.000000,0.311804,0.371919,0.183340,0.026191,0.052383,250.000000,229.000000,21.000000,3.000000,0.000000,0.000000,0.000000,0.000000,0.000000;
#CREDIT:;
#NOTES:
0000
0000
0000
0000
,
0000
0000
0000
0000
,
1000
0000
0000
1000
0000
0000
2000
0000
0000
0000
0000
0000
0000
0000
3000
0000
,
0010
1000
0100
0010
,
0100
0000
0000
0010
0000
0000
0100
0000
0000
0000
0000
0000
0000
0000
0000
0000
,
1000
0001
1000
0001
,
1000
0000
0000
0010
0000
0000
0200
0000
0000
0000
0000
0000
0300
0000
0000
0000
,
0001
0000
0000
0001
0000
0000
0001
0000
0000
0001
0000
0000
0100
0000
0010
0000
,
1000
0000
0000
1000
0000
0000
1000
0000
1000
0000
0000
0000
0001
0000
0000
0000
,
0001
0000
0000
0001
0000
0000
0001
0000
0000
0001
0000
0000
0010
0000
0100
0000
,
1000
0000
0000
1000
0000
0000
1000
0000
1000
0000
0000
0000
1001
0000
0000
0000
,
0010
0000
0100
0001
0001
0010
1000
0000
,
0100
0000
0001
0000
0100
0100
1000
0010
,
0100
0000
0100
0000
0010
0010
0010
0000
,
1000
0000
0100
0000
1000
1000
1000
0000
,
0001
0000
0001
0000
0100
1000
1000
0000
,
0010
0000
0100
0000
0010
0100
0010
0100
,
0100
0000
0010
0000
0100
0100
0100
0000
,
1001
1001
1001
1001
,
0010
0100
0001
0001
,
1000
0010
0001
0010
,
1000
0100
0001
0000
1000
0000
0100
0000
,
0001
0000
0010
0000
0010
0010
0010
0010
,
0010
1000
0010
0100
,
0100
1001
0000
0010
,
1010
0100
0000
0100
,
0110
0010
0000
1000
,
0001
0100
1000
0100
0001
0000
1000
0000
,
0100
0011
0001
1000
,
1010
1000
1000
0001
,
0011
0100
0100
0100
,
0010
1000
0100
1000
,
0010
0100
0001
1000
,
0001
0100
0001
0010
,
0001
1000
1001
0100
,
0010
0100
0001
0100
,
0001
1001
0100
0100
,
0110
0100
1001
0100
,
1100
1000
0001
0100
,
0010
0100
0100
0100
,
0110
0010
0010
1000
,
0010
1000
0100
0010
,
0001
1000
0001
0100
,
0100
0010
0100
0010
,
1000
0001
0100
0010
,
1000
0001
0001
0100
0001
0000
1000
0000
,
0100
0010
0100
0010
0001
0000
0001
0000
,
1000
1000
0010
1000
0010
0000
0010
0000
,
0100
0001
0100
0010
0200
0000
0000
0000
,
0000
0000
0000
0300
,
0001
0000
0000
0001
0000
0000
0001
0000
0000
0001
0000
0000
0010
0000
0100
0000
,
1000
0000
0000
1000
0000
0000
1000
0000
0100
0000
1000
0000
0100
0000
0010
0000
,
0001
1001
0110
1001
,
0100
1001
0000
0000
;

//---------------dance-single - Nifara----------------
#NOTEDATA:;
#CHARTNAME:;
#STEPSTYPE:dance-single;
#DESCRIPTION:Nifara;
#CHARTSTYLE:;
#DIFFICULTY:Easy;
#METER:5;
#RADARVALUES:0.236971,0.300766,0.113496,0.087305,0.000000,190.000000,177.000000,13.000000,10.000000,0.000000,0.000000,0.000000,0.000000,0.000000,0.236971,0.300766,0.113496,0.087305,0.000000,190.000000,177.000000,13.000000,10.000000,0.000000,0.000000,0.000000,0.000000,0.000000;
#CREDIT:;
#NOTES:
0000
0000
0000
0000
,
0000
0000
0000
0000
,
2000
0000
0000
0000
0000
0000
0000
3000
,
0010
1000
0100
0010
,
0002
0000
0000
0003
,
1000
0001
1000
0001
,
0200
0000
0000
0300
,
0002
0000
0000
0103
,
2000
0000
0000
3001
,
0002
0000
0000
0013
,
2000
0000
0000
3001
,
0010
0100
0001
1000
,
0100
0001
0100
1000
,
0100
0100
0010
0010
,
1000
0100
1000
1000
,
0001
0001
0100
1000
,
0010
0100
0010
0010
,
0100
0010
0100
0100
,
1001
1001
1001
1001
,
0010
0100
0001
0001
,
1000
0010
0001
0010
,
1000
0001
1000
0100
,
0001
0010
0010
0010
,
0010
1000
0010
0100
,
0100
1001
0000
0010
,
1010
0100
0000
0100
,
0110
0010
0000
1000
,
0001
1000
0001
1000
,
0100
0011
0001
1000
,
1010
1000
1000
0001
,
0011
0100
0100
0100
,
0010
1000
0100
1000
,
0010
0100
0001
1000
,
0001
0100
0001
0010
,
0001
1000
0001
0100
,
0010
0100
0001
0100
,
0001
1000
0100
0100
,
0100
0100
1001
0100
,
1000
1000
0001
0100
,
0010
0100
0100
0100
,
0010
0010
0010
1000
,
0010
1000
0100
0010
,
0001
1000
0001
0100
,
0100
0010
0100
0010
,
1000
0001
0100
0010
,
1000
0001
0001
1000
,
0100
0100
1000
0001
,
1000
0010
0010
0010
,
0100
0100
0200
0000
,
0000
0000
0000
0300
,
0002
0000
0000
0013
,
2000
0000
3100
1001
,
0001
0010
0100
1000
,
1001
0000
0000
0000
;

//---------------dance-single - Nifara----------------
#NOTEDATA:;
#CHARTNAME:;
#STEPSTYPE:dance-single;
#DESCRIPTION:Nifara;
#CHARTSTYLE:;
#DIFFICULTY:Beginner;
#METER:2;
#RADARVALUES:0.117238,0.161951,0.043652,0.087305,0.000000,94.000000,89.000000,5.000000,10.000000,0.000000,0.000000,0.000000,0.000000,0.000000,0.117238,0.161951,0.043652,0.087305,0.000000,94.000000,89.000000,5.000000,10.000000,0.000000,0.000000,0.000000,0.000000,0.000000;
#CREDIT:;
#NOTES:
// measure 0
0000
0000
0000
0000
,  // measure 1
0000
0000
0000
0000
,  // measure 2
2000
0000
3000
0000
,  // measure 3
0010
0000
0100
0000
,  // measure 4
0002
0000
0003
0000
,  // measure 5
1000
0000
0001
0000
,  // measure 6
0200
0000
0300
0000
,  // measure 7
0002
0000
0003
0000
,  // measure 8
2000
0000
3000
0000
,  // measure 9
0002
0000
0003
0000
,  // measure 10
2000
0000
3000
0000
,  // measure 11
0010
0000
0001
0000
,  // measure 12
0100
0000
0100
0000
,  // measure 13
0100
0000
0010
0000
,  // measure 14
1000
0000
1000
0000
,  // measure 15
0001
0000
0100
0000
,  // measure 16
0010
0000
0010
0000
,  // measure 17
0100
0000
0100
0000
,  // measure 18
1001
0000
1001
0000
,  // measure 19
0010
0000
0001
0000
,  // measure 20
1000
0000
0001
0000
,  // measure 21
1000
0000
1000
0000
,  // measure 22
0001
0000
0010
0000
,  // measure 23
0010
0000
0010
0000
,  // measure 24
0100
0000
0000
0000
,  // measure 25
1001
0000
0000
0000
,  // measure 26
0110
0000
0000
0000
,  // measure 27
0001
0000
0001
0000
,  // measure 28
0100
0000
0001
0000
,  // measure 29
1000
0000
1000
0000
,  // measure 30
0010
0000
0100
0000
,  // measure 31
0010
0000
0100
0000
,  // measure 32
0010
0000
0001
0000
,  // measure 33
1000
0000
0001
0000
,  // measure 34
1000
0000
0001
0000
,  // measure 35
0010
0000
0001
0000
,  // measure 36
0001
0000
0100
0000
,  // measure 37
1000
0000
1000
0000
,  // measure 38
0001
0000
0001
0000
,  // measure 39
0010
0000
0100
0000
,  // measure 40
0010
0000
0010
0000
,  // measure 41
0100
0000
0100
0000
,  // measure 42
0001
0000
0001
0000
,  // measure 43
0100
0000
0100
0000
,  // measure 44
0010
0000
0010
0000
,  // measure 45
1000
0000
1000
0000
,  // measure 46
0100
0000
1000
0000
,  // measure 47
1000
0000
0010
0000
,  // measure 48
0100
0000
0200
0000
,  // measure 49
0000
0000
0300
0000
,  // measure 50
0002
0000
0003
0000
,  // measure 51
2000
0000
3000
0000
,  // measure 52
0001
0000
1000
0000
,  // measure 53
1001
0000
0000
0000
;
