#TITLE:HIGHER;
#SUBTITLE:(next morning mix);
#ARTIST:NM feat. SUNNY;
#TITLETRANSLIT:;
#SUBTITLETRANSLIT:;
#ARTISTTRANSLIT:;
#GENRE:Pop;
#CREDIT:;
#BANNER:HIGHER (next morning mix).png;
#BACKGROUND:HIGHER (next morning mix)-bg.png;
#LYRICSPATH:;
#CDTITLE:;
#MUSIC:HIGHER (next morning mix).ogg;
#OFFSET:-0.012849;
#SAMPLESTART:63.577999;
#SAMPLELENGTH:15.000000;
#SELECTABLE:YES;
#DISPLAYBPM:132.000000;
#BPMS:0.000000=132.352997
,4.000000=132.080002
;
#STOPS:
;
#BGCHANGES:;
#KEYSOUNDS:;
#ATTACKS:;

//---------------dance-single - ----------------
#NOTES:
     dance-single:
     :
     Hard:
     11:
     0.438804,0.442234,0.230122,0.030016,0.080042,307.000000,284.000000,23.000000,3.000000,0.000000,0.000000,0.438804,0.442234,0.230122,0.030016,0.080042,307.000000,284.000000,23.000000,3.000000,0.000000,0.000000:
// measure 0
0000
0000
0000
0000
,  // measure 1
0000
0000
0000
0000
,  // measure 2
0000
0000
0000
0000
,  // measure 3
0000
0000
0000
0000
,  // measure 4
0000
0000
0000
0000
,  // measure 5
1010
0101
1001
0000
,  // measure 6
0000
0000
0001
0000
1000
0000
0000
0000
0001
0000
0000
1000
0000
0000
0010
0000
,  // measure 7
0000
0000
1000
0000
0001
0000
0000
0000
0010
0000
0000
1000
0000
0000
0100
0000
,  // measure 8
0002
0000
0000
0003
,  // measure 9
0000
0110
0000
1001
0000
1010
0101
0000
,  // measure 10
0000
0001
0000
1000
,  // measure 11
0000
0000
0100
0000
0000
0100
0010
0000
,  // measure 12
0001
1000
0100
1000
0001
0100
0001
1000
,  // measure 13
0010
1000
0100
1000
0010
0100
0001
0010
,  // measure 14
0100
1000
0001
0100
0010
0100
0001
1000
,  // measure 15
0001
0010
1000
0010
0001
1000
0100
0001
,  // measure 16
0100
1000
0001
0010
0100
1000
0001
0100
,  // measure 17
0010
0100
0001
0100
1000
0100
0001
1000
,  // measure 18
0010
0000
0000
0100
0000
0000
0001
0000
0000
0000
1000
0000
0001
0000
0100
0000
,  // measure 19
0010
0000
0000
1000
0000
0000
0100
0000
0010
0000
0000
0000
0010
0000
0000
0000
,  // measure 20
0010
0000
0000
0001
0000
0000
1000
0000
0001
0000
0000
1000
0000
0000
0010
0000
,  // measure 21
1000
0000
0100
0010
0000
0000
0100
0000
0000
0000
1000
0000
0001
0000
0100
0000
,  // measure 22
0010
0000
0000
1000
0000
0000
0001
0000
0000
0000
0100
0000
0010
0000
1000
0000
,  // measure 23
0001
0110
1100
0011
,  // measure 24
1000
0000
0000
0100
0000
0000
0010
0000
0001
0000
0100
0000
0010
0000
1000
0000
,  // measure 25
0000
0000
0001
0000
1000
0000
0000
0000
0010
0000
0000
1000
0000
0000
0001
0000
,  // measure 26
0110
0000
1001
0000
0110
0000
0001
1000
,  // measure 27
0200
0001
0000
1000
,  // measure 28
0000
0000
0001
0000
0000
1000
1300
0001
,  // measure 29
0200
0000
1000
0000
0000
0000
0301
1000
,  // measure 30
0100
0101
1100
0101
,  // measure 31
1000
0001
1000
0100
1000
0010
1000
0000
,  // measure 32
0001
1000
0001
0010
0001
0100
0001
0000
,  // measure 33
0000
0000
1000
0000
0100
0000
0000
0000
0010
0000
0000
0001
0000
0000
0100
0000
,  // measure 34
0000
1000
0001
0000
0100
0000
0000
0000
0010
0000
1000
0000
0001
1000
0000
0000
,  // measure 35
0010
1000
0010
0001
0010
0100
0010
0000
,  // measure 36
0100
0001
0100
1000
0100
0010
0100
0000
,  // measure 37
0001
1000
0010
0100
0001
0010
0100
0000
,  // measure 38
1000
0000
0010
0000
0100
0000
0001
0000
0000
0000
0110
0000
0000
1001
0000
0000
,  // measure 39
0010
1000
0001
0100
1000
0100
0001
0000
,  // measure 40
0010
0001
1000
0100
0001
0100
1000
0000
,  // measure 41
0010
1000
0100
0001
0100
1000
0001
0100
,  // measure 42
1000
0100
0001
0010
0001
1000
0100
0000
,  // measure 43
0010
0100
0001
0001
0010
0100
1000
1000
,  // measure 44
0010
0010
0100
0100
0001
0001
1000
1000
,  // measure 45
0010
1000
0100
0010
0001
0100
0010
0100
,  // measure 46
0001
0000
0010
0000
0100
0000
1000
0000
0100
0000
0010
0000
0000
0001
0000
0000
,  // measure 47
0010
0001
0010
0100
1000
0100
0010
0000
,  // measure 48
0001
1000
0001
0010
0100
0010
0001
0000
,  // measure 49
1000
0100
0001
0100
0010
0001
0100
1000
,  // measure 50
0100
0010
1000
0100
0001
0100
1000
0000
,  // measure 51
0000
0000
1001
0000
0000
0000
0110
0000
0000
0000
1100
0000
0000
0101
0000
0000
,  // measure 52
1001
0000
0000
0000
;

//---------------dance-double - ----------------
#NOTES:
     dance-double:
     :
     Hard:
     11:
     0.413076,0.442234,0.190101,0.060032,0.080042,289.000000,270.000000,19.000000,6.000000,0.000000,0.000000,0.413076,0.442234,0.190101,0.060032,0.080042,289.000000,270.000000,19.000000,6.000000,0.000000,0.000000:
00000000
00000000
00000000
00000000
,
00000000
00000000
00000000
00000000
,
00000000
00000000
00000000
00000000
,
00000000
00000000
00000000
00000000
,
00000000
00000000
00000000
00000000
,
00010010
00101000
00011000
00000000
,
00000000
00000000
00000001
00000000
00001000
00000000
00000000
00000000
00000001
00000000
00000000
00000100
00000000
00000000
00001000
00000000
,
00000000
00000000
00010000
00000000
00100000
00000000
00000000
00000000
00010000
00000000
00000000
01000000
00000000
00000000
10000000
00000000
,
00200000
00000000
00000000
00300000
,
00000000
00110000
00000000
00011000
00000000
00001100
00001010
00000000
,
00000002
00000010
00000000
00000010
,
00000000
00000000
00000100
00000000
00000003
00000100
00001000
00000000
,
00010000
01000000
10000000
00100000
01000000
00010000
10000000
01000000
,
00010000
00001000
00000100
00000001
00000010
00000100
00001000
00000001
,
00000100
00001000
00010000
00100000
00010000
00001000
00000100
00000001
,
00000010
00001000
00010000
00100000
10000000
01000000
00010000
00001000
,
00000100
00001000
00010000
00100000
00010000
00001000
00000010
00000001
,
00000100
00001000
00010000
01000000
10000000
00100000
00010000
00001000
,
00100000
00000000
00000000
00010000
00000000
00000000
01000000
00000000
00000000
00000000
10000000
00000000
01000000
00000000
00010000
00000000
,
10000000
00000000
00000000
00100000
00000000
00000000
00010000
00000000
00001000
00000000
00000000
00000000
00001000
00000000
00000000
00000000
,
00001000
00000000
00000000
00000100
00000000
00000000
00000001
00000000
00001000
00000000
00000000
00000100
00000000
00000000
00000001
00000000
,
00000100
00000000
00001000
00000001
00000000
00000000
00000010
00000000
00000000
00000000
00000001
00000000
00000100
00000000
00001000
00000000
,
00010000
00000000
00000000
00100000
00000000
00000000
01000000
00000000
00010000
00000000
10000000
00000000
01000000
00000000
00010000
00000000
,
00001000
00010010
01001000
10010000
,
00100000
00000000
00000000
01000000
00000000
00000000
00010000
00000000
00001000
00000000
00000100
00000000
00000001
00000000
00000010
00000000
,
00000000
00000000
00000001
00000000
00001000
00000000
00000000
00000000
00000010
00000000
00000000
00001000
00000000
00000000
00000100
00000000
,
00010010
00000000
00101000
00000000
00010100
00000000
01001000
00010000
,
00200000
00010000
00000000
00010000
,
00000000
00000000
00010000
00000000
00000000
00010000
00310000
00000000
,
00000200
00001000
00000000
00001000
,
00001000
00000010
00001000
00000310
,
00000010
00000001
00000100
00001000
00000100
00001000
00010000
00000000
,
00100000
10000000
01000000
00010000
01000000
00010000
00001000
00000000
,
00000000
00000000
00000010
00000000
00000001
00000000
00000000
00000000
00001000
00000000
00000000
00000001
00000000
00000000
00000100
00000000
,
00000000
00000010
00000100
00000000
00001000
00000000
00000000
00000000
00010000
00000000
01000000
00000000
00100000
01000000
00000000
00000000
,
00100000
00010000
01000000
00100000
10000000
01000000
00010000
00000000
,
00000010
00001000
00000100
00000010
00000001
00000100
00001000
00000000
,
00010000
00100000
10000000
01000000
00010000
00001000
00000100
00000001
,
00000010
00000000
00001000
00000000
00010000
00000000
00001000
00000000
00000000
00000000
00100000
00000000
00000000
01000000
00000000
00000000
,
10000000
01000000
00010000
00001000
00000100
00000001
00000010
00000000
,
00000001
00000100
00001000
00010000
01000000
10000000
00100000
02000000
,
00000000
10000000
00000000
00010000
00000000
10000000
00000000
00010000
,
00000000
00100000
00000000
03001000
00000000
00010000
00000100
00000000
,
00000010
00000001
00000100
00000001
00000010
00001000
00010000
00000000
,
00100000
10000000
01000000
10000000
00100000
00010000
00001000
00000000
,
00000010
00001000
00010000
00100000
00010000
00001000
00000100
00001000
,
00010000
00000000
01000000
00000000
00010000
00000000
00001000
00000000
00010000
00000000
00000010
00000000
00000000
00000100
00000000
00000000
,
00000001
00001000
00000010
00000100
00000001
00000100
00001000
00000000
,
00010000
01000000
10000000
01000000
00100000
00010000
10000000
00020000
,
00000000
00100000
00000000
01000000
00000000
00100000
00000000
01000000
,
00000000
10000000
00000000
01000000
00000000
00100000
00030000
00000000
,
00000000
00000000
00101000
00000000
00000000
00000000
00010010
00000000
00000000
00000000
01001000
00000000
00000000
00010100
00000000
00000000
,
00011000
00000000
00000000
00000000
,
00000000
00000000
00000000
00000000
;

//---------------dance-single - ----------------
#NOTES:
     dance-single:
     :
     Challenge:
     12:
     0.451668,0.494262,0.220117,0.100053,0.185098,316.000000,294.000000,22.000000,10.000000,0.000000,0.000000,0.451668,0.494262,0.220117,0.100053,0.185098,316.000000,294.000000,22.000000,10.000000,0.000000,0.000000:
0000
0000
0000
0000
,
0000
0000
0000
0000
,
0000
0000
0000
0000
,
0000
0000
0000
0000
,
0000
0000
0000
0000
,
1000
0000
0100
2000
0002
0000
0000
3003
,
0000
0000
0010
0000
0010
0000
0000
0000
0001
0000
0000
0100
0000
0000
0001
0000
,
0000
0000
0010
0000
0010
0000
0000
0000
1000
0000
0000
0100
0000
0000
1000
0000
,
0002
0000
0013
0000
2000
0000
3010
0100
,
0000
0101
0000
1100
0000
1000
0001
0000
,
0020
0000
0130
0000
0000
0010
0001
1000
,
0000
0100
1000
0001
0000
1010
0000
1100
,
0000
0001
0100
0001
0000
0001
0100
0001
,
0000
1000
0010
0100
0000
1000
0100
1000
,
0010
0000
0000
0010
0000
0000
0100
0000
0001
0000
1000
0000
0001
0000
0000
0000
,
0010
0000
0000
0010
0000
0000
0100
0000
1000
0000
0001
0000
1000
0000
0010
0000
,
0000
0010
0100
0000
0001
0010
0100
1000
,
0000
1000
0001
0000
0010
0100
1000
0000
,
0001
0000
0000
0001
0000
0000
0001
0000
0000
0000
0100
0000
0001
0000
1000
0000
,
0010
0000
0000
0100
0000
0000
1000
0000
0000
0000
0000
0000
1010
0000
0000
0000
,
0100
0000
0000
0001
0000
0000
0010
0000
0100
0000
0000
1000
0000
0000
0100
0000
,
0010
0000
0001
1000
0000
0000
0100
0000
0000
0000
1000
0000
0010
0000
0100
0000
,
0100
0000
0000
0001
0000
0000
0011
0000
0000
0000
0100
0000
0001
0000
1000
0000
,
0100
0000
1000
0001
0000
0100
0000
0020
0000
0000
0000
0000
0030
0000
0000
0000
,
1000
0000
0000
1000
0000
0000
0001
0000
0010
0000
0100
0000
0010
0000
0001
0000
,
0000
0000
1000
0000
0010
0000
0100
0000
0001
0000
0000
1000
0000
0000
0100
0000
,
0010
1000
0100
0001
,
1002
0000
0000
1000
0000
0010
0010
0010
,
0010
0000
0000
0103
0000
0001
1000
0001
,
2000
0000
0000
0000
0010
0000
0000
0001
0000
0000
3100
0000
0000
0000
1000
0000
,
0001
0000
0100
0000
1000
0010
0100
0001
,
0011
0000
0001
0000
0010
0000
0000
0001
1000
0000
0001
0000
0100
0000
0010
0000
,
1000
0000
0100
0000
0100
0000
0000
1000
0001
0000
1000
0000
0100
0000
0010
0000
,
0001
0100
0001
1000
0010
0100
0010
1000
,
0000
0000
0100
1000
0000
1000
0000
0000
0001
0000
0010
0000
0100
0000
1000
0000
,
0011
0000
0100
0001
0100
0001
0100
0001
,
1010
0000
0000
0000
0100
0000
1000
0000
0001
0100
0000
0100
0000
0010
0000
2000
,
0000
0000
0001
0000
3001
0000
0010
0100
0000
0000
1000
0000
0100
0000
1000
0001
,
0000
0000
0001
0000
1000
0000
0100
0010
0000
0000
0110
0000
0000
1001
0000
0000
,
0101
1000
0010
1000
0000
0001
1000
0100
,
0000
0010
0001
0100
0000
0010
1000
0001
,
0010
0100
0010
1000
0010
0100
0010
0001
,
1000
0100
0001
0100
0010
0100
1000
0001
,
1010
0000
0100
1000
0100
1000
0100
1000
,
0011
0000
0000
0000
0100
0000
0001
0000
1000
0010
0000
0010
0000
0100
0000
0002
,
0000
0000
1003
0000
1000
0000
0100
0010
0000
0000
0100
0000
1000
0000
0001
0100
,
0000
0000
0001
0000
1000
0000
0010
0100
0000
0000
0110
0000
0000
1001
0000
0000
,
1100
0010
0001
0100
0000
0010
1000
0100
,
0000
0010
0001
1000
0000
1000
0100
0001
,
0100
0010
0100
1000
0100
0010
0100
0010
,
0001
0100
0010
0100
1000
0100
0010
0100
,
0001
0000
0101
0000
0000
0000
1000
0000
0000
0000
1100
0000
0000
0011
0000
0000
,
1001
0000
0000
0000
;

//---------------dance-single - ----------------
#NOTES:
     dance-single:
     :
     Medium:
     8:
     0.240127,0.364193,0.050027,0.170090,0.005003,168.000000,163.000000,5.000000,17.000000,0.000000,0.000000,0.240127,0.364193,0.050027,0.170090,0.005003,168.000000,163.000000,5.000000,17.000000,0.000000,0.000000:
0000
0000
0000
0000
,
0000
0000
0000
0000
,
0000
0000
0000
0000
,
0000
0000
0000
0000
,
0000
0000
0000
0000
,
1000
1000
1000
0000
,
0000
0001
0010
0000
0100
0000
0010
0000
,
0000
0001
0100
0000
0010
0000
0100
0000
,
0002
0010
0010
0013
,
2000
0100
0100
3100
,
1001
0000
0000
0000
0000
1000
0100
1000
,
0000
0001
0000
0010
0000
0100
0000
0200
,
0000
0000
0000
0010
,
0310
0001
0100
0010
,
1000
0100
0010
0001
,
1000
1000
0001
0100
,
0010
0100
0010
0000
1000
0000
0001
0000
,
0010
0010
0100
0010
,
0001
0001
1000
1000
,
0001
1000
0001
0000
0200
0000
0300
0000
,
1000
1000
0001
0001
,
1000
0001
1000
0000
0200
0000
0300
0000
,
0010
0010
0010
0000
,
0100
1000
0001
0000
,
0100
0000
0100
0000
0010
0000
2000
0002
,
0000
0000
0000
0000
,
3003
0000
0000
0000
,
1000
0000
0000
1000
0000
0000
0000
0000
,
0001
0000
0000
0001
0000
0000
0000
0010
,
0010
0000
0100
0000
,
0010
0001
0100
1000
,
0010
1000
0010
0000
0100
0000
0001
0000
,
0010
0001
0010
0000
0100
0010
0010
0000
,
0100
0000
1000
0000
0001
0000
0200
0020
,
0000
0330
1000
1000
,
2000
0000
3000
1000
0000
0000
0000
0000
,
0002
0000
0003
0001
0000
0000
0000
0000
,
0010
0010
0100
0100
,
1000
0001
0010
0000
0010
0000
0100
0000
,
0010
0010
0010
0001
,
0100
0100
0100
2000
,
0002
0000
0000
3003
,
0200
0000
0000
0300
,
0010
0010
1000
0100
,
0010
0010
0001
0100
,
0010
0100
0010
0000
1000
0000
0001
0000
,
0010
0100
0010
0000
2002
0000
3003
0000
,
1000
0100
0001
0000
,
0001
0100
1000
0000
,
0020
0000
0030
0000
,
0001
1000
0001
0000
1000
0001
1000
0000
,
0100
0000
0010
0000
0000
0000
0000
0000
0000
0000
1010
0000
0000
1100
0000
0000
,
1001
0000
0000
0000
;

//---------------dance-single - ----------------
#NOTES:
     dance-single:
     :
     Easy:
     5:
     0.204394,0.234124,0.040021,0.200106,0.000000,143.000000,139.000000,4.000000,20.000000,0.000000,0.000000,0.204394,0.234124,0.040021,0.200106,0.000000,143.000000,139.000000,4.000000,20.000000,0.000000,0.000000:
0000
0000
0000
0000
,
0000
0000
0000
0000
,
0000
0000
0000
0000
,
0000
0000
0000
0000
,
0000
0000
0000
0000
,
0002
0100
0103
0000
,
1000
0010
0100
0001
,
2000
0010
3010
0000
,
0001
0010
0100
1000
,
0002
0000
0000
0003
,
1000
0000
1000
0000
,
0010
0000
0010
0000
,
0100
0001
0010
0010
,
0100
1000
0001
0010
,
0200
0300
0001
0100
,
0020
0030
1000
0001
,
0100
0100
0010
1000
,
0100
0100
0010
0001
,
1000
1000
2000
3000
,
0001
0010
0200
0300
,
0001
0010
0001
1000
,
0010
0010
0010
0000
,
0100
0001
2000
3000
,
0100
1000
0002
0003
,
1000
1000
0010
0010
,
0200
0000
0000
0000
,
0020
0000
0000
0330
,
1000
0000
1000
0000
,
0001
0000
0001
0000
,
1001
0000
0100
0000
,
0110
0000
0010
0000
,
0001
0001
0002
0003
,
1000
1000
2000
3000
,
0010
0100
0001
0010
,
0200
0000
1300
1000
,
0001
0000
0001
0000
,
1000
0000
1000
0000
,
0010
0010
0020
0030
,
0100
0100
0200
0300
,
0010
1000
0100
0000
,
0010
0001
0100
0000
,
1000
0001
1000
0000
,
0001
1000
0001
0000
,
0010
0010
0020
0030
,
0100
0100
0200
0300
,
1000
0001
0010
0000
,
0001
1000
0010
0000
,
0100
0100
0001
1000
,
0100
0100
0010
0001
,
2000
0100
3001
0000
,
0002
0100
1003
0000
,
1001
0000
0010
0100
,
1001
0000
0000
0000
;

//---------------dance-single - ----------------
#NOTES:
     dance-single:
     :
     Beginner:
     2:
     0.085760,0.156083,0.020011,0.060032,0.000000,60.000000,58.000000,2.000000,6.000000,0.000000,0.000000,0.085760,0.156083,0.020011,0.060032,0.000000,60.000000,58.000000,2.000000,6.000000,0.000000,0.000000:
0000
0000
0000
0000
,
0000
0000
0000
0000
,
0000
0000
0000
0000
,
0000
0000
0000
0000
,
0000
0000
0000
0000
,
1000
0000
0000
0000
,
1000
0000
0000
0000
,
0001
0000
0000
0000
,
0001
0000
0000
0000
,
0020
0000
0000
0000
,
0030
0000
0000
0000
,
0100
0000
0000
0000
,
1001
0000
0000
0000
,
0001
0000
0000
0000
,
1000
0000
0000
0000
,
1000
0000
0000
0000
,
0010
0000
0000
0000
,
0010
0000
0000
0000
,
0100
0000
0000
0000
,
0100
0000
0000
0000
,
0001
0000
0000
0000
,
0001
0000
0000
0000
,
0010
0000
0000
0000
,
0010
0000
0000
0000
,
0100
0000
0000
0000
,
0200
0000
0000
0000
,
0300
0000
0000
0000
,
0010
0000
0010
0000
,
0010
0000
0000
0000
,
0001
0000
0001
0000
,
0001
0000
0000
0000
,
1000
0000
1000
0000
,
1000
0000
1000
0000
,
0001
0000
0001
0000
,
0002
0000
0003
0000
,
0100
0000
0010
0000
,
0100
0000
0000
0000
,
0010
0000
0100
0000
,
0010
0000
0000
0000
,
2000
0000
3000
0000
,
0002
0000
0003
0000
,
0020
0000
0000
0000
,
0030
0000
0000
0000
,
0100
0000
0010
0000
,
0010
0000
0000
0000
,
0100
0000
0010
0000
,
0010
0000
0000
0000
,
1000
0000
0001
0000
,
1000
0000
0000
0000
,
0001
0000
0100
0000
,
1000
0000
0010
0000
,
0001
0000
0001
0000
,
0110
0000
0000
0000
;
