#VERSION:0.83;
#TITLE:Green Green Dance;
#SUBTITLE:;
#ARTIST:Mutsuhiko Izumi;
#TITLETRANSLIT:;
#SUBTITLETRANSLIT:;
#ARTISTTRANSLIT:;
#GENRE:Variety;
#ORIGIN:;
#CREDIT:;
#BANNER:;
#BACKGROUND:DDR CD-bg.JPG;
#PREVIEWVID:;
#JACKET:Green Green Dance-jacket.png;
#CDIMAGE:;
#DISCIMAGE:;
#LYRICSPATH:;
#CDTITLE:;
#MUSIC:Green Green Dance.mp3;
#OFFSET:0.242000;
#SAMPLESTART:12.800000;
#SAMPLELENGTH:15.000000;
#SELECTABLE:YES;
#BPMS:0.000=165.000;
#STOPS:;
#DELAYS:;
#WARPS:;
#TIMESIGNATURES:0.000=4=4;
#TICKCOUNTS:0.000=4;
#COMBOS:0.000=1;
#SPEEDS:0.000=1.000=0.000=0;
#SCROLLS:0.000=1.000;
#FAKES:;
#LABELS:0.000=Song Start;
#BGCHANGES:;
#KEYSOUNDS:;
#ATTACKS:
;

//---------------dance-single - ----------------
#NOTEDATA:;
#CHARTNAME:;
#STEPSTYPE:dance-single;
#DESCRIPTION:;
#CHARTSTYLE:;
#DIFFICULTY:Hard;
#METER:15;
#RADARVALUES:0.746384,1.081220,0.334239,0.202303,0.338637,594.000000,556.000000,38.000000,23.000000,0.000000,0.000000,0.000000,0.000000,0.000000,0.746384,1.081220,0.334239,0.202303,0.338637,594.000000,556.000000,38.000000,23.000000,0.000000,0.000000,0.000000,0.000000,0.000000;
#CREDIT:;
#NOTES:
// measure 0
0000
0000
0000
0000
,  // measure 1
1000
0000
0001
0000
0100
0000
0001
0000
1000
0000
0100
0000
1000
0000
0001
0100
,  // measure 2
0001
0000
1000
0000
0100
0000
1000
0000
0001
0000
0100
0000
0001
0000
1000
0100
,  // measure 3
1000
0000
0001
0000
0100
0000
0001
0000
1000
0000
0100
0000
1000
0000
0001
0100
,  // measure 4
0001
0000
1000
0000
0100
0000
1000
0000
0001
0100
0001
1000
0100
1000
0001
0100
,  // measure 5
0001
0000
1000
0000
0100
0000
1000
0000
0001
0000
0100
0000
0001
0000
1000
0100
,  // measure 6
1000
0000
0001
0000
0100
0000
0001
0000
1000
0000
0100
0000
1000
0000
0001
0100
,  // measure 7
0001
0001
0001
0000
1000
0100
0010
0001
,  // measure 8
1001
0000
0000
0000
0110
0000
0000
0000
1002
0000
0000
0000
0103
0001
0100
0001
,  // measure 9
1000
0001
0200
0000
0310
1000
0010
2000
,  // measure 10
0000
3100
1000
0001
1000
0100
1000
0000
,  // measure 11
1000
0001
0200
0000
0310
0100
0001
0200
,  // measure 12
0000
0310
1000
0100
1000
0010
0100
0001
,  // measure 13
0010
0001
0020
0000
0031
0100
0010
0200
,  // measure 14
0000
0310
1000
0100
1000
0010
0100
0000
,  // measure 15
1001
0100
0001
0000
1001
0100
1000
0010
,  // measure 16
1010
0000
0000
0000
0110
0000
0000
0000
0101
0000
0000
0000
0001
0100
0001
0000
,  // measure 17
1001
0100
0010
0100
0001
0100
0010
0100
,  // measure 18
1000
0100
0010
0100
0001
0100
0010
0100
,  // measure 19
1000
0100
0010
0100
0001
0010
0100
1000
,  // measure 20
0100
0010
0001
0010
0100
1000
0100
0010
,  // measure 21
0001
0010
0100
1000
0100
0010
0100
0001
,  // measure 22
0100
0010
0100
1000
0100
0010
0100
0001
,  // measure 23
0100
0010
0100
1000
0100
0010
0001
0010
,  // measure 24
0100
1000
0100
1000
0010
1000
0010
1000
0200
0000
0000
0000
1300
0010
1000
0000
,  // measure 25
1000
0001
0200
0000
0310
1000
0010
2000
,  // measure 26
0000
3100
1000
0001
1000
0100
1000
0000
,  // measure 27
1000
0001
0200
0000
0310
0100
0001
0200
,  // measure 28
0000
0310
1000
0100
1000
0010
0100
0001
,  // measure 29
0010
0001
0020
0000
0031
0100
0010
0200
,  // measure 30
0000
0310
1000
0100
1000
0010
0100
0000
,  // measure 31
1001
0100
0001
0000
1001
0100
1000
0010
,  // measure 32
1010
0000
0000
0000
0110
0000
0000
0000
0101
0000
0000
0000
0001
0100
0001
0000
,  // measure 33
1000
0001
0100
0010
,  // measure 34
0100
0001
1000
0100
,  // measure 35
1000
0010
0100
0001
,  // measure 36
0100
0010
1000
0100
,  // measure 37
1000
0010
0100
0001
,  // measure 38
0010
0001
0100
0001
,  // measure 39
1000
0100
0001
0100
,  // measure 40
1001
0000
0000
0000
0110
0000
0000
0000
1001
0000
0000
0000
0001
0100
0010
1000
,  // measure 41
0100
1000
0010
1000
0100
1000
0010
1000
,  // measure 42
0100
1000
0001
0100
0001
0100
0010
0100
,  // measure 43
0010
1000
0100
1000
0100
0010
0001
0010
,  // measure 44
0100
1000
0010
1000
0100
1000
0001
0100
,  // measure 45
0001
0100
0010
1000
0100
1000
0010
0100
,  // measure 46
0001
0100
0010
1000
0100
1000
0100
1000
,  // measure 47
0010
0100
0001
0000
0100
0010
1000
0100
,  // measure 48
1001
0000
0000
0000
0110
0000
0000
0000
1001
0000
0000
0000
0010
1000
0010
0100
,  // measure 49
0010
1000
0010
0100
0001
0100
0010
1000
0100
1000
0010
1000
,  // measure 50
0100
1000
0100
1000
0010
0100
0001
0100
0010
1000
0100
1000
,  // measure 51
0200
0000
0000
0000
0300
1000
0100
1000
0001
0000
0000
0000
0100
0000
0000
0000
,  // measure 52
0002
0000
0000
0000
0000
0103
0010
1000
0100
0000
0000
0000
1000
0000
0000
0000
,  // measure 53
1000
0100
0010
0100
1000
0010
0100
0010
1000
0100
0010
0100
,  // measure 54
1000
0010
0100
0010
1000
0100
0010
0100
2000
0000
0000
0000
,  // measure 55
3001
0100
0001
0100
0010
1000
0010
1000
0001
0100
0001
0100
0010
1000
0010
1000
,  // measure 56
0001
0010
0100
1000
0001
0010
0100
1000
0001
1000
0010
0100
0001
1000
0010
0100
,  // measure 57
0001
0001
0200
0000
0310
1000
0010
2000
,  // measure 58
0000
3100
1000
0001
1000
0100
1000
0000
,  // measure 59
1000
0001
0200
0000
0310
0100
0001
0200
,  // measure 60
0000
0310
1000
0100
1000
0010
0100
0001
,  // measure 61
0010
0001
0020
0000
0031
0100
0010
0200
,  // measure 62
0000
0310
1000
0100
1000
0010
0100
0000
,  // measure 63
1001
0100
0001
0000
1001
0100
1000
0010
,  // measure 64
1010
0000
0000
0000
0110
0000
0000
0000
0101
0000
0000
0000
0001
0100
0001
0000
,  // measure 65
1000
0100
1001
0001
0100
0010
1000
0010
,  // measure 66
0100
0010
0101
0010
1000
0100
1000
0010
,  // measure 67
0100
0001
0101
0001
0010
0100
1000
0010
,  // measure 68
0100
0010
0101
0010
0100
0001
1000
0100
,  // measure 69
1000
0010
0101
0001
1000
0100
1000
0010
,  // measure 70
0100
0001
1100
0001
0100
0010
1000
0100
,  // measure 71
0001
0100
1000
0000
0100
0001
0100
1000
,  // measure 72
1001
0000
0000
0000
0110
0000
0000
0000
1001
0000
0000
0000
1000
0001
1000
0001
,  // measure 73
0100
0000
0000
0000
0110
0000
0000
0000
1001
0000
0000
0000
0001
0010
0100
1000
,  // measure 74
0100
0011
1100
0000
;

//---------------dance-single - ----------------
#NOTEDATA:;
#CHARTNAME:;
#STEPSTYPE:dance-single;
#DESCRIPTION:;
#CHARTSTYLE:;
#DIFFICULTY:Medium;
#METER:12;
#RADARVALUES:0.461150,0.491464,0.263873,0.281465,0.070366,367.000000,337.000000,30.000000,32.000000,0.000000,0.000000,0.000000,0.000000,0.000000,0.461150,0.491464,0.263873,0.281465,0.070366,367.000000,337.000000,30.000000,32.000000,0.000000,0.000000,0.000000,0.000000,0.000000;
#CREDIT:;
#NOTES:
0000
0000
0000
0000
,
0001
0000
1000
0100
1000
0100
0010
0000
,
0001
0000
0100
0010
0100
0010
1000
0000
,
1000
0000
0100
0010
0100
0010
0001
0000
,
0001
0000
0100
0010
0100
0001
0100
0010
,
1000
0000
0100
1000
0010
1000
0001
0000
,
0001
0000
0001
0100
0010
1000
0010
0000
,
2000
0100
3100
0000
0002
0100
0103
0000
,
0110
1001
0110
0000
,
1000
0001
0200
0000
0010
0000
0310
0000
,
0010
1000
0200
0000
1000
0000
1300
0000
,
1000
0001
0200
0000
0001
0000
0301
0000
,
0010
0100
0002
0000
0010
0000
0013
0000
,
0001
1000
0200
0000
1000
0000
1300
0000
,
0010
0100
0002
0000
1000
0000
0013
0000
,
0100
0001
0100
0000
0010
1000
0010
0000
,
0110
1001
0110
0000
,
1000
0100
1000
0100
,
1000
0010
0100
0010
,
0100
0001
0100
0001
,
0100
0010
1000
0100
,
0010
0001
0100
0001
,
0100
0010
1000
0100
,
1000
0100
0001
0010
,
0110
1001
0110
0000
,
1000
0001
0200
0000
0010
0000
0310
0000
,
0010
1000
0200
0000
1000
0000
1300
0000
,
1000
0001
0200
0000
0001
0000
0301
0000
,
0010
0100
0002
0000
0010
0000
0013
0000
,
0001
1000
0200
0000
1000
0000
1300
0000
,
0010
0100
0002
0000
1000
0000
0013
0000
,
0100
0001
0100
0000
0010
1000
0010
0000
,
0110
1001
0110
0000
,
1000
0100
0001
0100
,
1000
0100
0001
0100
,
1000
0010
0001
0010
,
1000
0010
0001
0010
,
1000
0100
0001
0100
,
1000
0010
0001
0010
,
1000
0100
0010
0001
,
0110
1001
0110
0000
,
1000
0100
1000
0000
0100
0000
0100
0000
,
0010
0001
0010
0000
0001
0000
0001
0000
,
0100
0001
0100
0000
0010
0000
0010
0000
,
1000
0100
1000
0000
0001
0000
0001
0000
,
0100
0010
1000
0000
0100
0000
1000
0000
,
0010
0100
0001
0000
0100
0000
0010
0000
,
1000
0100
1000
0000
0001
0100
0001
0000
,
0110
1001
0110
0000
,
1000
0000
1000
0000
1000
0000
0001
0000
0001
0000
0001
0000
,
0100
0000
0100
0000
0100
0000
0010
0000
0010
0000
0010
0000
,
0200
0000
0302
0000
,
2003
0000
3020
0000
,
1030
0000
0001
0000
0100
0000
0001
0000
1000
0000
0100
0000
,
1000
0000
0100
0000
0010
0000
0001
0000
0010
0000
0100
0000
,
2000
3002
0203
0320
,
2030
3200
0320
0032
,
1003
0001
0200
0000
0010
0000
0310
0000
,
0010
1000
0200
0000
1000
0000
1300
0000
,
1000
0001
0200
0000
0001
0000
0301
0000
,
0010
0100
0002
0000
0010
0000
0013
0000
,
0001
1000
0200
0000
1000
0000
1300
0000
,
0010
0100
0002
0000
1000
0000
0013
0000
,
0100
0001
0100
0000
0010
1000
0010
0000
,
0110
1001
0110
0000
,
1000
0100
1000
0010
,
0100
0001
0100
0010
,
1000
0010
0100
0010
,
1000
0001
0100
0001
,
0010
0001
0100
0010
,
1000
0100
1000
0001
,
0100
0010
0100
0001
,
0110
1001
0110
0000
,
1001
0110
1001
0000
,
0110
1001
0110
0000
;

//---------------dance-single - ----------------
#NOTEDATA:;
#CHARTNAME:;
#STEPSTYPE:dance-single;
#DESCRIPTION:;
#CHARTSTYLE:;
#DIFFICULTY:Easy;
#METER:8;
#RADARVALUES:0.380731,0.491464,0.334239,0.202303,0.000000,303.000000,265.000000,38.000000,23.000000,0.000000,0.000000,0.000000,0.000000,0.000000,0.380731,0.491464,0.334239,0.202303,0.000000,303.000000,265.000000,38.000000,23.000000,0.000000,0.000000,0.000000,0.000000,0.000000;
#CREDIT:;
#NOTES:
0000
0000
0000
0000
,
1001
0100
1000
0100
,
1001
0100
0001
0100
,
1001
0100
1000
0100
,
1001
0100
0001
0100
,
0110
0100
0010
0100
,
0110
0010
0100
0010
,
2002
3003
0220
0330
,
1001
0110
1001
0000
,
1000
0000
0001
0000
0100
0001
0100
0000
,
0010
1000
0100
1000
,
0010
0000
0100
0000
0010
1000
0100
0000
,
1000
0010
0100
0001
,
0100
0000
0010
0000
0100
0001
0100
0000
,
0010
1000
0100
1000
,
0010
1000
0010
0000
0100
0001
0100
0000
,
1001
0110
1001
0000
,
2000
0000
0000
3000
,
0001
0000
0100
0000
,
0010
0100
0010
0100
,
0010
1000
0010
0100
,
0002
0000
0000
0003
,
1000
0000
0100
1000
,
0200
0000
0000
0300
,
1001
0110
1001
0000
,
1000
0000
0010
0000
1000
0010
1000
0000
,
0001
0000
0100
0000
0001
0100
0001
0000
,
1000
0000
0100
0000
1000
0100
1000
0000
,
0001
0000
0010
0000
0001
0010
0001
0000
,
0100
0000
0010
0000
1000
0001
0100
0000
,
0010
0000
1000
0000
0001
0100
0010
0000
,
1000
0100
1000
0000
0100
1000
0100
0000
,
1001
0110
1001
0000
,
2000
0000
0000
3000
,
0002
0000
0000
0003
,
0200
0000
0000
0300
,
0020
0000
0000
0030
,
2000
0000
3002
0000
,
0203
0000
0320
0000
,
1030
0100
0001
0010
,
1001
0110
1001
0000
,
1000
1000
1000
1000
,
1000
1000
1000
1000
,
0001
0001
0001
0001
,
0001
0001
0001
0001
,
0100
0010
0100
0010
,
0100
0010
0100
0010
,
1000
0001
1000
0001
,
1001
0110
1001
0000
,
2000
0000
3002
0000
,
0203
0000
0320
0000
,
1030
1000
1000
0000
,
0001
0001
0001
0000
,
0200
0000
0320
0000
,
2030
0000
3002
0000
,
0103
0100
0100
0100
,
0010
0010
0010
0010
,
1000
0000
0010
0000
0100
0001
0100
0000
,
0001
0000
0100
0000
0010
1000
0010
0000
,
1000
0000
0100
0000
0010
0001
0010
0000
,
0001
0000
0010
0000
0100
1000
0100
0000
,
1000
0000
0001
0000
0100
0010
0100
0000
,
0010
0000
0100
0000
0001
1000
0001
0000
,
1000
1000
0001
0001
,
1001
0110
1001
0000
,
1000
1000
1000
0100
,
0001
0001
0001
0010
,
1000
0100
0001
0010
,
1000
0100
0001
0010
,
1000
1000
1000
0100
,
0001
0001
0001
0010
,
1000
0100
0001
0010
,
1001
0110
1001
0000
,
0110
1001
0110
0000
,
1001
0110
1001
0000
;

//---------------dance-single - ----------------
#NOTEDATA:;
#CHARTNAME:;
#STEPSTYPE:dance-single;
#DESCRIPTION:;
#CHARTSTYLE:;
#DIFFICULTY:Beginner;
#METER:4;
#RADARVALUES:0.190994,0.262114,0.000000,0.070366,0.000000,152.000000,152.000000,0.000000,8.000000,0.000000,0.000000,0.000000,0.000000,0.000000,0.190994,0.262114,0.000000,0.070366,0.000000,152.000000,152.000000,0.000000,8.000000,0.000000,0.000000,0.000000,0.000000,0.000000;
#CREDIT:;
#NOTES:
0000
0000
0000
0000
,
0100
0100
0100
0000
,
0100
0100
0100
0000
,
0100
0100
0100
0000
,
0100
0100
0100
0000
,
0010
0010
0010
0000
,
0010
0010
0010
0000
,
0010
0010
0010
0010
,
0010
0010
0010
0000
,
1000
0000
1000
0000
,
0001
0000
0001
0000
,
0100
0000
0100
0000
,
0010
0000
0010
0000
,
1000
0000
1000
0000
,
0001
0000
0001
0000
,
0100
0100
0100
0100
,
0100
0100
0100
0000
,
1000
0000
0000
0000
,
1000
0000
0000
0000
,
1000
0000
0000
0000
,
1000
0000
0000
0000
,
0001
0000
0000
0000
,
0001
0000
0000
0000
,
0001
0000
0000
0000
,
0001
0001
0001
0000
,
1000
0000
0001
0000
,
0100
0000
0001
0000
,
1000
0000
0010
0000
,
1000
0000
0100
0000
,
1000
0000
0010
0000
,
0100
0000
0001
0000
,
0100
0100
0100
0100
,
0100
0100
0100
0000
,
1000
0000
0000
0000
,
0001
0000
0000
0000
,
0100
0000
0000
0000
,
0010
0000
0000
0000
,
1000
0000
0000
0000
,
0001
0000
0000
0000
,
0100
0000
0000
0000
,
0010
0010
0010
0000
,
0010
0000
1000
0000
,
0100
0000
1000
0000
,
0010
0000
0100
0000
,
0001
0000
0100
0000
,
0010
0000
1000
0000
,
0100
0000
1000
0000
,
0010
0000
0100
0000
,
0001
0001
0001
0000
,
0002
0000
0003
0000
,
0002
0000
0003
0000
,
2000
0000
3000
0000
,
2000
0000
3000
0000
,
0020
0000
0030
0000
,
0020
0000
0030
0000
,
0200
0000
0300
0000
,
0200
0000
0300
0000
,
1000
0000
1000
0000
,
0010
0000
0010
0000
,
0100
0000
0100
0000
,
0001
0000
0001
0000
,
1000
0000
1000
0000
,
0001
0000
0001
0000
,
0100
0100
0100
0100
,
0100
0100
0100
0000
,
0100
0000
1000
0000
,
0001
0000
0010
0000
,
1000
0000
0100
0000
,
1000
0000
0001
0000
,
0100
0000
0010
0000
,
0100
0000
0001
0000
,
1000
1000
1000
1000
,
1000
1000
1000
0000
,
0001
0001
0001
0000
,
0100
0100
0100
0000
;
