#TITLE:Give it 2 Me;
#SUBTITLE:;
#ARTIST:DEEP BEAT CLUBBING;
#TITLETRANSLIT:;
#SUBTITLETRANSLIT:;
#ARTISTTRANSLIT:;
#GENRE:;
#CREDIT:;
#BANNER:;
#BACKGROUND:;
#LYRICSPATH:;
#CDTITLE:;
#MUSIC:Give_It_2_Me_-_FINAL_VERSION.ogg;
#OFFSET:-0.000003;
#SAMPLESTART:36.099995;
#SAMPLELENGTH:12.000000;
#SELECTABLE:YES;
#BPMS:0.000000=132.919998
,132.000000=132.800003
,220.000000=132.899994
;
#STOPS:
;
#BGCHANGES:;
#KEYSOUNDS:;
#ATTACKS:;

//---------------dance-single - ----------------
#NOTES:
     dance-single:
     :
     Beginner:
     3:
     0.160157,0.188281,0.000000,0.036164,0.000000,124.000000,124.000000,0.000000,4.000000,0.000000,0.000000,0.160157,0.188281,0.000000,0.036164,0.000000,124.000000,124.000000,0.000000,4.000000,0.000000,0.000000:
0000
0000
0000
0000
,
0000
0000
0000
0000
,
0000
0000
0000
0000
,
0000
0000
0000
0000
,
1000
1000
1000
0000
,
1000
1000
1000
0000
,
0001
0001
0001
0000
,
0001
0001
0001
0000
,
0100
0100
0100
0000
,
0100
0100
0100
0000
,
0010
0010
0010
0000
,
0010
0010
0010
0000
,
1000
0000
1000
0000
,
0001
0000
0001
0000
,
0100
0000
0100
0000
,
0010
0000
0010
0000
,
1000
0000
0100
0000
,
0010
0000
0001
0000
,
1000
0000
0100
0000
,
0010
0000
0001
0000
,
1000
1000
1000
0000
,
1000
1000
1000
0000
,
0001
0001
0001
0000
,
0001
0001
0001
0000
,
0100
0100
0100
0000
,
0100
0100
0100
0000
,
0010
0010
0010
0000
,
0010
0010
0010
0000
,
1000
0000
1000
0000
,
0001
0000
0001
0000
,
0100
0000
0100
0000
,
0010
0000
0010
0000
,
1000
0000
0100
0000
,
0010
0000
0001
0000
,
1000
0000
0100
0000
,
0010
0000
0001
0000
,
2000
0000
0000
0000
,
3000
0000
0000
0000
,
0002
0000
0000
0000
,
0003
0000
0000
0000
,
0200
0000
0000
0000
,
0300
0000
0000
0000
,
0020
0000
0000
0000
,
0030
0000
0000
0000
,
1000
1000
1000
0000
,
1000
1000
1000
0000
,
0001
0001
0001
0000
,
0001
0001
0001
0000
,
0100
0100
0100
0000
,
0100
0100
0100
0000
,
0010
0010
0010
0000
,
0010
0010
0010
0000
,
1000
0000
1000
0000
,
0001
0000
0001
0000
,
0100
0000
0100
0000
,
0010
0000
0010
0000
,
1000
0000
0100
0000
,
0010
0000
0001
0000
,
1000
0000
0100
0000
,
0010
0000
0001
0000
;

//---------------dance-single - ----------------
#NOTES:
     dance-single:
     :
     Hard:
     14:
     0.672916,0.757870,0.325480,0.045206,0.388767,521.000000,485.000000,36.000000,5.000000,0.000000,0.000000,0.672916,0.757870,0.325480,0.045206,0.388767,521.000000,485.000000,36.000000,5.000000,0.000000,0.000000:
// measure 0
0000
0000
0000
0000
,  // measure 1
0000
0000
0000
0000
,  // measure 2
0000
0000
0000
0000
,  // measure 3
0000
0000
0000
0000
,  // measure 4
0001
0100
0000
0001
0100
0000
0010
0000
0100
0000
0010
0000
1000
0000
0100
0000
,  // measure 5
0100
1000
0000
0100
1000
0000
0010
0000
0100
0000
0000
0000
1001
0000
0000
0000
,  // measure 6
0100
0010
0000
1000
0001
0000
0100
0000
0001
0000
0010
0000
0001
0000
0100
0000
,  // measure 7
0001
1000
0000
0010
1000
0000
0100
0000
1000
0000
0000
0000
1001
0000
0000
0000
,  // measure 8
0001
1000
0010
0000
1000
0010
1000
0000
1000
0100
1000
0000
0010
0100
0001
0000
,  // measure 9
0001
0100
0010
0000
0010
0100
0001
0000
0001
0010
0100
0000
0100
0010
0001
0000
,  // measure 10
0001
0100
0010
0000
0010
0100
0001
0000
0001
0010
0100
0000
0100
0010
0001
0000
,  // measure 11
0001
0100
0010
0000
0010
0100
0001
0000
0001
1000
0100
0000
1000
0001
0100
0000
,  // measure 12
1001
0100
0001
0100
0010
1000
0100
1000
,  // measure 13
0010
0100
0001
0100
0010
1000
0100
1000
,  // measure 14
0100
0010
0001
0010
0001
0010
0100
1000
,  // measure 15
0010
1000
0010
0100
0001
0100
0010
0100
,  // measure 16
0001
0100
0010
1000
0100
1000
0010
0100
,  // measure 17
0001
0100
0010
1000
0100
0010
0001
0100
,  // measure 18
1001
0100
0001
0100
0010
1000
0100
1000
,  // measure 19
0010
0100
0001
0100
0010
1000
1000
1000
,  // measure 20
1000
0100
0000
0001
0100
0000
1000
0000
0100
0000
0001
0000
0100
0000
1000
0000
,  // measure 21
1000
0010
0000
0001
0010
0000
1000
0000
0010
0000
0000
0000
1000
0000
0000
0000
,  // measure 22
0100
1000
0000
0010
1000
0000
0100
0000
1000
0000
0010
0000
1000
0000
0100
0000
,  // measure 23
1000
0010
0000
0100
0001
0000
0010
0000
0001
0000
0000
0000
0100
0000
0000
0000
,  // measure 24
0001
0100
0001
0000
0001
0010
0001
0000
0001
0100
0001
0000
0001
0010
0001
0000
,  // measure 25
0100
0001
0100
0000
0010
0100
0010
0000
1000
0010
1000
0000
0010
0100
0010
0000
,  // measure 26
0100
0001
0100
0000
0010
1000
0010
0000
1000
0100
1000
0000
0010
0100
0010
0000
,  // measure 27
0100
0001
0100
0000
0010
0100
0010
0000
1000
0100
1000
0000
0100
0010
0001
0000
,  // measure 28
0001
0001
1000
0010
0100
0010
1000
0100
,  // measure 29
1000
1000
0010
0100
0001
0100
0010
0100
,  // measure 30
0001
0001
1000
0100
1000
0010
0100
0001
,  // measure 31
0100
0100
0020
0000
0000
0100
0130
0000
,  // measure 32
1001
0100
0001
0100
0010
1000
0100
1000
,  // measure 33
0010
0100
0001
0100
0010
1000
0100
1000
,  // measure 34
0010
0100
0001
0010
0001
0100
0001
1000
,  // measure 35
0010
0000
0100
0000
0001
0000
0100
0000
0010
1000
0010
1000
0010
0100
0010
0100
,  // measure 36
0002
0000
1000
1000
1000
0000
1003
0000
,  // measure 37
2001
0000
0001
0001
0001
0000
0001
3000
,  // measure 38
1000
0000
0100
0000
0010
0000
0001
0010
0100
0000
1000
0000
0100
0000
0010
0001
,  // measure 39
0010
0000
0100
0000
1000
0000
0100
0010
0001
0000
0010
0000
0100
0000
1000
0000
,  // measure 40
1002
0000
1000
1000
1000
0000
1003
0000
,  // measure 41
2001
0000
0001
0001
0001
0000
0001
3000
,  // measure 42
1000
0000
0100
0000
0010
0000
0001
0010
0100
0000
1000
0000
0100
0000
0010
0001
,  // measure 43
0010
0000
0100
0000
1000
0000
0100
0010
0001
0000
0010
0000
0100
0000
1000
0000
,  // measure 44
1001
0000
0000
0101
0000
0000
0101
0000
1001
0000
1100
0000
1001
0000
0101
0000
,  // measure 45
1001
0000
0000
0101
0000
0000
0110
0000
1010
0000
1010
0000
0110
0000
0000
0000
,  // measure 46
0101
0000
0000
1010
0000
0000
1100
0000
0011
0000
1100
0000
1010
0000
0101
0000
,  // measure 47
0110
0000
0000
0101
0000
0000
1010
0000
0110
0000
0110
0000
1001
0000
0000
0000
,  // measure 48
1000
0001
0100
0001
0100
0010
1000
0010
,  // measure 49
1000
0100
1000
0100
0010
0001
0010
0001
,  // measure 50
0100
0001
0100
0010
1000
0100
1000
0010
,  // measure 51
0100
0001
1000
0100
1000
0010
0100
0001
,  // measure 52
0001
0100
0000
0001
0100
0000
0010
0000
0100
0000
0010
0000
1000
0000
0100
0000
,  // measure 53
0100
1000
0000
0100
1000
0000
0010
0000
0100
0000
0000
0000
1001
0000
0000
0000
,  // measure 54
0100
0010
0000
1000
0001
0000
0100
0000
0001
0000
0010
0000
0001
0000
0100
0000
,  // measure 55
0001
1000
0000
0010
1000
0000
0100
0000
1000
0000
0000
0000
1001
0000
0000
0000
,  // measure 56
0001
1000
0010
0000
1000
0010
1000
0000
1000
0100
1000
0000
0010
0100
0001
0000
,  // measure 57
0001
0100
0010
0000
0010
0100
0001
0000
0001
0010
0100
0000
0100
0010
0001
0000
,  // measure 58
0001
0100
0010
0000
0010
0100
0001
0000
0001
0010
0100
0000
0100
0010
0001
0000
,  // measure 59
0001
0100
0010
0000
0010
0100
0001
0000
0001
1000
0100
0000
1000
0001
0100
0000
;

//---------------dance-single - ----------------
#NOTES:
     dance-single:
     :
     Medium:
     8:
     0.378435,0.433973,0.144658,0.081370,0.000000,293.000000,277.000000,16.000000,9.000000,0.000000,0.000000,0.378435,0.433973,0.144658,0.081370,0.000000,293.000000,277.000000,16.000000,9.000000,0.000000,0.000000:
0000
0000
0000
0000
,
0000
0000
0000
0000
,
0000
0000
0000
0000
,
0000
0000
0000
0000
,
0001
0100
0001
0100
0001
0001
0001
0000
,
0010
1000
0010
1000
0010
0000
0010
0000
,
0100
0001
0100
0001
0100
0100
0100
0000
,
0010
1000
1000
0100
1000
1000
1000
0000
,
1001
0000
0100
0000
0100
0001
0100
0000
,
1001
0000
0100
0000
0100
1000
0100
0000
,
1001
0000
0100
0000
0100
0001
0100
0000
,
1001
0000
0100
0000
0100
1000
0100
0000
,
1000
0100
1000
0010
,
0100
0000
0001
0000
0100
0010
0100
0000
,
0001
0010
0100
1000
,
0100
0000
0001
0000
0010
0000
1000
0001
,
1000
0000
0100
0100
1000
0100
0100
0000
,
1000
0000
0010
0000
0100
0001
0100
0000
,
0001
0010
0100
1000
,
0010
0000
0100
0000
0001
0100
0001
0000
,
0001
0100
0001
0100
0001
0001
0001
0000
,
0010
1000
0010
1000
0010
0000
0010
0000
,
0100
0001
0100
0001
0100
0100
0100
0000
,
0010
1000
1000
0100
1000
1000
1000
0000
,
1001
0000
0100
0000
0100
0001
0100
0000
,
1001
0000
0100
0000
0100
1000
0100
0000
,
1001
0000
0100
0000
0100
0001
0100
0000
,
1001
0000
0100
0000
0100
1000
0100
0000
,
1000
0100
1000
0010
,
0100
0000
0001
0000
0100
0010
0100
0000
,
0001
0010
0100
1000
,
0100
0000
0001
0000
0010
0000
1000
0001
,
1000
0000
0100
0100
1000
0100
0100
0000
,
1000
0000
0010
0000
0100
0001
0100
0000
,
0001
0010
0100
1000
,
0010
0000
0100
0000
0001
0100
0001
0000
,
2002
0000
0000
3003
,
0220
0000
0000
0330
,
1000
0100
0001
0010
,
1000
0000
0100
0000
0001
0010
1000
0000
,
2002
0000
0000
3003
,
0220
0000
0000
0330
,
0001
0100
1000
0010
,
0001
0000
0100
0000
1000
0010
0001
0000
,
0001
0100
0001
0100
0001
0001
0001
0000
,
0010
1000
0010
1000
0010
0000
0010
0000
,
0100
0001
0100
0001
0100
0100
0100
0000
,
0010
1000
1000
0100
1000
1000
1000
0000
,
1001
0000
0100
0000
0100
0001
0100
0000
,
1001
0000
0100
0000
0100
1000
0100
0000
,
1001
0000
0100
0000
0100
0001
0100
0000
,
1001
0000
0100
0000
0100
1000
0100
0000
,
1000
0100
1000
0010
,
0100
0000
0001
0000
0100
0010
0100
0000
,
0001
0010
0100
1000
,
0100
0000
0001
0000
0010
0000
1000
0001
,
1000
0000
0100
0100
1000
0100
0100
0000
,
1000
0000
0010
0000
0100
0001
0100
0000
,
0001
0010
0100
1000
,
0010
0000
0100
0000
0001
0100
0002
0000
,
0003
0000
0000
0000
;

//---------------dance-single - ----------------
#NOTES:
     dance-single:
     :
     Easy:
     7:
     0.325480,0.378144,0.433973,0.108493,0.000000,252.000000,204.000000,48.000000,12.000000,0.000000,0.000000,0.325480,0.378144,0.433973,0.108493,0.000000,252.000000,204.000000,48.000000,12.000000,0.000000,0.000000:
0000
0000
0000
0000
,
0000
0000
0000
0000
,
0000
0000
0000
0000
,
0000
0000
0000
0000
,
1000
0101
1000
0101
,
1000
0001
0110
1001
,
0001
1100
0001
1100
,
0001
1000
0110
1001
,
1000
0101
1000
0101
,
1000
0001
0110
1001
,
0001
1100
0001
1100
,
0001
1000
0110
1001
,
1000
0100
1000
0100
,
1000
0100
0001
0010
,
1000
0100
1000
0100
,
1000
0100
0001
0010
,
1000
0100
1000
0100
,
1000
0100
0001
0010
,
1000
0100
1000
0100
,
1000
0100
0001
0010
,
1000
0101
1000
0101
,
1000
0001
0110
1001
,
0001
1100
0001
1100
,
0001
1000
0110
1001
,
1000
0101
1000
0101
,
1000
0001
0110
1001
,
0001
1100
0001
1100
,
0001
1000
0110
1001
,
1000
0100
1000
0100
,
1000
0100
0001
0010
,
1000
0100
1000
0100
,
1000
0100
0001
0010
,
1000
0100
1000
0100
,
1000
0100
0001
0010
,
1000
0100
1000
0100
,
1000
0100
0001
0010
,
2000
0000
0000
0000
,
3002
0000
0000
0000
,
0203
0000
0320
0000
,
0230
0000
0320
0000
,
2030
0000
0000
0000
,
3002
0000
0000
0000
,
0203
0000
0320
0000
,
0230
0000
0320
0000
,
1030
0101
1000
0101
,
1000
0001
0110
1001
,
0001
1100
0001
1100
,
0001
1000
0110
1001
,
1000
0101
1000
0101
,
1000
0001
0110
1001
,
0001
1100
0001
1100
,
0001
1000
0110
1001
,
1000
0100
1000
0100
,
1000
0100
0001
0010
,
1000
0100
1000
0100
,
1000
0100
0001
0010
,
1000
0100
1000
0100
,
1000
0100
0001
0010
,
1000
0100
1000
0100
,
1000
0100
0001
0010
;
