#TITLE:Gebura;
#SUBTITLE:;
#ARTIST:Misery;
#TITLETRANSLIT:;
#SUBTITLETRANSLIT:;
#ARTISTTRANSLIT:;
#GENRE:;
#CREDIT:;
#BANNER:;
#BACKGROUND:;
#LYRICSPATH:;
#CDTITLE:;
#MUSIC:Gebura.ogg;
#OFFSET:0.000000;
#SAMPLESTART:21.340012;
#SAMPLELENGTH:14.999999;
#SELECTABLE:YES;
#BPMS:0.000000=135.000000
;
#STOPS:124.000000=2.820000
;
#BGCHANGES:;
#KEYSOUNDS:;
#ATTACKS:;

//---------------dance-single - ----------------
#NOTES:
     dance-single:
     :
     Hard:
     13:
     0.656133,0.630561,0.041285,0.000000,0.768929,445.000000,441.000000,4.000000,0.000000,0.000000,0.000000,0.656133,0.630561,0.041285,0.000000,0.768929,445.000000,441.000000,4.000000,0.000000,0.000000,0.000000:
0000
0000
0000
0000
,
0000
0000
0000
0000
,
0000
0000
0000
0000
,
0000
0000
0000
0000
,
1000
0100
1000
0000
0100
1000
0000
0010
0100
0000
0001
0100
0000
0010
0100
0000
,
0100
0001
0100
0000
0001
0010
0000
0010
0001
0000
0001
1000
0000
1000
0010
0000
,
0100
0010
0100
0000
0010
0100
0000
0100
0001
0000
0001
1000
0000
1000
0100
0000
,
1000
0010
1000
0000
0010
0100
0000
0100
0001
0000
0001
0100
0000
0100
0010
0000
,
1001
0000
0100
0001
0000
0100
0001
0000
0100
0000
0001
0100
0000
0001
0100
0000
,
0001
0000
1000
0100
0000
1000
0100
0000
1000
0000
0100
1000
0000
0100
1000
0000
,
0001
0000
1000
0100
0000
0010
0001
0000
1000
0000
0100
0010
0000
0001
1000
0000
,
1000
0000
0001
0100
0000
0010
1000
0000
0001
0100
0000
0010
1000
0001
0000
0001
,
1000
0000
0010
0100
0000
0001
0100
0000
0010
0000
0100
0001
0000
0100
0010
0000
,
1000
0000
0100
0010
0000
0100
1000
0000
0100
0000
0010
0100
0000
1000
0100
0000
,
1000
0000
0010
0100
0000
0010
1000
0000
0010
0000
0100
0010
0000
1000
0010
0000
,
0100
0000
0001
0100
0000
0010
0100
0000
0001
0100
0000
0010
0100
0001
0000
0001
,
1000
0000
0100
0001
0000
0100
1000
0000
0100
0000
0001
0100
0000
1000
0100
0000
,
0010
0000
0100
1000
0000
0100
0010
0000
0100
0000
1000
0100
0000
0010
0100
0000
,
1000
0000
0010
0100
0000
0010
1000
0000
0010
0000
0100
0010
0000
1000
0010
0000
,
0100
0000
0001
0100
0000
0010
0100
0000
0001
0100
0000
0010
1000
0100
0000
1000
,
0100
1000
0100
1000
0010
0100
0010
0100
,
0001
0100
0001
0100
0010
0100
0001
1000
,
0010
0100
0010
1000
0100
1000
0100
1000
,
0010
0000
0100
0000
0001
0000
0100
0000
0010
0100
0010
0100
0010
0100
0010
0000
,
1001
0000
0100
0001
0000
0100
0001
0000
0100
0000
0001
0100
0000
0001
0100
0000
,
0001
0000
1000
0100
0000
1000
0100
0000
1000
0000
0100
1000
0000
0100
1000
0000
,
0001
0000
1000
0100
0000
0010
0001
0000
1000
0000
0100
0010
0000
0001
1000
0000
,
1000
0000
0001
0100
0000
0010
1000
0000
0001
0100
0000
0010
1000
0001
0000
0001
,
1000
0000
0010
0100
0000
0001
0100
0000
0010
0000
0100
0001
0000
0100
0010
0000
,
1000
0000
0100
0010
0000
0100
1000
0000
0100
0000
0010
0100
0000
1000
0100
0000
,
1000
0000
0010
0100
0000
0010
1000
0000
0010
0000
0100
0010
0000
1000
0010
0000
,
1001
0000
0000
0000
1000
0000
0001
0100
0000
0010
1000
0000
0001
0100
0000
0010
,
1000
0001
0000
0001
1000
0000
0010
0100
0000
0001
0100
0000
0010
0000
0100
0001
,
0000
0100
0010
0000
1000
0000
0100
0010
0000
0100
1000
0000
0100
0000
0010
0100
,
0000
1000
0100
0000
1000
0000
0010
0100
0000
0010
1000
0000
0010
0000
0100
0010
,
0000
1000
0010
0000
1000
0001
1000
0001
1000
0001
1000
0001
1000
0001
0000
1000
,
0001
1000
0000
0001
0100
0000
0001
0000
0100
0000
0010
0000
1000
0000
0100
0000
,
1000
0010
1000
0100
0010
0100
1000
0010
,
0100
0001
0100
0010
0100
0001
1000
0100
,
1000
0000
0010
0000
0100
0000
0001
0000
0100
0000
0010
0000
1000
0100
0000
0100
,
1000
0010
0000
0010
0100
0000
0001
0000
0100
0000
0010
0000
0100
0000
0001
0000
,
0010
0001
0100
0001
0100
0010
0100
0001
,
0100
0001
0010
0001
0100
0001
0100
0010
,
0100
0000
0010
0000
1000
0000
0100
0000
1000
0000
0010
0000
1000
0001
0000
0001
,
0100
0010
0000
0010
0100
0000
0001
0000
0010
0000
0001
0000
1000
0000
0100
0000
,
1000
0010
1000
0010
0100
0001
0100
0001
,
0100
0010
1000
0100
1000
0010
0100
0001
,
0100
0000
0010
0000
0100
0000
1000
0000
0100
0000
0010
0000
0100
0010
0000
0100
,
0010
0100
0000
0010
0100
0001
0100
0001
0100
0001
0100
0001
0100
0000
1001
0000
;

//---------------dance-single - ----------------
#NOTES:
     dance-single:
     :
     Medium:
     9:
     0.411373,0.378336,0.061927,0.000000,0.041285,279.000000,273.000000,6.000000,0.000000,0.000000,0.000000,0.411373,0.378336,0.061927,0.000000,0.041285,279.000000,273.000000,6.000000,0.000000,0.000000,0.000000:
0000
0000
0000
0000
,
0000
0000
0000
0000
,
0000
0000
0000
0000
,
0000
0000
0000
0000
,
0001
0000
0001
0000
0000
0001
0000
0000
0001
0000
0000
0001
0000
0000
0001
0000
,
0010
0000
0010
0000
0000
0010
0000
0000
0010
0000
0000
0010
0000
0000
0010
0000
,
0100
0000
0100
0000
0000
0100
0000
0000
0100
0000
0000
0100
0000
0000
0100
0000
,
1000
0000
1000
0000
0000
1000
0000
0000
1000
0000
0000
1000
0000
0000
1000
0000
,
1001
0000
1000
0100
1000
0010
1000
0000
,
0001
0000
0100
0001
0100
0010
0100
0000
,
0001
0000
1000
0100
0010
0001
0010
0000
,
0001
0000
0100
0010
0100
0001
1000
0000
,
0010
0000
1000
0100
0010
0100
1000
0000
,
0010
0000
0100
0001
0100
0010
0100
0000
,
0001
0000
0010
0001
0100
0001
0010
0000
,
0001
0000
1000
0010
1000
0010
0100
0000
,
0010
0000
1000
0100
1000
0010
0100
0000
,
0001
0000
0100
0010
0100
0001
0100
0000
,
0010
0000
1000
0100
0010
0001
1000
0000
,
0001
0000
1000
0010
0100
0001
0100
0000
,
1001
0000
0100
1000
0010
0000
0010
0100
,
0001
0000
0001
0100
0010
0000
0001
1000
,
0010
0000
0010
1000
0100
0000
0100
1000
,
0010
0000
0001
0100
0010
0010
0010
0000
,
1001
0000
1000
0100
1000
0010
1000
0000
,
0001
0000
0100
0001
0100
0010
0100
0000
,
0001
0000
1000
0100
0010
0001
0010
0000
,
0001
0000
0100
0010
0100
0001
1000
0000
,
0010
0000
1000
0100
0010
0100
1000
0000
,
0010
0000
0100
0001
0100
0010
0100
0000
,
0001
0000
0010
0001
0100
0001
0010
0000
,
0001
0000
1001
0000
0100
0010
0100
0010
,
0100
0000
1001
0000
1000
0100
1000
0010
,
1000
0000
0001
0000
0100
0001
0100
0010
,
0100
0000
0001
0000
1000
0100
0010
0001
,
0010
0000
0001
0000
0100
0010
0100
0001
,
1000
0000
0010
0000
1000
0100
0010
0100
,
1000
0000
0010
0000
0100
0001
0100
0010
,
0100
0000
0001
0000
0010
0001
0100
0001
,
0010
0000
0001
0000
1000
0010
1000
0010
,
0100
0010
0100
0000
0100
0010
0100
0000
,
0001
0100
0001
0000
0100
0010
0100
0000
,
0001
1000
0010
0000
0100
0001
1000
0000
,
0010
1000
0100
0000
1000
0010
1000
0001
,
0100
0010
0100
0000
1000
0001
1000
0000
,
1000
0010
1000
0000
0001
0100
0001
0000
,
0100
0010
0100
0000
0010
0100
0001
0000
,
0100
0010
1000
0000
0001
1000
0001
1000
,
0001
1000
0001
1000
0001
1000
0000
1001
;

//---------------dance-single - ----------------
#NOTES:
     dance-single:
     :
     Easy:
     6:
     0.263928,0.252224,0.041285,0.000000,0.020642,179.000000,175.000000,4.000000,0.000000,0.000000,0.000000,0.263928,0.252224,0.041285,0.000000,0.020642,179.000000,175.000000,4.000000,0.000000,0.000000,0.000000:
0000
0000
0000
0000
,
0000
0000
0000
0000
,
0000
0000
0000
0000
,
0000
0000
0000
0000
,
0000
0000
0001
0000
0000
0001
0000
0000
0001
0000
0000
0000
0000
0000
0000
0000
,
0000
0000
0010
0000
0000
0010
0000
0000
0010
0000
0000
0000
0000
0000
0000
0000
,
0000
0000
0100
0000
0000
0100
0000
0000
0100
0000
0000
0000
0000
0000
0000
0000
,
0000
0000
1000
0000
0000
1000
0000
0000
1000
0000
0000
0000
0000
0000
0000
0000
,
1000
1000
1000
1000
,
0001
0100
0100
0100
,
0001
1000
0010
0010
,
0001
0100
0100
1000
,
0010
1000
0010
1000
,
0010
0100
0100
0100
,
0001
0010
0100
0010
,
0001
1000
1000
0100
,
0010
1000
1000
0100
,
0001
0100
0100
0100
,
0010
1000
0010
1000
,
0001
1000
0100
0100
,
1001
0100
0010
0010
,
0001
0001
0010
0001
,
0010
0010
0100
0100
,
0010
0001
0010
0010
,
1001
1000
1000
1000
,
0001
0100
0100
0100
,
0001
1000
0010
0010
,
0001
0100
0100
1000
,
0010
1000
0010
1000
,
0010
0100
0100
0100
,
0001
0010
0100
0010
,
0001
0000
0100
0100
,
0100
1001
1000
1000
,
1000
0001
0100
0100
,
0100
0001
1000
0010
,
0010
0100
0010
1000
,
1000
0010
1000
0001
,
1000
0010
0100
0001
,
0100
0001
0010
0001
,
0010
0001
1000
1000
,
0100
0100
0010
0010
,
0001
0001
1000
1000
,
0001
0010
0100
1000
,
0010
0010
1000
1000
,
0100
0100
1000
1000
,
0010
0100
0001
0001
,
0100
0100
0010
1000
,
0100
0010
0001
0100
,
0100
0000
0100
0000
0100
0000
0000
1001
;

//---------------dance-single - ----------------
#NOTES:
     dance-single:
     :
     Beginner:
     2:
     0.135650,0.177008,0.020642,0.061927,0.000000,92.000000,90.000000,2.000000,6.000000,0.000000,0.000000,0.135650,0.177008,0.020642,0.061927,0.000000,92.000000,90.000000,2.000000,6.000000,0.000000,0.000000:
// measure 0
0000
0000
0000
0000
,  // measure 1
0000
0000
0000
0000
,  // measure 2
0000
0000
0000
0000
,  // measure 3
0000
0000
0000
0000
,  // measure 4
0002
0000
0003
0000
,  // measure 5
0020
0000
0030
0000
,  // measure 6
0200
0000
0300
0000
,  // measure 7
2000
0000
3000
0000
,  // measure 8
1000
1000
1000
0000
,  // measure 9
0100
0100
0100
0000
,  // measure 10
0010
0010
0010
0000
,  // measure 11
0001
0001
0001
0000
,  // measure 12
0010
0000
0100
0000
,  // measure 13
0010
0000
0100
0000
,  // measure 14
0001
0000
0100
0000
,  // measure 15
0001
0000
1000
0000
,  // measure 16
0010
0000
1000
0000
,  // measure 17
0001
0000
0100
0000
,  // measure 18
1000
0000
0010
0000
,  // measure 19
0001
0000
1000
0000
,  // measure 20
1001
0000
0010
0000
,  // measure 21
0001
0000
0010
0000
,  // measure 22
0010
0000
0100
0000
,  // measure 23
0010
0000
0010
0000
,  // measure 24
1000
0000
1000
0000
,  // measure 25
0001
0000
0100
0000
,  // measure 26
0001
0000
0010
0000
,  // measure 27
0001
0000
0100
0000
,  // measure 28
0010
0000
1000
0000
,  // measure 29
0010
0000
0100
0000
,  // measure 30
0001
0000
1000
0000
,  // measure 31
0002
0000
0003
0000
,  // measure 32
0000
1001
0000
1000
,  // measure 33
0000
0001
0000
0100
,  // measure 34
0000
0001
0000
0010
,  // measure 35
0000
0100
0000
1000
,  // measure 36
0000
0010
0000
0001
,  // measure 37
0000
0010
0000
0001
,  // measure 38
0000
0001
0000
1000
,  // measure 39
0000
1000
0000
1000
,  // measure 40
0000
0100
0000
0010
,  // measure 41
0000
0001
0000
1000
,  // measure 42
0000
0010
0000
1000
,  // measure 43
0000
0010
0000
1000
,  // measure 44
0000
0100
0000
1000
,  // measure 45
0000
0100
0000
0001
,  // measure 46
0000
0100
0000
1000
,  // measure 47
0000
0010
0000
0100
,  // measure 48
0100
0100
0200
0000
,  // measure 49
0300
0000
0000
0000
;
