#TITLE:GIVE IT UP;
#SUBTITLE:(GRANDALE REMIX);
#ARTIST:CAPTAIN JACK;
#TITLETRANSLIT:;
#SUBTITLETRANSLIT:;
#ARTISTTRANSLIT:;
#GENRE:;
#CREDIT:;
#BANNER:;
#BACKGROUND:;
#LYRICSPATH:;
#CDTITLE:;
#MUSIC:Give It Up (Grandale Mix).mp3;
#OFFSET:-0.040001;
#SAMPLESTART:27.953991;
#SAMPLELENGTH:12.000000;
#SELECTABLE:YES;
#DISPLAYBPM:170.000000;
#BPMS:0.000000=170.039993
,164.000000=170.000000
;
#STOPS:
;
#BGCHANGES:;
#KEYSOUNDS:;
#ATTACKS:;

//---------------dance-single - ----------------
#NOTES:
     dance-single:
     :
     Hard:
     17:
     0.948665,1.008597,0.271713,0.054343,0.749927,611.000000,586.000000,25.000000,5.000000,0.000000,0.000000,0.948665,1.008597,0.271713,0.054343,0.749927,611.000000,586.000000,25.000000,5.000000,0.000000,0.000000:
// measure 0
0000
0000
0000
0000
,  // measure 1
0000
0000
0000
0000
,  // measure 2
0000
0000
0000
0000
,  // measure 3
0000
0000
0000
0000
,  // measure 4
1000
0100
1000
0100
1000
0000
0001
1000
0001
1000
0001
0000
1000
0010
1000
0010
,  // measure 5
0100
0010
0100
0010
0100
0000
0001
0100
0001
0100
0001
0000
1000
0001
1000
0001
,  // measure 6
1000
0001
1000
0001
1000
0000
0010
1000
0010
1000
0010
0000
0100
0001
0100
0001
,  // measure 7
0100
0001
1001
0000
0100
1000
1001
0000
,  // measure 8
0001
0010
0001
0010
0001
0000
0010
0001
0010
0001
0010
0000
0001
0100
0001
0100
,  // measure 9
0001
0010
0001
0010
0001
0000
1000
0001
1000
0001
1000
0000
0100
1000
0100
1000
,  // measure 10
0001
1000
0001
1000
0001
0000
1000
0001
1000
0001
1000
0000
0001
0100
0001
0100
,  // measure 11
0001
0000
0100
0010
0000
0100
0010
0000
1001
0000
1000
0001
0000
1000
0001
0000
,  // measure 12
1001
0100
0001
0100
0001
0010
0001
0010
,  // measure 13
0001
0100
0001
0100
0001
1000
0001
1000
,  // measure 14
0010
1000
0010
1000
0010
0100
0010
0100
,  // measure 15
0010
0001
0010
0001
0010
0100
0010
0100
,  // measure 16
0010
1000
0010
0100
0010
0001
0010
0100
,  // measure 17
0010
1000
0010
0100
0010
0001
0010
0100
,  // measure 18
0110
0000
0100
0001
0000
1000
0001
0000
1001
0000
1000
0001
0000
1000
0100
0000
,  // measure 19
1100
0000
1000
0010
0000
0100
0001
0000
0101
0000
0001
0000
0100
0000
0010
0000
,  // measure 20
0100
0001
0000
0100
0001
0000
0100
0001
0000
0100
0001
0000
0100
0000
0001
0000
,  // measure 21
0100
0001
0100
0001
1000
0100
0010
0010
,  // measure 22
0010
0001
0010
0010
0010
0001
0001
0100
,  // measure 23
0001
0100
0010
0010
0100
1000
0100
0001
,  // measure 24
0100
0001
0000
0100
0001
0000
1000
0001
0000
1000
0100
0000
1000
0000
0001
0000
,  // measure 25
1000
0010
1000
0001
1000
0010
0100
0010
,  // measure 26
1000
0100
0010
0010
0010
0001
0001
0100
,  // measure 27
0010
0100
0010
0010
0020
0130
1001
0000
,  // measure 28
1000
0100
1000
0100
1000
0000
0001
1000
0001
1000
0001
0000
1000
0010
1000
0010
,  // measure 29
0100
0010
0100
0010
0100
0000
0001
0100
0001
0100
0001
0000
1000
0001
1000
0001
,  // measure 30
1000
0001
1000
0001
1000
0000
0010
1000
0010
1000
0010
0000
0100
0001
0100
0001
,  // measure 31
0100
0001
1001
0000
0100
1000
1001
0000
,  // measure 32
0010
0001
0010
0001
0010
0000
0001
0010
0001
0010
0001
0000
0100
0001
0100
0001
,  // measure 33
0100
0010
0100
0010
0100
0000
0001
1000
0001
1000
0001
0000
1000
0100
1000
0100
,  // measure 34
1000
0001
1000
0001
1000
0000
0001
1000
0001
1000
0001
0000
0100
0001
0100
0001
,  // measure 35
0100
0000
0100
0010
0000
0100
0010
0000
1001
0000
1000
0001
0000
1000
0001
0000
,  // measure 36
1010
0010
1000
0010
1000
0001
1000
0001
,  // measure 37
0100
0010
0100
0010
1000
0010
1000
0010
,  // measure 38
0100
0001
0100
0001
0100
0010
0100
0010
,  // measure 39
0100
1000
0100
1000
0100
0010
0100
0010
,  // measure 40
1000
0001
1000
0001
0100
0010
0100
0010
,  // measure 41
1000
0100
0010
0001
1000
0100
0010
0001
,  // measure 42
0100
0001
1000
0010
0100
0001
1000
0010
,  // measure 43
0100
0100
0010
0010
0220
0000
0330
0000
,  // measure 44
0011
0010
0001
0010
0001
0100
0001
0100
,  // measure 45
0010
1000
0010
1000
0100
1000
0100
1000
,  // measure 46
0001
1000
0001
1000
0010
0100
0010
0001
,  // measure 47
0010
0100
0010
1000
0010
0100
0010
0001
,  // measure 48
0010
0100
0010
0100
0010
1000
0010
1000
,  // measure 49
0100
1000
0100
1000
0010
1000
0010
1000
,  // measure 50
0100
0010
0100
0001
0100
0010
0100
1000
,  // measure 51
0100
0010
0100
0001
0100
0010
0100
1000
,  // measure 52
0100
0010
0000
0100
0010
0000
0100
0010
0000
0100
0010
0000
0110
0000
0001
0000
,  // measure 53
0012
0000
1000
0000
1003
0010
0100
0001
,  // measure 54
0011
0000
0010
0100
1100
0000
0000
2100
,  // measure 55
0000
0001
0001
0001
3010
0000
0110
0000
,  // measure 56
1000
0100
1000
0100
1000
0000
0001
1000
0001
1000
0001
0000
1000
0010
1000
0010
,  // measure 57
0100
0010
0100
0010
0100
0000
0001
0100
0001
0100
0001
0000
1000
0001
1000
0001
,  // measure 58
1000
0010
1000
0010
1000
0000
0010
1000
0010
1000
0010
0000
1000
0001
1000
0001
,  // measure 59
1000
0001
0110
0000
0001
1000
0110
0000
,  // measure 60
0001
0010
0001
0010
0001
0000
0010
0001
0010
0001
0010
0000
0001
0100
0001
0100
,  // measure 61
0001
0010
0001
0010
0001
0000
1000
0001
1000
0001
1000
0000
0100
1000
0100
1000
,  // measure 62
0001
1000
0001
1000
0001
0000
1000
0001
1000
0001
1000
0000
0001
0100
0001
0100
,  // measure 63
0001
0000
0100
0010
0000
0100
0010
0000
1001
0000
1000
0001
0000
1000
0001
0000
,  // measure 64
1001
0000
0000
0000
;

//---------------dance-single - ----------------
#NOTES:
     dance-single:
     :
     Medium:
     12:
     0.607083,0.591246,0.912954,0.108685,0.059777,391.000000,307.000000,84.000000,10.000000,0.000000,0.000000,0.607083,0.591246,0.912954,0.108685,0.059777,391.000000,307.000000,84.000000,10.000000,0.000000,0.000000:
// measure 0
0000
0000
0000
0000
,  // measure 1
0000
0000
0000
0000
,  // measure 2
0000
0000
0000
0000
,  // measure 3
0000
0000
0000
0000
,  // measure 4
1100
0000
1000
0100
1000
0100
1000
0000
,  // measure 5
0101
0000
0001
0100
0001
0100
0001
0000
,  // measure 6
1100
0000
1000
0100
1000
0100
1000
0000
,  // measure 7
0110
1010
0110
0011
,  // measure 8
0110
0000
0010
1000
0010
1000
0010
0000
,  // measure 9
1100
0000
0100
0010
0100
0010
0100
0000
,  // measure 10
0011
0000
0100
0001
0100
0001
0100
0000
,  // measure 11
0001
0000
0000
0100
0000
0000
0100
0000
1000
0000
0000
0100
0000
0000
0100
0000
,  // measure 12
0001
0001
0001
0000
0100
0000
0100
0000
,  // measure 13
1000
1000
1000
0000
0100
0000
0100
0000
,  // measure 14
1000
0001
0100
0000
0001
0000
1000
0000
,  // measure 15
1000
0001
0100
0000
0001
0000
1000
0000
,  // measure 16
1100
0100
0011
0010
,  // measure 17
1010
0100
0101
0010
,  // measure 18
1000
0000
0000
1000
0000
0000
1000
0000
0001
0000
0000
0001
0000
0000
0001
0000
,  // measure 19
0202
0000
0000
0303
,  // measure 20
1000
0000
0000
0000
0100
0000
0000
0100
0000
0000
1000
0000
0100
0000
1000
0000
,  // measure 21
0001
0100
0001
0000
1000
0100
1000
0000
,  // measure 22
1100
0011
1100
0011
,  // measure 23
1001
0110
2002
3003
,  // measure 24
0001
0000
0000
0000
0010
0000
0000
0010
0000
0000
0001
0000
0010
0000
0001
0000
,  // measure 25
1000
0010
1000
0000
0001
0010
0001
0000
,  // measure 26
0011
1100
0011
1100
,  // measure 27
0110
1001
0220
0330
,  // measure 28
1100
0000
1000
0100
1000
0100
1000
0000
,  // measure 29
0101
0000
0001
0100
0001
0100
0001
0000
,  // measure 30
1100
0000
1000
0100
1000
0100
1000
0000
,  // measure 31
0110
1010
0110
0011
,  // measure 32
0110
0000
0010
1000
0010
1000
0010
0000
,  // measure 33
1100
0000
0100
0010
0100
0010
0100
0000
,  // measure 34
0011
0000
0100
0001
0100
0001
0100
0000
,  // measure 35
0001
0000
0000
0100
0000
0000
0100
0000
1000
0000
0000
0100
0000
0000
0100
0000
,  // measure 36
0001
0101
0101
0101
,  // measure 37
1000
1100
1100
1100
,  // measure 38
0010
0011
0011
0011
,  // measure 39
0100
1010
1010
1010
,  // measure 40
0010
1001
1001
1001
,  // measure 41
1000
0110
0110
0110
,  // measure 42
0001
0101
1000
1100
,  // measure 43
2002
0000
3003
0000
,  // measure 44
1000
0001
1000
0001
0100
0000
1001
0000
,  // measure 45
0001
1000
0001
1000
0100
0000
1001
0000
,  // measure 46
1000
0001
1000
0001
0010
0000
0110
0000
,  // measure 47
0001
1000
0001
1000
0010
0000
0110
0000
,  // measure 48
0010
0100
0010
0100
0001
0000
0101
0000
,  // measure 49
0010
1000
0010
1000
0100
0000
1100
0000
,  // measure 50
0100
1000
0100
1000
0001
0000
1001
0000
,  // measure 51
1000
0001
1000
0001
0010
0000
0011
0000
,  // measure 52
0001
0000
0000
0000
0100
0000
0000
0001
0000
0000
0100
0000
0001
0000
0100
0000
,  // measure 53
0001
0000
1001
0000
0001
1000
0001
0000
,  // measure 54
0001
0101
1000
1100
,  // measure 55
0001
0101
2002
3003
,  // measure 56
1100
0000
1000
0100
1000
0100
1000
0000
,  // measure 57
0101
0000
0001
0100
0001
0100
0001
0000
,  // measure 58
1100
0000
1000
0100
1000
0100
1000
0000
,  // measure 59
0110
1010
0110
0011
,  // measure 60
0110
0000
0010
1000
0010
1000
0010
0000
,  // measure 61
1100
0000
0100
0010
0100
0010
0100
0000
,  // measure 62
0011
0000
0100
0001
0100
0001
0100
0000
,  // measure 63
0001
0000
0000
0100
0000
0000
0100
0000
1000
0000
0000
0100
0000
0000
0100
0000
,  // measure 64
1001
0000
0000
0000
;

//---------------dance-single - ----------------
#NOTES:
     dance-single:
     :
     Easy:
     8:
     0.437845,0.486909,0.532557,0.163028,0.010869,282.000000,233.000000,49.000000,15.000000,0.000000,0.000000,0.437845,0.486909,0.532557,0.163028,0.010869,282.000000,233.000000,49.000000,15.000000,0.000000,0.000000:
// measure 0
0000
0000
0000
0000
,  // measure 1
0000
0000
0000
0000
,  // measure 2
0000
0000
0000
0000
,  // measure 3
0000
0000
0000
0000
,  // measure 4
1001
0100
1000
0100
,  // measure 5
1001
0100
0001
0100
,  // measure 6
1001
0100
1000
0100
,  // measure 7
1002
0100
0010
0103
,  // measure 8
1001
0100
0001
0100
,  // measure 9
1001
0100
1000
0100
,  // measure 10
1001
0100
0001
0100
,  // measure 11
2001
0010
0100
3010
,  // measure 12
1000
1000
1000
0100
,  // measure 13
0001
0001
0001
0010
,  // measure 14
1000
1000
0100
0100
,  // measure 15
0001
0001
0010
0010
,  // measure 16
1000
0100
0001
0010
,  // measure 17
1000
0100
0001
0010
,  // measure 18
1000
0100
0001
0010
,  // measure 19
0220
0000
0000
0330
,  // measure 20
1000
0100
0001
0100
,  // measure 21
1001
0100
1001
1001
,  // measure 22
0100
1001
0100
0100
,  // measure 23
1001
0100
1001
0100
,  // measure 24
1000
0100
0001
0100
,  // measure 25
1001
0100
1001
1001
,  // measure 26
0100
1001
0100
0100
,  // measure 27
1001
0100
2002
3003
,  // measure 28
1001
0100
1000
0100
,  // measure 29
1001
0100
0001
0100
,  // measure 30
1001
0100
1000
0100
,  // measure 31
2001
0100
0010
3100
,  // measure 32
1001
0100
0001
0100
,  // measure 33
1001
0100
1000
0100
,  // measure 34
1001
0100
0001
0100
,  // measure 35
1002
0010
0100
0013
,  // measure 36
0001
0100
0100
0100
,  // measure 37
1000
0010
0010
0010
,  // measure 38
0001
0001
0010
0010
,  // measure 39
0100
0100
1000
1000
,  // measure 40
0001
0100
0001
0100
,  // measure 41
0010
1000
0010
1000
,  // measure 42
0001
1000
0100
0010
,  // measure 43
0002
2000
0000
3003
,  // measure 44
1000
0100
0001
0010
,  // measure 45
1000
0100
0001
0010
,  // measure 46
1000
0100
0001
0010
,  // measure 47
1001
0110
1001
0110
,  // measure 48
1000
0100
0001
0010
,  // measure 49
1000
0100
0001
0010
,  // measure 50
1000
0100
0001
0010
,  // measure 51
2002
0000
0000
3003
,  // measure 52
1000
0100
0001
0100
,  // measure 53
1001
0100
1001
1001
,  // measure 54
0100
1001
0100
0100
,  // measure 55
1001
0100
2002
3003
,  // measure 56
1001
0100
1000
0100
,  // measure 57
1001
0100
0001
0100
,  // measure 58
1001
0100
1000
0100
,  // measure 59
2001
0100
0010
3100
,  // measure 60
1001
0100
0001
0100
,  // measure 61
1001
0100
1000
0100
,  // measure 62
1001
0100
0001
0100
,  // measure 63
1001
0000
0000
0001
0000
0000
1000
0000
0001
0000
0000
1000
0000
0000
0001
0000
,  // measure 64
1001
0000
0000
0000
;

//---------------dance-single - ----------------
#NOTES:
     dance-single:
     :
     Beginner:
     3:
     0.209607,0.278234,0.021737,0.086948,0.000000,135.000000,133.000000,2.000000,8.000000,0.000000,0.000000,0.209607,0.278234,0.021737,0.086948,0.000000,135.000000,133.000000,2.000000,8.000000,0.000000,0.000000:
// measure 0
0000
0000
0000
0000
,  // measure 1
0000
0000
0000
0000
,  // measure 2
0000
0000
0000
0000
,  // measure 3
0000
0000
0000
0000
,  // measure 4
1000
1000
0000
0000
,  // measure 5
0001
0001
0000
0000
,  // measure 6
0100
0100
0000
0000
,  // measure 7
0010
0010
0010
0000
,  // measure 8
0001
0001
0000
0000
,  // measure 9
1000
1000
0000
0000
,  // measure 10
0100
0100
0000
0000
,  // measure 11
0010
0010
0010
0000
,  // measure 12
1000
1000
1000
0000
,  // measure 13
0001
0001
0001
0000
,  // measure 14
1000
1000
1000
0000
,  // measure 15
0001
0001
0001
0001
,  // measure 16
0100
0100
0100
0000
,  // measure 17
0010
0010
0010
0000
,  // measure 18
0100
0100
0100
0000
,  // measure 19
0020
0000
0030
0000
,  // measure 20
1000
0000
0001
0000
,  // measure 21
0001
0000
1000
0000
,  // measure 22
0100
0000
0100
0000
,  // measure 23
0001
0000
0001
0000
,  // measure 24
1000
0000
0001
0000
,  // measure 25
0001
0000
0001
0000
,  // measure 26
0100
0000
0100
0000
,  // measure 27
0200
0000
0300
0000
,  // measure 28
1000
1000
0000
0000
,  // measure 29
0001
0001
0000
0000
,  // measure 30
0100
0100
0000
0000
,  // measure 31
0010
0010
0010
0000
,  // measure 32
0001
0001
0000
0000
,  // measure 33
1000
1000
0000
0000
,  // measure 34
0100
0100
0000
0000
,  // measure 35
0020
0000
0030
0000
,  // measure 36
0001
0000
0100
0000
,  // measure 37
0001
0000
0100
0000
,  // measure 38
0001
0000
0010
0000
,  // measure 39
0100
0000
1000
0000
,  // measure 40
1000
0000
1000
0000
,  // measure 41
0010
0000
0010
0000
,  // measure 42
0001
0000
0100
0000
,  // measure 43
2000
0000
0000
3000
,  // measure 44
1000
1000
1000
0000
,  // measure 45
0001
0001
0001
0000
,  // measure 46
0100
0100
0100
0000
,  // measure 47
0010
0010
0010
0000
,  // measure 48
0100
0100
0100
0000
,  // measure 49
0010
0010
0010
0000
,  // measure 50
0001
0001
0001
0000
,  // measure 51
0200
0000
0300
0000
,  // measure 52
1000
0000
0001
0000
,  // measure 53
0001
0000
0001
0000
,  // measure 54
0100
0000
0100
0000
,  // measure 55
0200
0000
0300
0000
,  // measure 56
1000
1000
0000
0000
,  // measure 57
0001
0001
0000
0000
,  // measure 58
0100
0100
0000
0000
,  // measure 59
0010
0010
0010
0000
,  // measure 60
0001
0001
0000
0000
,  // measure 61
1000
1000
0000
0000
,  // measure 62
0100
0100
0000
0000
,  // measure 63
2002
0000
3003
0000
,  // measure 64
1001
0000
0000
0000
;
